This file was generated by Ched 2.7.0.0.
#TITLE ""
#ARTIST ""
#DESIGNER ""
#DIFFICULTY 0
#PLAYLEVEL
#SONGID ""
#WAVE ""
#WAVEOFFSET 0
#JACKET ""
#REQUEST "ticks_per_beat 480"
#00002: 4
#BPM01: 193
#00008: 01
#TIL00: ""
#VOLUME: ""
#HISPEED 00
#MEASUREHS 00
#00515:0000130000130000
#00519:0000001400000000
#00518:00000014
#0051a:14
#00615:13000013
#00618:0013
#0061a:0024000000000000
#00612:00240000
#00815:23000013
#00812:0000002400000000
#0081a:0000002400000000
#00818:0023000000000000
#06917:00000013
#06916:1300001300000000
#06919:00131300
#0691a:24
#07212:0014
#07216:00000014
#07214:0000000000140000
#07218:1300130000000014
#06817:00130013
#06819:13
#0681b:0013
#06814:24
#06812:00240024
#06816:0024
#07012:00130000
#07015:0013
#0701b:0013
#07018:00000013
#07016:13
#08118:0000000000130000
#08114:00130000
#08112:23000013
#0811b:13000023
#08117:0000002300000000
#08110:41
#08615:0013000000130024
#08612:0013
#08618:00000013
#08619:00150000
#0861b:0000000000000023
#08517:0015
#08512:0000000000150025
#08518:0000000000000023
#08718:00130000
#08712:0013000000000000
#08715:0000000014000023
#0871a:0014
#08719:0000000000000025
#06118:00130000
#06115:0000000000130000
#06112:0000002500000000
#06119:25000025
#06312:14
#0621a:0000000000000014
#06218:0013000000130000
#06212:13000013
#06215:00131300
#0621b:0000001300000000
#0071b:13131300
#00715:0013000000130000
#00712:13131300
#00718:00000000000013000000000000000033
#0071a:00000000000000000000000000330000
#00719:0000000000000033
#00912:00130000
#00918:1300001300000000
#00915:00000013
#0091b:00000013
#00910:41
#01212:00130013
#0121b:0000000000000013
#01218:1313
#01215:0023000000230000
#01718:13000013
#01715:0000001400000000
#01712:14
#01912:00130000
#01915:13
#01918:00260000
#01916:0025
#01914:00000024
#02015:0013
#02018:00000013
#0201b:13
#02012:23
#0211b:1300000000130000
#02112:13
#02118:00130000
#02115:0000001300000013
#02218:0013000000130000
#02212:0013000000130000
#0221b:0000001300000000
#02215:0000001300000013
#02318:1313
#0231b:00000013
#02312:00130013
#03218:13000013
#03212:0000002400000000
#0321a:0000002400000000
#03215:0023000000000000
#0331a:14
#03315:13
#03318:0000001300130000
#03312:00140014
#03912:13000013
#0391a:00140014
#03918:1313
#04018:1313
#0401a:00140014
#04012:00000013
#04015:0023000023000000
#04212:00140014
#04218:1313
#0441b:00000013
#04418:2413
#04412:1413
#04415:00000013
#04512:1300000000000013
#04515:0000130000130000
#04518:1300001300000013
#0451b:0000000000130000
#04618:0000001300000013
#0461b:0000000000130000
#04612:0000001300000000
#04615:0013000000130000
#04819:00130000
#04815:0000000000000013
#04818:00000013
#04812:0000000000130000
#04816:0013000000000000
#0481b:0023
#05114:1414
#05119:0013001300000000
#0511a:00000014
#05116:0000000000000013
#05110:41
#05216:0013000000000000
#0521a:00140000
#05218:0000000000130000
#05215:0023
#0521b:00000023
#05212:00000023
#0601a:0014
#06012:00140014
#0601b:13
#06017:00240024
#06015:0024
#0181b:00130000
#01812:00000013
#00118:0000131300000000
#00112:13000013
#0011a:24
#00216:0013
#00214:00000013
#0021b:0013000000000000
#00218:00000000001300000000000000000000
#00219:00000013
#01512:13
#01518:00000013
#0151b:13
#01615:1313
#01612:00130013
#0161b:00130013
#01618:0023000023000000
#02512:1300000000000024
#02515:0000001300000000
#0251b:13
#02518:0000001300000000
#02510:41
#03012:0013
#03017:0013
#03014:00000013
#03019:00000013
#05812:1313
#05818:1313
#0581b:00000013
#05815:00230023
#05718:2313
#0571b:00130013
#05712:0013
#05715:00230023
#0901a:0014240000000014
#09012:0000000014240000
#0911a:2400000000140014
#09112:0000142400001400
#0491a:1400545400002400
#04916:0000131300000000
#04912:24000014
#05017:1313000000000000
#0501a:0000000014545400
#05012:5454000024001400
#0431a:00140014
#04312:0014
#04318:2424
#04314:00240024
#04115:13
#04112:00140014
#04117:0000001400000000
#0411a:14
#01318:0013000000131300
#01315:1300001300000000
#0111b:0013
#01118:00130000
#01112:0013
#01115:00130000
#0141b:13
#01415:00000013
#01418:00000013
#02815:1300000000000014
#02818:00000014
#0281a:0014000000000000
#02817:00000000001400000000000000000000
#02714:1414
#0271b:1313
#02718:0000140000000013
#02712:00130000
#02615:0013000013000000
#02618:00000013
#0261a:00240000
#02912:0000000000140000
#0291a:14
#02916:0000000000140000
#03112:00131300
#03116:13000013
#0311b:13000013
#03117:00130000
#0341b:00000013
#03418:0013000013000000
#03412:00140014
#03415:13
#05618:0013
#05617:0013000000000000
#05615:0000000000130000
#05612:00000000240000000000003333333333
#01012:0013000000000000
#0541a:5454000024001400
#05416:1313000000000000
#05412:0000000014545400
#05518:1424
#05514:0013001300000000
#05517:0000000000000013
#05512:00000014
#05317:0000131300000000
#05312:1400545400002400
#0531a:24000014
#0531f:11
#0591b:1313
#05912:1313
#05915:00130013
#05918:00230023
#0671b:00130013
#06712:0013
#06718:1313
#06716:00000024
#07714:00140000
#07718:00000014
#07712:24
#07717:23
#07716:0023
#07814:00140000
#07818:00000014
#07817:23
#07816:0023
#07918:0014
#07914:00000014
#07917:23
#07912:00230000
#0791b:00230000
#08215:0000001300000000
#08219:13
#0821b:0013
#08214:00000013
#08216:0023000000000000
#08212:0023
#08818:0013000000130000
#0881b:0013
#08815:00000013
#08812:0000150000000023
#08817:0000000000000024
#0891b:0013000000000000
#08918:00000013
#08915:00130000
#08917:0014
#08912:0000000014000024
#09215:00000000000000000014000000000000
#09214:00000000000000000000001400000000
#09213:00002400000000000000000000140000
#09219:0024000000240000
#09218:00000024
#0921a:0024
#03718:13
#03712:14
#03715:0000001300130000
#0371a:00140014
#03710:41
#03815:0013000013001300
#0381a:00140014
#03818:13
#07118:00130000
#07115:00001313
#07616:00132413
#07614:13
#07612:0013
#07618:24
#0761a:00240024
#07512:00130013
#0751b:0013
#07515:1313
#07516:00000024
#03512:00140014
#03517:00130000
#03612:00140014
#03615:1313
#03618:0013000000001300
#0361b:0013
#08015:00001313
#08018:1400260000130013
#08012:26
#08312:13131313
#0831b:00131313
#08315:0000000000130000
#08318:0000001300000013
#08316:24
#06515:00000000000000140000000000000000
#0651b:00131300
#06518:00000013
#06512:24
#06516:0000000000000024
#06517:24
#0651f:21
#06510:0041
#00312:13
#00315:0000131300000000
#0031b:13000013
#00417:0013
#00412:0013000000000000
#00415:00000000001300000000000000000000
#00419:00000013
#00414:00000013
#0841a:0013131300000000
#08415:00000013001300000000000000000000
#08416:00000000000000000000001300130000
#0841b:0000000000131313
#08412:2424
#0661a:0000001400000000
#06612:1300000000001324
#06615:00131300
#07317:00000000000000140000000000000000
#07312:00131300
#07315:24000013
#0731a:24
#07316:0000000000000024
#07412:0000001400000000
#0741b:13000013
#07418:00131300
#0741a:0000000000000024
#0471b:13000013
#04718:0013
#04715:00130000
#04712:00000013
#09616:00000000000000000000000000540000
#06418:0052
#06416:0052
#00558:00000044
#00559:0000004400000000
#0055a:44
#00852:0000001400000000
#0085a:0000001400000000
#06957:00000053
#06956:0000005300000000
#01758:13
#01752:64
#01755:0000002400000000
#02152:13
#02155:0000005300000000
#0215b:0000000000530000
#02352:00530013
#02358:53
#0235b:00000013
#05758:6353
#0575b:00530053
#05752:13
#0625a:0000000000000064
#06352:64
#00152:63000063
#00158:0000006300000000
#0015a:14
#08758:00130000
#08755:0014
#08759:0000000000000045
#0875a:0014
#04155:13
#04157:0000002400000000
#0415a:54
#00958:1300006300000000
#00955:00000053
#0095b:00000063
#0115b:0023
#01158:00630000
#01152:0023
#01155:00530000
#01552:23
#01555:00130000
#0155b:23
#01558:00130000
#0145b:23
#01455:00000063
#01458:00000053
#01358:0063000000006300
#01355:0000006300000000
#02552:5300000000000014
#02555:0000002300000000
#0255b:63
#02558:0000002300000000
#02855:0000000000000064
#0285a:0064000000000000
#02857:00000000002400000000000000000000
#02952:0000000000240000
#0295a:64
#02956:0000000000240000
#03252:0000001400000000
#0325a:0000001400000000
#0315b:53
#03156:00000053
#03152:0063
#03157:00630000
#01052:0053000000000000
#0595b:13
#05952:0023
#05955:00530053
#05858:23
#07754:00140000
#07758:00000014
#07757:53
#07756:0063
#07854:00140000
#07858:00000014
#07857:53
#07856:0063
#08152:00000053
#0815b:63
#08552:0000000000000035
#08655:0000000000000034
#08659:00450000
#08857:0000000000000044
#08852:00350000
#08952:0000000014000054
#08955:00130000
#08957:0014
#0905a:00640000
#09052:0000000000540000
#09056:0000340000440000
#0915a:6400000000000014
#09152:0000005400000000
#09156:3400004400000000
#04458:14
#04452:14
#05558:0014
#0265a:00140000
#03855:00000063
#03955:00130000
#03952:23
#0335a:14
#03752:14
#04258:6353
#0455b:0000000000630000
#04558:0000006300000063
#04652:0000005300000000
#04655:0053000000530000
#05655:0000000000530000
#05652:00140000
#0715b:00000013
#07155:00130053
#07158:00630000
#09252:00160000
#09258:00160000
#0345b:00000053
#03557:00530000
#0065a:0014000000000000
#00652:00140000
#08052:16
#08058:24160000
#07954:00000024
#07952:00130000
#0795b:00130000
#08356:14
#02754:1414
#02758:00140000
#0525a:00140000
#05154:0014
#0825b:0063
#06555:00000000000000240000000000000000
#06552:54
#06556:0000000000000054
#06557:14
#06755:00140000
#0025b:0053000000000000
#00258:00000000002300000000000000000000
#00355:0000005300000000
#0035b:53000053
#00452:0063000000000000
#00455:00000000002300000000000000000000
#07058:00000013
#07258:00630000
#07252:00130000
#0665a:0000002400000000
#06652:0000000000000054
#07357:00000000000000240000000000000000
#0735a:64
#07356:0000000000000064
#07355:14
#07452:0000002400000000
#0745a:0000000000000064
#07557:00140000
#02052:13
#0205b:13
#04752:13000063
#0475b:53000013
#04755:00530000
#04856:0023000000000000
#04952:14
#0495a:00000014
#0535a:14
#05352:00000014
#06159:45000045
#06152:0000003500000000
#001320:13
#001350:0000002300000000
#001381:0000001300000000
#0013b1:00000023
#001320:00000013
#002350:0023000000000000
#0023b1:0013000023000000
#002381:00000000005300000000000000000000
#0033b1:13
#003381:0000002300000000
#003350:0000001300000000
#003320:00000023
#0033b1:00000013
#004381:0023000000000000
#004320:0013000023000000
#004350:00000000005300000000000000000000
#0073b0:00000013
#0073a0:00000000000000000000000000330000
#007390:0000000000000033
#007380:00000000000000000000000000000033
#008380:23
#009380:0000001300000000
#0093b0:00000053
#010380:0023000000000000
#009351:00000013
#010321:0053000000000000
#010351:0023
#010380:00001323
#010351:00000013
#011351:00530023
#011321:0053
#011380:00130023
#0113b0:0053
#013380:0013000000000000
#0133b0:0000002300000000
#013351:0000001300000000
#013321:00000023
#013380:00000013
#0143b0:53
#014380:00230000
#014351:00132300
#014380:00001353
#0153b0:53
#015380:00230000
#014351:00000013
#015321:53
#015351:00230000
#017321:14000024
#017351:0000005400000000
#018341:1424
#018380:0014
#019380:24
#021350:0000001300000000
#021320:0000000000230000
#0213b1:0000000000130000
#021381:0000000000000023
#023381:13
#0233b1:00230000
#023320:00130000
#023350:0023
#024380:00132300
#024351:00001323
#0243b0:00000013
#0253b0:33
#025380:0000005300000000
#0253a0:00000024
#025321:13000024
#025351:0000005300000000
#0283a1:0014000024000000
#028371:00000000005400000000000000000000
#028320:00001424
#028350:0000000000000014
#029320:0000000000540000
#030350:00240000
#0293a1:14
#029361:0000000000540000
#0303a1:00240000
#0313b1:1323
#031371:00330000
#031320:0013
#031360:00000033
#032320:23
#0343b0:00000013
#035370:00330000
#0363b0:23
#038350:00000013
#039320:53
#039350:00230000
#0413a0:14000024
#041370:0000005400000000
#042380:13
#0423b0:00230000
#042380:0013
#0423b0:00000023
#045380:0000001300000033
#0453b0:0000000000330000
#0463b0:0023000000000000
#046351:0013000000330000
#046321:0000003300000033
#047321:23
#0473b0:13
#047380:00230000
#047351:00130000
#047321:0023
#047321:00000013
#048361:0053000000000000
#048321:0023
#056351:0000000000130000
#056321:00000000000000000000003333333333
#057321:23
#057380:1333
#0573b0:00330033
#058380:53
#0583b0:00230000
#059350:00130033
#059320:0053
#060320:23
#0623a0:0000000000000014
#064380:0022
#063321:14
#064361:0022
#065321:1400000000000024
#065351:00000000000000540000000000000000
#065360:0000000000000014
#0663a0:0000005400000000
#066360:0000000000000024
#066321:0000000000000014
#067351:00240000
#069361:0000001300000000
#069321:00000023
#069370:00000013
#0703b0:00230000
#071350:13230000
#071381:00130000
#0713b1:00005323
#071350:00000013
#072320:53230000
#072381:00130000
#0723b1:0023
#0733a1:1400000000000024
#073371:00000000000000540000000000000000
#073360:0000000000000014
#074320:0000005400000000
#074360:0000000000000024
#0743a1:0000000000000014
#075371:00240000
#077371:13
#0773b1:0023
#077360:0013
#078320:23
#078371:13
#0783b1:0023
#078360:0013
#079320:23
#079340:0000000000145400
#080320:26
#079381:00000014
#080381:54260000
#0813b1:13
#081371:00230000
#081321:00000013
#082361:23
#0823b1:0013
#082371:00000023
#085321:155555000000000000555555250000000000000000000000
#085331:005500550000550000000000550055005500005500550055000000000000000000000000000000000000000000000000
#085341:000000000055000055005500005500550055000000000000000000000000000000000000000000000000000000000000
#085351:000000000000005500550055000000000000000000000000000000000000000000000000000000000000000000000000
#089321:0000000000000014
#090361:00240000
#0903a0:00140000
#090360:0000000000240000
#090321:0000000000140000
#091361:24
#0913a0:14
#091360:0000002400000000
#091321:0000001400000000
#091361:0000000000240000
#092331:0014000000000000
#092321:00260000
#092390:0014000000000000
#092380:00260000
#092370:0000000000000014
#094390:00000000000055555500000000000000
#094380:00000000000000000000000000000000000000000000000000000055000000550000000000000000000000000000000000000000000000000000000000000000
#096360:00000000000000000000000000240000
#0499a0:140000000000000000000000000000000000000000000000000000000000000000000000000000000000000000000000000000000000000000000000000000000000000000000000000000000000000000000000000000000000000000000000000000000000000000000000000000000000000000000000000000000000000000000000000000000000000000000000000000000000000000000000000000000000000000000000000000000000000000000000000000000000000000000000000000000000000000000000000000000000000000000000000000000000000000000000000000000000000000000000000000000000000000000000000000000000000000000000000000000000000000000000000000000000000000000000000000000000000000000000000000000000000000000000000000000000000000000000000000000000000000000000000000000000000000000000000000000000000000000000000000000000000000000000000000000000000000000000000000000000000000000000000000000000000000000000000000000000000000000000000000000000000000000000000000000000000000000000000000000000000000000000000000000000000000000000000000000000000000000000000000000000000000000000000000000000000000000000000000000000000000000000000000000000000000000000000000000000000000000000000000000000000000000000000000000000000000000000000000000000000000000000000000000000000000000000000000000000000000000000000000000000000000000000000000000000000000000000000000000000000000000000000000000000000000000000000000000000000000000000000000000000000000000000000000000000000000000000000000000000000000000000000000000000000000000000000000000000000000005454240000000000000000000000000000000000000000000000000000000000000000000000000000000000000000000000000000000000000000000000000000000000000000000000000000000000000000000000000000000000000000000000000000000000000000000000000000000000000000000000000000000000000000000000000000000000000000000000000000000000000000000000000000000000000000000000000000000000000000000000000000000000000000000000000000000000000000000000000000000000000000000000000000000000000000000000000000000000000000000000000000000000000000000000000000000000000000000000000000000000000000000000000000000000000000000000000000000000000000000000000000000000000000000000000000000000000000000000000000000000000000000000000000000000000000000000000000000000000000000000000000000000000000000000000000000000000000000000000000000000000000000000000000000000000000000000000000000000000000000000000000000000000000000000000000000000000000000000000000000000000000000000000000000000000000000000000000000000000000000000000000000000000000000000000000000000000000000000000000000000000000000000000000000000000000000000000000000000000000000000000000000000000000000000000000000000000000000000000000000000000000000000000000000000000000000000000000000000000000000000000000000000000000000000000000000000000000000000000000000000000000000000000000000000000000000000000000000000000000000000000000000000000000000000000000000000000000000000000000000000000000000000000000000000000000000000000000000000000000000000000000000000000000000000000000000000000000000000000000000000000000000000000000000000000000000000000000000000000000000000000000000000000000000000000000000000000000000000000000000000000000000000000000000000000000000000000000000000000000000000000000000000000000000000000000000000000000000000000000000000000000000000000000000000000000000000000000000000000000000000000000000000000000000000000000000000000000000000000000000000000000000000000000000000000000000000000000000000000000000000000000000000000000000000000000000000000000000000000000000000000000000000000000000000000000000000000000000000000000000000000000000000000000000000000000000000000000000000000000000000000000000000000000000000000000000000000000000000000000000000000000000000000000000000000000000000000000000000000000000000000000000000000000000000000000000000000000000000000000000000000000000000000000000000000000000000000000000000000000000000000000000000000000000000000000000000000000000000000000000000
#049920:00000014
#050920:000000000000000000000000000000000000000000000000000000000000000000000000000000000000000000000000000000000000000000000000000000000000000000000000000000000000000000000000000000000000000000000000000000000000000000000000000000000000000000000000000000000000000000000000000000000000000000000000000000000000000000000000000000000000000000000000000000000000000000000000000000000000000000000000000000000000000000000000000000000000000000000000000000000000000000000000000000000000000000005454240000000000000000000000000000000000000000000000000000000000000000000000000000000000000000000000000000000000000000000000000000000000000000000000000000000000000000000000000000000000000000000000000000000000000000000000000000000000000000000000000000000000000000000000000000000000000000000000000000000000000000000000000000000000000000000000000000000000000000000000000000000000000000000000000000000000000000000000000000000000000000000000000000000000000000000000000000000000000000000000000000000000000000000000000000000000000000000000000000000000000000000000000000000000000000000000000000000000000000000000000000000000000000000000000000000000000000000000000000000000000000000000000000000000000000000000000000000000000000000000000000000000000000000000000000000000000000000000000000000000000000000000000000000000000000000000000000000000000000000000000000000000000000000000000000000000000000000000000000000000000000000000000000000000000000000000000000000000000000000000000000000000000000000000000000000000000000000000000000000000000000000000000000000000000000000000000000000000000000000000000000000000000000000000000000000000000000000000000000000000000000000000000000000000000000000000000000000000000000000000000000000000000000000000000000000000000000000000000000000000000000000000000000000000000000000000000000000000000000000000000000000000000000000000000000000000000000000000000000000000000000000000000000000000000000000000000000000000000000000000000000000000000000000000000000000000000000000000000000000000000000000000000000000000000000000000000000000000000000000000000000000000000000000000000000000000000000000000000000000000000000000000000000000000000000000000000000000000000000000000000000000000000000000000000000000000000000000000000000000000000000000000000000000000000000000000000000000000000000000000000000000000000000000000000000000000000000000000000000000000000000000000000000000000000000000000000000000000000000000000000000000000000000000000000000000000000000000000000000000000000000000000000000000000000000000000000000000000000000000000000000000000000000000000000000000000000000000000000000000000000000000000000000000000000000000000000000000000000000000000000000000000000000000000000000000000000000000000000000000000000000000000000000000000000000000000000000000000000000000000000000000000000000000000000000000000000000000000000000000000000000000000000000000000000000000000000000000000000000000000000000000000000000000000000000000000000000000000000000000000000000000000000000000000000000000000000000000000000000000000000000000000000000000000000000000000000000000000000000000000000000000000000000000000000000000000000000000000000000000000000000000000000000000000000000000000000000000000000000000000000000000000000000000000000000000000000000000000000000000000000000000000000000000000000000000000000000000000000000000000000000000000000000000000000000000000000000000000000000000000000000000000000000000000000000000000000000000000000000000000000000000000000000000000000000000000000000000000000000000000000000000000000000000000000000000000000000000000000000000000000000000000000000000000000000000000000000000000000000000000000000000000000000000000000000000000000000000000000000000000000000000000000000000000000000000000000000000000000000000000000000000000000000000000000000000000000000000000000000000000000000000000000000000000000000000000000000000000000000000000
#0509a0:000000000000000000000000000000000000000000000000000000000000000000000000000000000000000000000000000000000000000000000000000000000000000000000000000000000000000000000000000000000000000000000000000000000000000000000000000000000000000000000000000000000000000000000000000000000000000000000000000000000000000000000000000000000000000000000000000000000000000000000000000000000000000000000000000000000000000000000000000000000000000000000000000000000000000000000000000000000000000000000000000000000000000000000000000000000000000000000000000000000000000000000000000000000000000000000000000000000000000000000000000000000000000000000000000000000000000000000000000000000000000000000000000000000000000000000000000000000000000000000000000000000000000000000000000000000000000000000000000000000000000000000000000000000000000000000000000000000000000000000000000000000000000000000000000000000000000000000000000000000000000000000000000000000000000000000000000000000000000000000000000000000000000000000000000000000000000000000000000000000000000000000000000000000000000000000000000000000000000000000000000000000000000000000000000000000000000000000000000000000000000000000000000000000000000000000000000000000000000000000000000000000000000000000000000000000000000000000000000000000000000000000000000000000000000000000000000000000000000000000000000000000000000000000000000000000000000000000000000000000000000000000000000000000000000000000000000000000000000000000000000000000000000000000000000000000000000000000000000000000000000000000000000000000000000000000000000000000000000000000000000000000000000000000000000000000000000000000000000000000000000000000000000000000000000000000000000000000000000000000000000000000000000000000000000000000000000000000000000000000000000000000000000000000000000000000000000000000000000000000000000000000000000000000000000000000000000000000000000000000000000000000000000000000000000000000000000000000000000000000000140000000000000000000000000000000000000000000000000000000000000000000000000000000000000000000000000000000000000000000000000000000000000000000000000000000000000000000000000000000000000000000000000000000000000000000000000000000000000000000000000000000000000000000000000000000000000000000000000000000000000000000000000000000000000000000000000000000000000000000000000000000000000000000000000000000000000000000000000000000000000000000000000000000000000000000000000000000000000000000000000000000000000000000000000000000000000000000000000000000000000000000000000000000000000000000000000000000000000000000000000000000000000000000000000000000000000000000000000000000000000000000000000000000000000000000000000000000000000000000000000000000000000000000000000000000000000000000000000000000000000000000000000000000000000000000000000000000000000000000000000000000000000000000000000000000000000000000000000000000000000000000000000000000000000000000000000000000000000000005454240000000000000000000000000000000000000000000000000000000000000000000000000000000000000000000000000000000000000000000000000000000000000000000000000000000000000000000000000000000000000000000000000000000000000000000000000000000000000000000000000000000000000000000000000000000000000000000000000000000000000000000000000000000000000000000000000000000000000000000000000000000000000000000000000000000000000000000000000000000000000000000000000000000000000000000000000000000000000000000000000000000000000000000000000000000000000000000000000000000000000000000000000000000000000000000000000000000000000000000000000000000000000000000000000000000000000000000000000000000000000000000000000000000000000000000000000000000000000000000000000000000000000000000000000000000000000000000000000000000000000000000000000000000000000000000000000000000000000000000000000000000000000000000000000000000000000000000000000000000000000000000000000000000000000000000000000000000000000000000000
#053920:140000000000000000000000000000000000000000000000000000000000000000000000000000000000000000000000000000000000000000000000000000000000000000000000000000000000000000000000000000000000000000000000000000000000000000000000000000000000000000000000000000000000000000000000000000000000000000000000000000000000000000000000000000000000000000000000000000000000000000000000000000000000000000000000000000000000000000000000000000000000000000000000000000000000000000000000000000000000000000000000000000000000000000000000000000000000000000000000000000000000000000000000000000000000000000000000000000000000000000000000000000000000000000000000000000000000000000000000000000000000000000000000000000000000000000000000000000000000000000000000000000000000000000000000000000000000000000000000000000000000000000000000000000000000000000000000000000000000000000000000000000000000000000000000000000000000000000000000000000000000000000000000000000000000000000000000000000000000000000000000000000000000000000000000000000000000000000000000000000000000000000000000000000000000000000000000000000000000000000000000000000000000000000000000000000000000000000000000000000000000000000000000000000000000000000000000000000000000000000000000000000000000000000000000000000000000000000000000000000000000000000000000000000000000000000000000000000000000000000000000000000000000000000000000000000000000000000000000000000000000000000000000000000000000000000000000000000000000000000005454240000000000000000000000000000000000000000000000000000000000000000000000000000000000000000000000000000000000000000000000000000000000000000000000000000000000000000000000000000000000000000000000000000000000000000000000000000000000000000000000000000000000000000000000000000000000000000000000000000000000000000000000000000000000000000000000000000000000000000000000000000000000000000000000000000000000000000000000000000000000000000000000000000000000000000000000000000000000000000000000000000000000000000000000000000000000000000000000000000000000000000000000000000000000000000000000000000000000000000000000000000000000000000000000000000000000000000000000000000000000000000000000000000000000000000000000000000000000000000000000000000000000000000000000000000000000000000000000000000000000000000000000000000000000000000000000000000000000000000000000000000000000000000000000000000000000000000000000000000000000000000000000000000000000000000000000000000000000000000000000000000000000000000000000000000000000000000000000000000000000000000000000000000000000000000000000000000000000000000000000000000000000000000000000000000000000000000000000000000000000000000000000000000000000000000000000000000000000000000000000000000000000000000000000000000000000000000000000000000000000000000000000000000000000000000000000000000000000000000000000000000000000000000000000000000000000000000000000000000000000000000000000000000000000000000000000000000000000000000000000000000000000000000000000000000000000000000000000000000000000000000000000000000000000000000000000000000000000000000000000000000000000000000000000000000000000000000000000000000000000000000000000000000000000000000000000000000000000000000000000000000000000000000000000000000000000000000000000000000000000000000000000000000000000000000000000000000000000000000000000000000000000000000000000000000000000000000000000000000000000000000000000000000000000000000000000000000000000000000000000000000000000000000000000000000000000000000000000000000000000000000000000000000000000000000000000000000000000000000000000000000000000000000000000000000000000000000000000000000000000000000000000000000000000000000000000000000000000000000000000000000000000000000000000000000000000000000000000000000000000000000000000000000000000000000000000000000000000000000000000000000000000000000000000000000000000000000000000000000000000000000000000000000000000000000000000000000000000000000000000
#0539a0:00000014
#0549a0:000000000000000000000000000000000000000000000000000000000000000000000000000000000000000000000000000000000000000000000000000000000000000000000000000000000000000000000000000000000000000000000000000000000000000000000000000000000000000000000000000000000000000000000000000000000000000000000000000000000000000000000000000000000000000000000000000000000000000000000000000000000000000000000000000000000000000000000000000000000000000000000000000000000000000000000000000000000000000000005454240000000000000000000000000000000000000000000000000000000000000000000000000000000000000000000000000000000000000000000000000000000000000000000000000000000000000000000000000000000000000000000000000000000000000000000000000000000000000000000000000000000000000000000000000000000000000000000000000000000000000000000000000000000000000000000000000000000000000000000000000000000000000000000000000000000000000000000000000000000000000000000000000000000000000000000000000000000000000000000000000000000000000000000000000000000000000000000000000000000000000000000000000000000000000000000000000000000000000000000000000000000000000000000000000000000000000000000000000000000000000000000000000000000000000000000000000000000000000000000000000000000000000000000000000000000000000000000000000000000000000000000000000000000000000000000000000000000000000000000000000000000000000000000000000000000000000000000000000000000000000000000000000000000000000000000000000000000000000000000000000000000000000000000000000000000000000000000000000000000000000000000000000000000000000000000000000000000000000000000000000000000000000000000000000000000000000000000000000000000000000000000000000000000000000000000000000000000000000000000000000000000000000000000000000000000000000000000000000000000000000000000000000000000000000000000000000000000000000000000000000000000000000000000000000000000000000000000000000000000000000000000000000000000000000000000000000000000000000000000000000000000000000000000000000000000000000000000000000000000000000000000000000000000000000000000000000000000000000000000000000000000000000000000000000000000000000000000000000000000000000000000000000000000000000000000000000000000000000000000000000000000000000000000000000000000000000000000000000000000000000000000000000000000000000000000000000000000000000000000000000000000000000000000000000000000000000000000000000000000000000000000000000000000000000000000000000000000000000000000000000000000000000000000000000000000000000000000000000000000000000000000000000000000000000000000000000000000000000000000000000000000000000000000000000000000000000000000000000000000000000000000000000000000000000000000000000000000000000000000000000000000000000000000000000000000000000000000000000000000000000000000000000000000000000000000000000000000000000000000000000000000000000000000000000000000000000000000000000000000000000000000000000000000000000000000000000000000000000000000000000000000000000000000000000000000000000000000000000000000000000000000000000000000000000000000000000000000000000000000000000000000000000000000000000000000000000000000000000000000000000000000000000000000000000000000000000000000000000000000000000000000000000000000000000000000000000000000000000000000000000000000000000000000000000000000000000000000000000000000000000000000000000000000000000000000000000000000000000000000000000000000000000000000000000000000000000000000000000000000000000000000000000000000000000000000000000000000000000000000000000000000000000000000000000000000000000000000000000000000000000000000000000000000000000000000000000000000000000000000000000000000000000000000000000000000000000000000000000000000000000000000000000000000000000000000000000000000000000000000000000000000000000000000000000000000000000000000000000000000000000000000000000000000000000000000000000000000000000000000000000000000000000000000000000000000000000000000000000000000000
#054920:000000000000000000000000000000000000000000000000000000000000000000000000000000000000000000000000000000000000000000000000000000000000000000000000000000000000000000000000000000000000000000000000000000000000000000000000000000000000000000000000000000000000000000000000000000000000000000000000000000000000000000000000000000000000000000000000000000000000000000000000000000000000000000000000000000000000000000000000000000000000000000000000000000000000000000000000000000000000000000000000000000000000000000000000000000000000000000000000000000000000000000000000000000000000000000000000000000000000000000000000000000000000000000000000000000000000000000000000000000000000000000000000000000000000000000000000000000000000000000000000000000000000000000000000000000000000000000000000000000000000000000000000000000000000000000000000000000000000000000000000000000000000000000000000000000000000000000000000000000000000000000000000000000000000000000000000000000000000000000000000000000000000000000000000000000000000000000000000000000000000000000000000000000000000000000000000000000000000000000000000000000000000000000000000000000000000000000000000000000000000000000000000000000000000000000000000000000000000000000000000000000000000000000000000000000000000000000000000000000000000000000000000000000000000000000000000000000000000000000000000000000000000000000000000000000000000000000000000000000000000000000000000000000000000000000000000000000000000000000000000000000000000000000000000000000000000000000000000000000000000000000000000000000000000000000000000000000000000000000000000000000000000000000000000000000000000000000000000000000000000000000000000000000000000000000000000000000000000000000000000000000000000000000000000000000000000000000000000000000000000000000000000000000000000000000000000000000000000000000000000000000000000000000000000000000000000000000000000000000000000000000000000000000000000000000000000000000000000000000000000140000000000000000000000000000000000000000000000000000000000000000000000000000000000000000000000000000000000000000000000000000000000000000000000000000000000000000000000000000000000000000000000000000000000000000000000000000000000000000000000000000000000000000000000000000000000000000000000000000000000000000000000000000000000000000000000000000000000000000000000000000000000000000000000000000000000000000000000000000000000000000000000000000000000000000000000000000000000000000000000000000000000000000000000000000000000000000000000000000000000000000000000000000000000000000000000000000000000000000000000000000000000000000000000000000000000000000000000000000000000000000000000000000000000000000000000000000000000000000000000000000000000000000000000000000000000000000000000000000000000000000000000000000000000000000000000000000000000000000000000000000000000000000000000000000000000000000000000000000000000000000000000000000000000000000000000000000000000000000005454240000000000000000000000000000000000000000000000000000000000000000000000000000000000000000000000000000000000000000000000000000000000000000000000000000000000000000000000000000000000000000000000000000000000000000000000000000000000000000000000000000000000000000000000000000000000000000000000000000000000000000000000000000000000000000000000000000000000000000000000000000000000000000000000000000000000000000000000000000000000000000000000000000000000000000000000000000000000000000000000000000000000000000000000000000000000000000000000000000000000000000000000000000000000000000000000000000000000000000000000000000000000000000000000000000000000000000000000000000000000000000000000000000000000000000000000000000000000000000000000000000000000000000000000000000000000000000000000000000000000000000000000000000000000000000000000000000000000000000000000000000000000000000000000000000000000000000000000000000000000000000000000000000000000000000000000000000000000000000000000
#096960:00000000000000000000000000000000000000000000000000000000000000000000000000000000000000000000000000000000140054000054005400540000
#096970:00000000000000000000000000000000000000000000000000000000000000000000000000000000000000000000000000000000005400540000000054000054
#096950:0000000000000000000000000000000000000000000000000000000054540054
#097960:54005400540054005400540054000054000000005400000000005400540054005400540054005400540054005400000000000000000000000000000000000000
#097970:00540000000000000054000000540000005400540054005400540000005400540054005400540054005400540000000000000000000000000000000000000000
#097950:00000054005400540000005400005400540054000000540054000000000000000000000000000000000000000000000000000000000000000000000000000000
#098970:0022
