This file was generated by Ched 2.7.0.0.
#TITLE ""
#ARTIST ""
#DESIGNER ""
#DIFFICULTY 0
#PLAYLEVEL
#SONGID ""
#WAVE ""
#WAVEOFFSET 0
#JACKET ""
#REQUEST "ticks_per_beat 480"
#00002: 4
#BPM01: 193
#00008: 01
#TIL00: ""
#VOLUME: ""
#HISPEED 00
#MEASUREHS 00
#00514:0014000000000000
#00518:00140000
#0051b:0000001300000000
#00517:0014
#00515:0000000000140000
#00516:0000000000000014
#00512:0000001500001300
#00519:15000015
#00616:14
#00612:00141400
#00614:0014000000000000
#0061a:00241400
#00618:0024000000131313
#00615:00000000000000000000001300130013
#00812:00000014
#0081a:00000014
#00816:240000000000000000000000000000000000000000000000000000000000000000000000000000000000000000000000000000000000000000000000000000000000000000000000000000000000000000000000000000000000000000000000000000000000000000000000000000000000000000000000000000000000000000000000000000000000000000000000000000000000000000000000000000000000000000000000000000000000000000000000000000000000000000000000000000000000000000000000000000000000000000000000000000000000000000000000000000000000000000000000248400000000000000000000000000000000000000000000000000000000000000000000000000000000000000000000000000000000000000000000000000000000000000000000000000000000000000000000000000000000000000000000000000000000000000000000000000000000000000000000000000000000000000000000000000000000000000000000000000000000000000000000000000000000000000000000000000000000000000000000000000000000000000000000000000000000000000000000000000000000000000000000000000000000000000000000000000000000000000000000000000000000000000000000000000000000000000000000000000000000000000000000000000000000000000000000000000000000000000000000000000000000000000000000000000000000000000000000000000000000000000000000000000000000000000000000000000000000000000000000000000000000000000000000000000000000000000000000000000000000000000000000000000000000000000000000000000000000000000000000000000000000000000000000000000000000000000000000000000000000000000000000000000000000000000000000000000000000000000000000000000000000000000000000000000000000000000000000000000000000000000000000000000000000000000000000000000000000000000000000000000000000000000000000000000000000000000000000000000000000000000000000000000000000000000000000000000000000000000000000000000000000000000000000000000000000000000000000000000000000000000000000000000000000000000000000000000000000000000000000000000000000000000000000000000000000000000000000000000000000000000000000000000000000000000000000000000000000000000000000000000000000000000000000000000000000000000000000000000000000000000000000000000000000000000000000000000000000000000000000000000000000000000000000000000000000000000000000000000000000000000000000000000000000000000000000000000000000000000000000000000000000000000000000000000000000000000000000000000000000000000000000000000000000000000000000000000000000000000000000000000000000000000000000000000000000000000000000000000000000000000000000000000000000000000000000000000000000000000000000000000000000000000000000000000000000000000000000000000000000000000000000000000000000000000000000000000000000000000000000000000000000000000000000000000000000000000000000000000000000000000000000000000000000000000000000000000000000000000000000000000000000000000000000000000000000000000000000000000000000000000000000000000000000000000000000000000000000000000000000000000000000000000000000000000000000000000000000000000000000000000000000000000000000000000000000000000000000000000000000000000000000000000000000000000000000000000000000000000000000000000000000000000000000000000000000000000000000000000000000000000000000000000000000000000000000000000000000000000000000000000000000000000000000000000000000000000000000000000000000000000000000000000000000000000000000000000000000000000000000000000000000000000000000000000000000000000000000000000000000000000000000000000000000000000000000000000000000000000000000000000000000000000000000000000000000000000000000000000000000000000000000000000000000000000000000000000000000000000000000000000000000000000000000000000000000000000000000000000000000000000000000000000000000000000000000000000000000000000000000000000000000000000000000000000000000000000000000000000000000000000000000000000000000000000000000000000000000000000000000000000000000000000000000000000000000000000000000000000000000000000000000000000000000000000000000000000000000000000000000000000000000000000000000000000000000000000000000000000000000
#07218:0000000000150000
#07212:00001600160000001500000000000014
#07213:00000000000000000000000000140000
#07214:00000000000000000000001400000000
#07217:00000015
#07216:0000000000000015
#07219:0015
#08014:0000000000000013
#08015:00001600000016000000001300000000
#0801b:0013
#08019:1400000000000013
#0801a:00140000
#08012:00241300
#08018:0000000000131300
#08013:24
#08115:0000000000160000
#08116:0000001300000000
#08112:1400000000002424
#0811a:2424242400001400
#08110:41
#08612:0013000000000000
#08619:00000000000000000000001300000000
#08616:0000140014140024
#0861b:0000130013000013
#08512:0000000016000026
#08518:0000000000150000
#0851a:0000000000000014
#08513:0000000000150000
#09217:00000000000000000016000000000000
#09215:00000000000000000000001600000000
#0921c:12
#09216:0000000000000012000000000000000000000000260000000000000000000000
#09218:0000000016000012000000000000000026000000000000000000000000000000
#09213:00000000000000000000000000160000
#09212:0026000000000026
#09214:00000026
#02116:13130000
#0211b:00130000
#02112:0000001300130013
#02117:00000013
#03216:0000000000140000
#03212:0023000000001400
#0321a:13000014
#03213:13
#0321b:0023000000000000
#03215:0000000000630000000000000000000000000000000000000000000000000000
#03218:0000000000630000000000000000000000000000000000000000000000000000
#03214:00000000000000000063000000000000000000000000000000000000000000000000000000000000000000000000000000000000000000000000000000000000
#03219:00000000000000000063000000000000000000000000000000000000000000000000000000000000000000000000000000000000000000000000000000000000
#03617:0013000000001300
#03612:14141414
#0361b:0013
#04712:00001314
#04715:00002300000000000000000000000013
#0471a:14
#04717:00001323
#04716:23
#04714:00230000
#04713:0000002300000000
#04718:0000000000000023
#05017:1212001200120000
#05012:5454000024001400
#0501a:0024
#00216:0014130000001400
#00212:13000013
#00214:0013
#0021a:0014
#05817:0013
#05819:0000001300130000
#05812:00151315
#05816:0013000000000000
#0581b:00130013
#05818:13
#0271a:0014
#0271b:00130000
#02715:0016001600160000
#02712:1300000013001313
#02713:00140000
#02719:00000000000000000000001300000000
#02718:14
#05618:0000240000131313
#05615:00000000000000000000001300130013
#0561b:0013
#05612:00141300
#05614:0013000000000000
#05617:0023000000000000
#0551a:00001414
#05519:0013001300000000
#05514:0000000024000013
#05512:14
#05516:0023002300000000
#05517:0000000000000023
#00912:13130000
#00914:00000013
#00915:19190000
#00916:00000018000000000000000000000000
#00917:00000017
#00918:00000000000000000000001600000000
#00910:41
#02412:0013
#02419:0000000000130000
#02415:00000000000000000000001300000000
#02416:00000014
#0241b:0013
#02418:23230000
#02519:15
#02517:0014000000000000
#02514:00000014000000130000001200000000
#02518:00141300
#02512:27000000001300000012000000002500
#02516:0000001300120000
#02510:41
#02815:1600001600000000
#02812:00000000000000001300001300000000
#02817:0000000000130000
#02819:00000000000000130000000013000000
#02814:00130000000000000000000000130000
#0281b:0013130000000013
#02816:00000000000000000000000000000013
#03115:0016001600160016
#03112:26142500
#0311b:00000013
#03113:00000000000000000000001300000000
#03118:00260000
#03119:0025
#04815:0000001300000000
#04818:00000000000000130000140000000000
#04816:00130014
#04814:0000000000000014
#0481b:00130000
#04819:23
#0481a:0023000024000000
#04812:0024
#04917:0000121200120000
#04916:14000014
#04912:24
#0491a:0000545400002400
#05712:14001315
#05716:00001400000000000000000000000012
#0571b:00130000
#05717:0013
#05719:0000000000130000
#05718:26
#0601b:1300001313000013
#06012:0000130000131300
#06016:13242424
#06014:0013000000000000
#07915:0016
#07912:1400000000140000
#07918:00000014
#07916:0000000000000014
#0791a:1400000000140000
#0791b:00230000
#08316:0012121212121212
#08318:00120012001200120012001200120012
#08312:14
#08717:0000001325131300
#08712:00000000000000001500001300001400
#08714:00150000
#08719:0013250000000000
#08718:0000000000000026
#0881b:0013000000000000
#08812:0000130000000013
#08814:00000000000000000000001400000000
#08818:0000000000140000
#0881a:0014
#08816:00000000140000000014000000002400
#09014:0000001414000000
#09018:00000000260000140000000000000000
#09013:0000000000001616
#09017:00000000000000000000270000160000
#09012:0013130000130000
#09112:1300000000001800000000001800000000001300000000001a00000000001a0000000016000000000000140000000000
#09114:0000000000000000001a000000000000
#09116:28000018000000000000000000002800
#09118:00000016
#09115:0000002900000000
#00112:0000131300000000
#00116:0000001400131300
#0011a:14000014
#00114:26
#03319:15
#0331a:00141414
#03312:13
#03316:0000001300000000
#08215:0000001600000000
#08212:2424000014001428
#08217:0013000000000000
#08216:0028
#08214:00000000000000000000002800000000
#0111b:00130013
#01119:0013
#01114:00530000
#01117:0000000000530000
#00312:14000014
#0031b:0000131300000000
#00317:0000000000131300
#00316:0000001400000000
#01016:00130000
#01018:00000013
#01019:00150000
#0101a:00000014000000000000000000000000
#0101c:00000000000000000000001200000000
#0101b:00000013
#01512:00130013
#01514:0013
#02912:13000014
#02915:000000160000000000160000000016001600000000000000
#02913:00150000
#0291b:00130000
#02917:15
#0291a:000000000000000000001414
#02919:0015
#03018:000000000000000000001616
#03012:150000001515000000140000
#0301a:00140000
#03015:001616000000001616000000
#03019:0015
#03416:0013000000001300
#03412:00130000
#03414:0000000013000033
#0341a:14141414
#03512:00141414
#03517:0000001300000000
#0351b:13000013
#0371a:14141414
#03712:13000013
#03716:0000001300130000
#03710:41
#0381a:14141414
#03816:0013000000002300
#03812:00230000
#03814:0023
#0121b:00130013
#01219:1313
#01216:0023000000230000
#01212:53
#01214:00000000000000000063000000000000000000000000000000000000000000000000000000000000006300000000000000000000000000000000000000000000
#01614:1313
#01612:00130013
#0161b:00000013
#01617:0023000023000000
#01619:00000000000000000063000000000000000000000000000000000000000000000063000000000000000000000000000000000000000000000000000000000000
#02212:0000001300000013
#02216:0013000000130000
#02218:00000013
#02217:0000001300000000
#0221b:0013000000000000
#0221a:0000000000000013
#0201b:1213
#02016:0013
#02017:00000013
#02012:00000013
#04016:0013
#04012:00000014
#04017:0023002300000000
#04014:23230000
#04019:00000000000000000063000000000000000000000000000000630000000000000000000000000000000000000000000000000000000000000000000000000000
#0401b:0000000000630000000000000063000000000000000000000000000000000000
#0411a:00141414
#04112:14
#04116:00140013
#04216:13
#04212:0013
#0421a:14141414
#04412:14141414
#0441b:2313
#04417:0053000000000000000000000000000000000000000000001300000000000000
#04418:00130000
#04419:00530000000000000000000000000000000000000000000000000000000000000000000000000000130000000000000000000000000000000000000000000000
#0451a:00141414
#04515:0000000000000014
#04516:13
#04514:0000001400000000
#04512:0000000000140000
#04612:0000000000130013
#04617:0000000000130013
#0461a:14141414
#04616:0000001400000000
#04613:0014000000000000
#06714:1818
#06712:0014000000140000
#0671a:00140014
#06716:00130000
#06917:0000120000120000
#06916:1400001400001400
#06918:00540000000000000000000000000000000000000000000000000000000000000000000000000000000000000000000000540000000000000000000000000000
#0691a:0054000000000000000000000000000000000000000000000054000000000000
#06914:00000000000000000000000000000000000000000000000000540000000000000000000000000000000000000000000000000000000000000000000000000000
#06912:0000000000000000000000000054000000000000000000000000000000000000
#0771b:0013
#07712:13
#07716:2454540054545400
#07812:13
#0781b:0013
#07816:5454540054545400
#0431a:00140014
#04312:1400000000000000005300000000000014000000000000000053000000000000
#0431b:2323
#04316:00230023
#04319:00530000000000000000000000000000000000000000000000000000000000000053000000000000000000000000000000000000000000000000000000000000
#04317:0053000000000000000000000000000000530000000000000000000000000000
#04314:00000000000000000000000000000000005300000000000000000000000000000000000000000000000000000000000000530000000000000000000000000000
#06115:0014000000000014
#06118:00140000
#06112:1400002800001400
#0611a:0000001400000000
#06117:0014
#06114:0000000000140000
#06116:28000028
#06216:00000015000000140000130000000000
#06219:0015150000000000
#06212:0000001414000000
#06218:14000013
#06215:0000000000000013
#0621a:0000000000140000
#0681a:1414
#06817:000000000000000000000000000000000000000000000000000000000000000000000000000000000000000000000000000000000000000000000000000000000000000000000000000000000000000000000000000000000000000000000000000000000000000000000000000000000000000000000000000000000000000000000000000000000000000000000000000000000000000000000000000000000000000000000000000000000000000000000000000000000000000000000000000000000000000000000000000000000000000000000000000000000000000000000000000000000000000000000013000000000000000000000000000000000000000000000000000000000000000000000000000000000000000000000000000000000000000000000000000000000000000000000000000000000000000000000000000000000000000000000000000000000000000000000000000000000000000000000000000000000000000000000000000000000000000000000000000000000000000000000000000000000000000000000000000000000000000000000000000000000000000000000000000000000000000000000000000000000000000000000000000000000000000000000000000000000000000000000000000000000000000000000000000000000000000000000000000000000000000000000000000000000000000000000000000000000000000000000000000000000000000000000000000000000000000000000000000000000000000000000000000000000000000000000000000000000000000000000000000000000000000000000000000000000000000000000000000000000000000000000000000000000000000000000000000000000000000000000000000000000000000000000000000000000000000000000000000000000000000000000000000000000000000000000000000000000000000000000000000000000000000000000000000000000000000000000000000000000000000000000000000000000000000000000000000000000000000000000000000000000000000000000000000000000000000000000000000000000000000000000000000000000000000000000000000000000000000000000000000000000000000000000000000000000000000000000000000000000000000000000000000000000000000000000000000000000000000000000000000000000000000000000000000000000000000000000000000000000000000000000000000000000000000000000000000000000000000000000000000000000000000000000000000000000000000000000000000000000000000000000000000000000000000000000000000000000000000000000000000000000000000000000000000000000000000000000000000000000000000000000000000000000000000000000000000000000000000000000000000000000000000000000000000000000000000000000000000000000000000000000000000000000000000000000000000000000000000000000000000000000000000000000000000000000000000000000000000000000000000000000000000000000000000000000000000000000000000000000000130000000000000000000000000000000000000000000000000000000000000000000000000000000000000000000000000000000000000000000000000000000000000000000000000000000000000000000000000000000000000000000000000000000000000000000000000000000000000000000000000000000000000000000000000000000000000000000000000000000000000000000000000000000000000000000000000000000000000000000000000000000000000000000000000000000000000000000000000000000000000000000000000000000000000000000000000000000000000000000000000000000000000000000000000000000000000000000000000000000000000000000000000000000000000000000000000000000000000000000000000000000000000000000000000000000000000000000000000000000000000000000000000000000000000000000000000000000000000000000000000000000000000000000000000000000000000000000000000000000000000000000000000000000000000000000000000000000000000000000000000000000000000000000000000000000000000000000000000000000000000000000000000000000000000000000000000000000000000000000000000000000000000000000000000000000000000000000000000000000000000000000000000000000000000000000000000000000000000000000000000000000000000000000000000000000000000000000000000000000000000000000000000000000000000000000000000000000000000000000000000000000000000000000000000000000000000000000000000000000000000000000000000000000000000000000000000000000000000000000000000000000000000000000000000000000000000000000000000000000000000000000000000000000000000000000000000000000000000000000000
#06816:000000000000000000000000000000000000000000000000000000000000000000000000000000000000000000000000000000000000000000000000000000000000000000000000000000000000000000000000000000000000000000000000000000000000000000000000000000000000000000000000000000000000000000000000000000000000000000000000000000000000000000000000000000000000000000000000000000000000000000000000000000000000000000000000000000000000000000000000000000000000000000000000000000000000000000000000000000000000000000000000130000000000000000000000000000000000000000000000000000000000000000000000000000000000000000000000000000000000000000000000000000000000000000000000000000000000000000000000000000000000000000000000000000000000000000000000000000000000000000000000000000000000000000000000000000000000000000000000000000000000000000000000000000000000000000000000000000000000000000000000000000000000000000000000000000000000000000000000000000000000000000000000000000000000000000000000000000000000000000000000000000000000000000000000000000000000000000000000000000000000000000000000000000000000000000000000000000000000000000000000000000000000000000000000000000000000000000000000000000000000000000000000000000000000000000000000000000000000000000000000000000000000000000000000000000000000000000000000000000000000000000000000000000000000000000000000000000000000000000000000000000000000000000000000000000000000000000000000000000000000000000000000000000000000000000000000000000000000000000000000000000000000000000000000000000000000000000000000000000000000000000000000000000000000000000000000000000000000000000000000000000000000000000000000000000000000000000000000000000000000000000000000000000000000000000000000000000000000000000000000000000000000000000000000000000000000000000000000000000000000000000000000000000000000000000000000000000000000000000000000000000000000000000000000000000000000000000000000000000000000000000000000000000000000000000000000000000000000000000000000000000000000000000000000000000000000000000000000000000000000000000000000000000000000000000000000000000000000000000000000000000000000000000000000000000000000000000000000000000000000000000000000000000000000000000000000000000000000000000000000000000000000000000000000000000000000000000000000000000000000000000000000000000000000000000000000000000000000000000000000000000000000000000000000000000000000000000000000000000000000000000000000000000000000000000000000000000000000000000000013000000000000000000000000000000000000000000000000000000000000000000000000000000000000000000000000000000000000000000000000000000000000000000000000000000000000000000000000000000000000000000000000000000000000000000000000000000000000000000000000000000000000000000000000000000000000000000000000000000000000000000000000000000000000000000000000000000000000000000000000000000000000000000000000000000000000000000000000000000000000000000000000000000000000000000000000000000000000000000000000000000000000000000000000000000000000000000000000000000000000000000000000000000000000000000000000000000000000000000000000000000000000000000000000000000000000000000000000000000000000000000000000000000000000000000000000000000000000000000000000000000000000000000000000000000000000000000000000000000000000000000000000000000000000000000000000000000000000000000000000000000000000000000000000000000000000000000000000000000000000000000000000000000000000000000000000000000000000000000000000000000000000000000000000000000000000000000000000000000000000000000000000000000000000000000000000000000000000000000000000000000000000000000000000000000000000000000000000000000000000000000000000000000000000000000000000000000000000000000000000000000000000000000000000000000000000000000000000000000000000000000000000000000000000000000000000000000000000000000000000000000000000000000000000000000000000000000000000000000000000000000000000000000000000000000000000000000000000000000000000
#06812:1414
#00416:0014000000001400
#0041b:13000013
#00417:00130000
#00419:0013
#00412:0014
#01919:0012
#0191a:00000012
#01912:13
#01915:00120012
#01913:0012
#08916:0000001300131300
#0891b:00000000000000000000001300000000
#08917:00150000
#08914:0013000025000000
#08919:0015
#0891a:0000000000000014
#08912:0000250000000026
#08418:0013130000141400
#08415:00000013001300000000000000000000
#08414:00000000000000000000001400140000
#0841a:24
#08412:2526
#0761a:1414
#07612:00140014
#07615:0013000000130000
#07619:0000001300000000
#07616:24242424
#07117:0000000000151500
#07116:0014140000000000
#06514:006500000000000000000000000000000000000000000000000000000000000000000000000000000000000000000000180000000000000000000000000000000000000000000000000000000000000000000000006500000000000000000000
#06512:0063000000000000140000000000000000000000140000000000000000630000
#0651a:14000014
#06516:0014000000000000
#06515:2500000000000025
#0651f:21
#06510:0041
#06513:006400000000000000000000000000000000000000000000000000000000000000000000000000000000006400000000
#05918:00000000000000120000000000000000
#05917:0000000000130000
#05919:00000015
#05912:26000013
#05915:0013
#05914:0000000000000013
#05916:0014000000000000
#0591a:14
#05117:0014000000000014
#05115:0014
#05110:41
#05215:00142400
#05217:0000000000140000
#0521a:00000024
#05212:00000024
#05417:1212001200120000
#0541a:5454000024001400
#05412:00002414
#05317:0000121200120000
#05316:14000014
#0531f:11
#0531a:24
#05312:0000545400002400
#0071a:0014
#00712:00000000190000000014000000000000
#00719:0000000000140000
#00713:00000000000000000000001400000000
#00714:00000000000000000000000000140000
#00715:19000000000000140000000000000014
#00717:0000001400000014
#00718:00000014
#00716:0014000000000000
#02614:00000000000000000000001300000000
#02616:0000000000000013
#02618:00260000
#02615:0029
#02617:00000000000000000000002700000000
#02619:0000000000000025
#03912:00141414
#0391b:00131313
#03918:0000001300130000
#03917:23
#0131b:13130000
#01319:00000013
#01312:19000018190000000000001617000000
#01417:00130000
#01412:00000014150000000000000000000000
#01714:00000000001500000000000000000000
#01719:15000015
#01712:25
#06314:0018000000000000
#06312:24
#06614:180000000000000000000000000000000000000000000000000000000000000000000000000000000000000000000000180000000000000000000000000000000000000000000000000000000000000000000000006500000000000000000000
#06612:0000000014000000000000000000000000000000140000000000000000630000
#0661a:00140014
#06616:00130000
#06615:0000000000000025
#06613:000000000000000000000000000000000000000000000000000000000000000000000000000000000000006400000000
#07314:0018
#0731a:0000140000140000
#07312:14000014
#07316:2514000000000025
#07317:006500000000000000000000000000000000000000000000000000000000000000000000000000000000000000000000000000000000000000000000000000000000000000000000000000000000000000000000006500000000000000000000
#07319:006400000000000000000000000000000000000000000000000000000000000000000000000000000000006400000000
#0731b:0063000000000000000000000000000000000000000000000000000000630000
#07414:1818
#0741a:0014000000140000
#07412:00140014
#07417:000000000000000000000000000000000000000000000000130000000000000000000000000000000000000000000000000000000000000000000000000000000000000000000000000000000000000000000000006500000000000000000000
#07416:0000000000000025
#07419:000000000000000000000000000000000000000000000000000000000000000000000000000000000000006400000000
#0741b:0000000000000000000000000000000000000000000000000000000000630000
#07514:1818
#0751a:0014000000140000
#07512:00140014
#07517:00130000
#07516:00000024
#01812:15
#01814:0014
#02315:23232300
#02318:00000023
#09614:00000000000000000000000000540000
#09418:000000000000000000000000000000000000000000000000000000000000000000000000000000000000000000000000000000000000000000000000000000000000000000000000000000000000000000000000000000000000000000000000000000000000000000000000000000000000000000000000000000000000000000000000000000000000000000000000000000000000000000000000000000000000000000000000000000000000000000000000000000000000000000000000000000000000000000000000000000000000000000000000000000000000000000000000000000000000000000000000000000000000000000000000000000000000000000000000000000000000000000000000000000000000000000000000000000000000000000000000000000000000000000000000000000000000000000000000000000000000000000000000000000000000000000000000000000000000000000000000000000000000000000000000000000000000000000000000000000000000000000000000000000000000000000000000000000000000000000000000000000000000000000000000000000000000000000000000000000000000000000000000000000000000000000000000000000000000000000000000000000000000000000000000000000000000000000000000000000000000000000000000000000000000000000000000000000000000000000000000000000000000000000000000000000000000000000000000000000000000000000000000000000000000000000000000000000000000000000000000000000000000000000000000000000000000000000000000000000000000000000000000000000000000000000000000000000000000000000000000000000000000000000000000000000000000000000000000000000000000000000000000000000000000000000000000000000000000000000000000005600000000000000000000000000000000000000000000000000000000000000000000000000000000000000000000000000000000000000000000000000000000000000000000000000000000000000000000000000000000000000000000000000000000000000000000000000000000000000000000000000000000000000000000000000000000000000000000000000000000000000000000000000000000000000000000000000000000000000000000000000000000000000000000000000000000000000000000000000000000000000000000000000000000000000000000000000000000000000000000000000000000000000000000000000000000000000000000000000000000000000000000000000000000000000000000000000000000000000000000000000000000000000000000000000000000000000000000000000000000000000000000000000000000000000000000000000000000000000000000000000000000000000000000000000000000000000000000000000000000000000000000000000000000000000000000000000000000000000000000000000000000000000000000000000000000000000000000000000000000000000000000000000000000000000000000000000000000000000000000000000000000000000000000000000000000000000000000000000000000000000000000000000000000000000000000000000000000000000000000000000000000000000000000000000000000000000000000000000000000000000000000000000000000000000000000000000000000000000000000000000000000000000000000000000000000000000000000000000000000000000000000000000000000000000000000000000000000000000000000000000000000000000000000000000000000000000000000000000000000000000000000000000000000000000000000000000000000000000000000000000000000000000000000000000000000000000000000000000000000000000000000000000000000000000000000000000000000000000000000000000000000000000000000000000000000000000000000000000000000000000000000000000000000000000000000000000000000000000000000000000000000000000000000000000000000000000000000000000000000000000000000000000000000000000000000000000000000000000000000000000000000000000000000000000000000000000000000000000000000000000000000000000000000000000000000000000000000000000000000000000000000000000000000000000000000000000000000000000000000000000000000000000000000000000000000000000000000000000000000000000000000000000000000000000000000000000000000000000000000000000000000000000000000000000000000000000000000000000000000000000000000000000000000000000000000000000000000000000000000000000000000000000000000000000000000000000000000000000000000000000000000000000000000000000000000000000000000000000000000000000000000000000000000000000000000000000000000000000000000
#09415:000000000000000000000000000000000000000000000000000000000000000000000000000000000000000000000000000000000000000000000000000000000000000000000000000000000000000000000000000000000000000000000000000000000000000000000000000000000000000000000000000000000000000000000000000000000000000000000000000000000000000000000000000000000000000000000000000000000000000000000000000000000000000000000000000000000000000000000000000000000000000000000000000000000000000000000000000000000000000000000000000000000000000000000000000000000000000000000000000000000000000000000000000000000000000000000000000000000000000000000000000000000000000000000000000000000000000000000000000000000000000000000000000000000000000000000000000000000000000000000000000000000000000000000000000000000000000000000000000000000000000000000000000000000000000000000000000000000000000000000000000000000000000000000000000000000000000000000000000000000000000000000000000000000000000000000000000000000000000000000000000000000000000000000000000000000000000000000000000000000000000000000000000000000000000000000000000000000000000000000000000000000000000000000000000000000000000000000000000000000000000000000000000000000000000000000000000000000000000000000000000000000000000000000000000000000000000000000000000000000000000000000000000000000000000000000000000000000000000000000000000000000000000000000000000000000000000000000000000000000000000000000000000000000000000000000000000000000000000000000000000000000000000000000000000000000000000000000000000000000000000000000000000000000000000000000000000000000000000000000000005600000000000000000000000000000000000000000000000000000000000000000000000000000000000000000000000000000000000000000000000000000000000000000000000000000000000000000000000000000000000000000000000000000000000000000000000000000000000000000000000000000000000000000000000000000000000000000000000000000000000000000000000000000000000000000000000000000000000000000000000000000000000000000000000000000000000000000000000000000000000000000000000000000000000000000000000000000000000000000000000000000000000000000000000000000000000000000000000000000000000000000000000000000000000000000000000000000000000000000000000000000000000000000000000000000000000000000000000000000000000000000000000000000000000000000000000000000000000000000000000000000000000000000000000000000000000000000000000000000000000000000000000000000000000000000000000000000000000000000000000000000000000000000000000000000000000000000000000000000000000000000000000000000000000000000000000000000000000000000000000000000000000000000000000000000000000000000000000000000000000000000000000000000000000000000000000000000000000000000000000000000000000000000000000000000000000000000000000000000000000000000000000000000000000000000000000000000000000000000000000000000000000000000000000000000000000000000000000000000000000000000000000000000000000000000000000000000000000000000000000000000000000000000000000000000000000000000000000000000000000000000000000000000000000000000000000000000000000000000000000000000000000000000000000000000000000000000000000000000000000000000000000000000000000000000000000000000000000000000000000000000000000000000000000000000000000000000000000000000000000000000000000000000000000000000000000000000000000000000000000000000000000000000000000000000000000000000000000000000000000000000000000000000000000000000000000000000000000000000000000000000000000000000000000000000000000000000000000000000000000000000000000000000000000000000000000000000000000000000000000000000000000000000000000000000000000000000000000000000000000000000000000000000000000000000000000000000000000000000000000000000000000000000000000000000000000000000000000000000000000000000000000000000000000000000000000000000000000000000000000000000000000000000000000000000000000000000000000000000000000000000000000000000000000000000000000000000000000000000000
#09412:000000000000000000000000000000000000000000000000000000000000000000000000000000000000000000000000000000000000000000000000000000000000000000000000000000000000000000000000000000000000000000000000000000000000000000000000000000000000000000000000000000000000000000000000000000000000000000000000000000000000000000000000000000000000000000000000000000000000000000000000000000000000000000000000000000000000000000000000000000000000000000000000000000000000000000000000000000000000000000000000000000000000000000000000000000000000000000000000000000000000000000000000000000000000000000000000000000000000000000000000000000000000000000000000000000000000000000000000000000000000000000000000000000000000000000000000000000000000000000000000000000000000000000000000000000000000000000000000000000000000000000000000000000000000000000000000000000000000000000000000000000000000000000000000000000000000000000000000000000000000000000000000000000000000000000000000000000000000000000000000000000000000000000000000000000000000000000000000000000000000000000000000000000000000000000000000000000000000000000000000000000000000000000000000000000000000000000000000000000000000000000000000000000000000000000000000000000000000000000000000000000000000000000000000000000000000000000000000000000000000000000000000000000000000000000000000000000000000000000000000000000000000000000000000000000000000000000000000000000000000000000000000000000000000000000000000000000000000000000000000000000000000000000000000000000000000000000000000000000000000000000000000000000000000000000000000000000000000000000000000000000000000000000000000000000000000000000000000000000000000000000000000000000000000000000000000000000000000000000000056000000000000000000000000000000000000000000000000000000000000000000000000000000000000000000000000000000000000000000000000000000000000000000000000000000000000000000000000000000000000000000000000000000000000000000000000000000000000000000000000000000000000000000000000000000000000000000000000000000000000000000000000000000000000000000000000000000000000000000000000000000000000000000000000000000000000000000000000000000000000000000000000000000000000000000000000000000000000000000000000000000000000000000000000000000000000000000000000000000000000000000000000000000000000000000000000000000000000000000000000000000000000000000000000000000000000000000000000000000000000000000000000000000000000000000000000000000000000000000000000000000000000000000000000000000000000000000000000000000000000000000000000000000000000000000000000000000000000000000000000000000000000000000000000000000000000000000000000000000000000000000000000000000000000000000000000000000000000000000000000000000000000000000000000000000000000000000000000000000000000000000000000000000000000000000000000000000000000000000000000000000000000000000000000000000000000000000000000000000000000000000000000000000000000000000000000000000000000000000000000000000000000000000000000000000000000000000000000000000000000000000000000000000000000000000000000000000000000000000000000000000000000000000000000000000000000000000000000000000000000000000000000000000000000000000000000000000000000000000000000000000000000000000000000000000000000000000000000000000000000000000000000000000000000000000000000000000000000000000000000000000000000000000000000000000000000000000000000000000000000000000000000000000000000000000000000000000000000000000000000000000000000000000000000000000000000000000000000000000000000000000000000000000000000000000000000000000000000000000000000000000000000000000000000000000000000000000000000000000000000000000000000000000000000000000000000000000000000000000000000000000000000000000000000000000000000000000000000000000000000000000000000000000000000000000000000000000000000000000000000000000000000000000000000000000000000000000000000000000000000000000000000000000000000000000000000000000000000000000000000
#07012:00000000000000000000000000000000006854000000000000000000000000006400000000000000000000000000000000685400000000000000000000000000
#0701a:0000000000000000640000000000000000540000000000006400000000000000
#07016:00000000000000000000000000000000640000000000000000000000000000006468000000000000000000000000000064000000000000000000000000000000
#06417:0052
#00658:0044000000000000
#0065a:00440000
#00654:0034000000000000
#00652:00340000
#02552:3700000000000035
#02658:00460000
#02652:0013
#02654:00000000000000000000001300000000
#02656:0000000000000013
#03158:00460000
#03152:36
#04752:00000034
#0475a:44
#04956:64000054
#04952:14
#0495a:00000014
#0555a:0044
#05554:0034
#06352:34
#06354:0058000000000000
#08156:0000003300000000
#08558:0000000000450000
#08552:0000000000000036
#0855a:0000000000000054
#08553:0000000000350000
#08758:0000000000000046
#08752:0000000035000054
#08754:00350000
#08856:0000000000000044
#08852:00330000
#09058:00460000
#09057:0000000000470000
#09155:0000004900000000
#09156:4800000000000058
#09152:0000000000000014
#0015a:64000064
#00156:0000006400000000
#00154:36
#0025a:0064
#00256:0064000000005400
#03359:45
#03352:63000013
#03356:0000006300000000
#06052:00130013
#0605b:0013
#00352:54000054
#00356:0000005400000000
#02957:45
#02953:00350000
#02959:0045
#03456:00000053
#03752:53000013
#02156:13
#02157:00000063
#0215b:13
#0205b:1223
#02057:00000063
#02053:12
#04156:00240000
#0415b:13
#04152:5434
#04256:53000013
#04252:00135300
#07752:53000013
#0775b:00136300
#07852:63000013
#0785b:00135300
#07952:54130000
#0795a:54
#0795b:00130000
#04556:63
#04554:0000001400000000
#04552:0000000000140000
#04555:0000000000000014
#0455b:13
#06156:48000048
#06152:0000003800000000
#08656:0000000000000034
#0865b:00434300
#0685a:64006444
#06857:000000000000000000000000000000000000000000000000000000000000000000000000000000000000000000000000000000000000000000000000000000000000000000000000000000000000000000000000000000000000000000000000000000000000000000000000000000000000000000000000000000000000000000000000000000000000000000000000000000000000000000000000000000000000000000000000000000000000000000000000000000000000000000000000000000000000000000000000000000000000000000000000000000000000000000000000000000000000000000000023000000000000000000000000000000000000000000000000000000000000000000000000000000000000000000000000000000000000000000000000000000000000000000000000000000000000000000000000000000000000000000000000000000000000000000000000000000000000000000000000000000000000000000000000000000000000000000000000000000000000000000000000000000000000000000000000000000000000000000000000000000000000000000000000000000000000000000000000000000000000000000000000000000000000000000000000000000000000000000000000000000000000000000000000000000000000000000000000000000000000000000000000000000000000000000000000000000000000000000000000000000000000000000000000000000000000000000000000000000000000000000000000000000000000000000000000000000000000000000000000000000000000000000000000000000000000000000000000000000000000000000000000000000000000000000000000000000000000000000000000000000000000000000000000000000000000000000000000000000000000000000000000000000000000000000000000000000000000000000000000000000000000000000000000000000000000000000000000000000000000000000000000000000000000000000000000000000000000000000000000000000000000000000000000000000000000000000000000000000000000000000000000000000000000000000000000000000000000000000000000000000000000000000000000000000000000000000000000000000000000000000000000000000000000000000000000000000000000000000000000000000000000000000000000000000000000000000000000000000000000000000000000000000000000000000000000000000000000000000000000000000000000000000000000000000000000000000000000000000000000000000000000000000000000000000000000000000000000000000000000000000000000000000000000000000000000000000000000000000000000000000000000000000000000000000000000000000000000000000000000000000000000000000000000000000000000000000000000000000000000000000000000000000000000000000000000000000000000000000000000000000000000000000000000000000000000000000000000000000000000000000000000000000000000000000000000000000000000000000000000230000000000000000000000000000000000000000000000000000000000000000000000000000000000000000000000000000000000000000000000000000000000000000000000000000000000000000000000000000000000000000000000000000000000000000000000000000000000000000000000000000000000000000000000000000000000000000000000000000000000000000000000000000000000000000000000000000000000000000000000000000000000000000000000000000000000000000000000000000000000000000000000000000000000000000000000000000000000000000000000000000000000000000000000000000000000000000000000000000000000000000000000000000000000000000000000000000000000000000000000000000000000000000000000000000000000000000000000000000000000000000000000000000000000000000000000000000000000000000000000000000000000000000000000000000000000000000000000000000000000000000000000000000000000000000000000000000000000000000000000000000000000000000000000000000000000000000000000000000000000000000000000000000000000000000000000000000000000000000000000000000000000000000000000000000000000000000000000000000000000000000000000000000000000000000000000000000000000000000000000000000000000000000000000000000000000000000000000000000000000000000000000000000000000000000000000000000000000000000000000000000000000000000000000000000000000000000000000000000000000000000000000000000000000000000000000000000000000000000000000000000000000000000000000000000000000000000000000000000000000000000000000000000000000000000000000000000000000000000000000
#06856:000000000000000000000000000000000000000000000000000000000000000000000000000000000000000000000000000000000000000000000000000000000000000000000000000000000000000000000000000000000000000000000000000000000000000000000000000000000000000000000000000000000000000000000000000000000000000000000000000000000000000000000000000000000000000000000000000000000000000000000000000000000000000000000000000000000000000000000000000000000000000000000000000000000000000000000000000000000000000000000000230000000000000000000000000000000000000000000000000000000000000000000000000000000000000000000000000000000000000000000000000000000000000000000000000000000000000000000000000000000000000000000000000000000000000000000000000000000000000000000000000000000000000000000000000000000000000000000000000000000000000000000000000000000000000000000000000000000000000000000000000000000000000000000000000000000000000000000000000000000000000000000000000000000000000000000000000000000000000000000000000000000000000000000000000000000000000000000000000000000000000000000000000000000000000000000000000000000000000000000000000000000000000000000000000000000000000000000000000000000000000000000000000000000000000000000000000000000000000000000000000000000000000000000000000000000000000000000000000000000000000000000000000000000000000000000000000000000000000000000000000000000000000000000000000000000000000000000000000000000000000000000000000000000000000000000000000000000000000000000000000000000000000000000000000000000000000000000000000000000000000000000000000000000000000000000000000000000000000000000000000000000000000000000000000000000000000000000000000000000000000000000000000000000000000000000000000000000000000000000000000000000000000000000000000000000000000000000000000000000000000000000000000000000000000000000000000000000000000000000000000000000000000000000000000000000000000000000000000000000000000000000000000000000000000000000000000000000000000000000000000000000000000000000000000000000000000000000000000000000000000000000000000000000000000000000000000000000000000000000000000000000000000000000000000000000000000000000000000000000000000000000000000000000000000000000000000000000000000000000000000000000000000000000000000000000000000000000000000000000000000000000000000000000000000000000000000000000000000000000000000000000000000000000000000000000000000000000000000000000000000000000000000000000000000000000000000000000000000000000023000000000000000000000000000000000000000000000000000000000000000000000000000000000000000000000000000000000000000000000000000000000000000000000000000000000000000000000000000000000000000000000000000000000000000000000000000000000000000000000000000000000000000000000000000000000000000000000000000000000000000000000000000000000000000000000000000000000000000000000000000000000000000000000000000000000000000000000000000000000000000000000000000000000000000000000000000000000000000000000000000000000000000000000000000000000000000000000000000000000000000000000000000000000000000000000000000000000000000000000000000000000000000000000000000000000000000000000000000000000000000000000000000000000000000000000000000000000000000000000000000000000000000000000000000000000000000000000000000000000000000000000000000000000000000000000000000000000000000000000000000000000000000000000000000000000000000000000000000000000000000000000000000000000000000000000000000000000000000000000000000000000000000000000000000000000000000000000000000000000000000000000000000000000000000000000000000000000000000000000000000000000000000000000000000000000000000000000000000000000000000000000000000000000000000000000000000000000000000000000000000000000000000000000000000000000000000000000000000000000000000000000000000000000000000000000000000000000000000000000000000000000000000000000000000000000000000000000000000000000000000000000000000000000000000000000000000000000000000000000000
#06852:54345400
#00456:0054000000006400
#00452:0054
#01958:00120000
#0195a:00000012
#01959:0012
#01952:53
#01955:00520052
#01953:0052
#02257:0000006300000000
#0225b:0063000000000000
#02753:00340000
#0275a:0044
#02758:44
#08957:00450000
#08959:0045
#0895a:0000000000000064
#08952:0000000000000036
#09252:0056360000000016
#09258:0000000056000022460000000000000000000000000000000000000000000000
#09256:0000000000000022000000000000000000000000000000000000000000000000
#0925c:22
#08257:0043000000000000
#0805a:00140000
#08059:14
#08053:14
#08052:00140000
#07652:00340034
#0715a:00140000
#07152:00000015
#07157:00000015
#07156:00140000
#07252:00160000
#07258:00160000
#06952:14000014
#0695a:0000001400000000
#05758:46
#05752:64350035
#05756:0024000000000000
#05852:00350035
#05959:00450045
#05956:0024000000000000
#0595a:54
#05152:0000001400000000
#0515a:14000014
#05252:0014000000000000
#0525a:0014
#05356:54000064
#0535a:14
#05352:00000014
#05652:00340000
#05658:00440000
#00552:0000003500000000
#00559:45000045
#00755:49
#00752:00390000
#00852:0000001400000000
#0085a:0000001400000000
#00952:13
#00956:00000028000000000000000000000000
#00955:59590000
#00957:00000057
#00958:00000000000000000000002600000000
#0185a:00140000
#01859:00000013
#01852:55
#01854:0054
#03052:35
#03059:0045
#03252:0000003600000000
#03258:0000004600000000
#0355b:53000053
#03557:0000001300000000
#04352:1414
#0435a:00140014
#04452:14
#04457:00000063
#04656:0000001400000000
#04653:0014000000000000
#0105b:00000053
#01059:00550000
#0105a:00000024000000000000000000000000
#0105c:00000000000000000000002200000000
#0135b:13
#01352:69000028690000000000002667000000
#01452:00000024650000000000000000000000
#01557:13
#0115c:12
#01754:00000000002500000000000000000000
#01757:0045
#01759:65
#02359:0015
#02452:00150000
#03657:0013000000000000
#03952:13
#0395b:00535353
#03958:0000002300230000
#06555:3500000000000035
#0655a:54440044
#06556:0024000000000000
#0665a:00440044
#06655:0000000000000035
#0675a:00440044
#07352:64340034
#07356:4524000000000045
#07452:00340034
#07456:0000000000000045
#07552:00340034
#08352:14
#08452:1516
#0013a0:14
#001360:00240000
#001360:0000001400000000
#0013a0:00005434
#002360:24
#002360:0014000000543400
#0023a0:0000540034000054
#0033a0:24
#003321:14
#003361:00240000
#003361:0000001400000000
#003321:00005434
#004361:24
#004361:0014000000543400
#004321:0000540034000054
#005321:24
#008361:0014000000000000
#0083a1:00000054000024000000000000000000
#008360:000000000000000000000000000000000000000000000000000000000000000000000000000000000000000000000000000000000000000000000000000000000000000000000000000000000000000000000000000000000000000000000000000000000000000000000000000000000000000000000000000000000000000000000000000000000000000000000000000000000000000000000000000000000000000000000000000000000000000000000000000000000000000000000000000000000000000000000000000000000000000000000000000000000000000000000000000000000000000000000000001400000000000000000000000000000000000000000000000000000000000000000000000000000000000000000000000000000000000000000000000000000000000000000000000000000000000000000000000000000000000000000000000000000000000000000000000000000000000000000000000000000000000000000000000000000000000000000000000000000000000000000000000000000000000000000000000000000000000000000000000000000000000000000000000000000000000000000000000000000000000000000000000000000000000000000000000000000000000000000000000000000000000000000000000000000000000000000000000000000000000000000000000000000000000000000000000000000000000000000000000000000000000000000000000000000000000000000000000000000000000000000000000000000000000000000000000000000000000000000000000000000000000000000000000000000000000000000000000000000000000000000000000000000000000000000000000000000000000000000000000000000000000000000000000000000000000000000000000000000000000000000000000000000000000000000000000000000000000000000000000000000000000000000000000000000000000000000000000000000000000000000000000000000000000000000000000000000000000000000000000000000000000000000000000000000000000000000000000000000000000000000000000000000000000000000000000000000000000000000000000000000000000000000000000000000000000000000000000000000000000000000000000000000000000000000000000000000000000000000000000000000000000000000000000000000000000000000000000000000000000000000000000000000000000000000000000000000000000000000000000000000000000000000000000000000000000000000000000000000000000000000000000000000000000000000000000000000000000000000000000000000000000000000000000000000000000000000000000000000000000000000000000000000000000000000000000000000000000000000000000000000000000000000000000000000000000000000000000000000000000000000000000000000000000000000000000000000000000000000000000000000000000000000000000000000000000000000000000000000000000000000000000000000000000000000000000000000000000000000000000000000000000000000000000000000000000000000000000000000000000000000000000000000000000000000000000000000000000000000000000000000000000000000000000000000000000000000000000000000000000000000000000000000000000000000000000000000000000000000000000000000000000000000000000000000000000000000000000000000000000000000000000000000000000000000000000000000000000000000000000000000000000000000000000000000000000000000000000000000000000000000000000000000000000000000000000000000000000000000000000000000000000000000000000000000000000000000000000000000000000000000000000000000000000000000000000000000000000000000000000000000000000000000000000000000000000000000000000000000000000000000000000000000000000000000000000000000000000000000000000000000000000000000000000000000000000000000000000000000000000000000000000000000000000000000000000000000000000000000000000000000000000000000000000000000000000000000000000000000000000000000000000000000000000000000000000000000000000000000000000000000000000000000000000000000000000000000000000000000000000000000000000000000000000000000000000000000000000000000000000000000000000000000000000000000000000000000000000000000000000000000000000000000000000000000000000000000000000000000000000000000000000000000000000000000000000000000000000000000000000000000000000000000000000000000000000000000000000000000000000000000000000000000000000000000000000000000000000000000000000000000000000000000000000000000000000000000000000000000000
#008320:00000054000024000000000000000000
#009350:19590000
#009360:00000058000000000000000000000000
#009380:00000000000000000000005600000000
#009370:00000057
#0103a0:00000054000000000000000000000000
#010390:00550000
#0103c0:00000000000000000000005200000000
#0103b0:00000053
#0113c0:22
#011381:13
#011341:00230000
#011331:0000001300000000
#011371:0000000000230000
#011361:00000013
#012321:23
#013321:19000058590000000000005657000000
#014321:0000000000005400550000000000000000000000000000003353000000000000
#014331:00000000000000000000000000000000000000000000000000000000000000000000000000000000000000000000000000530000530000000000000000000000
#014341:00000000000000000000000000000000000000000000000000000000000000000000000000000000000000000000000000000053000053000000000000000000
#014351:00000000000000000000000000000000000000000000000000000000000000000000000000000000000000000000000000000000005300005300000000000000
#014361:00000000000000000000000000000000000000000000000000000000000000000000000000000000000000000000000000000000000000530000530053005300
#014371:00000000000000000000000000000000000000000000000000000000000000000000000000000000000000000000000000000000000000000053005300530053
#015371:23
#014360:0000000000000000000000000000000000000000000000001353000000000000
#014370:00000000000000000000000000000000000000000000000000000000000000000000000000000000000000000000000000530000530000000000000000000000
#014380:00000000000000000000000000000000000000000000000000000000000000000000000000000000000000000000000000000053000053000000000000000000
#014390:00000000000000000000000000000000000000000000000000000000000000000000000000000000000000000000000000000000005300005300000000000000
#0143a0:00000000000000000000000000000000000000000000000000000000000000000000000000000000000000000000000000000000000000530000530053005300
#0143b0:00000000000000000000000000000000000000000000000000000000000000000000000000000000000000000000000000000000000000000053005300530053
#0153b0:33000000000000000000000000000000000000000000000000000000000000000000000000000000000000000000000000000000000000530053000000000000
#015370:0000530000000000000000000000000000000000000000003353000000000000
#015380:00000000000000000000000000000000000000000000000000000000000000000000000000000000000000000000000000530000530000000000000000000000
#015390:00000000000000000000000000000000000000000000000000000000000000000000000000000000000000000000000000000053000053000000000000000000
#0153a0:00000000000000000000000000000000000000000000000000000000000000000000000000000000000000000000000000000000005300005300000000000000
#0163b0:23
#017320:15
#018320:55
#018340:0054
#019320:53
#019350:00520052
#019330:0052
#020330:22
#017391:15
#017341:00000000005500000000000000000000
#017371:0025
#0183a1:14240000
#018391:00001323
#019381:12220000
#0203b0:0013
#020370:00000033
#0213b0:23
#021370:0000001300230000
#021370:00000013
#0223b0:0033000000230000
#022370:0000003300000000
#023390:15352500
#023350:0035003500000000
#023320:00000015
#023360:0000000000000035
#024320:35250000
#024360:0035000000000000
#025380:00000012
#0263c0:0022000000000000
#026361:0013000000000000
#026321:0023
#032351:0000000000130000000000530000000000000000000000000000000000000000
#032321:0000002600000000
#032380:0000000000130000000000532600000000000000000000000000000000000000
#033320:13
#033360:00230000
#033360:0000001300000000
#033320:00000023
#034360:00000013
#034340:0000000000000033
#035320:23
#0353b1:13
#035371:00230000
#0353b1:00000013
#036371:23
#037321:13
#037361:00230000
#038361:00000013
#038321:00000000000000000000000000530000
#039321:23
#039370:13
#0393b0:0000535353535353530000000000000053000000000000003300000000000000
#0393a0:00000000005300530053005300530053000000000000000000000000000000000000000000000000000000000000000000000000000000000000000000000000
#039380:0000005300530000
#040370:23
#040341:1323000000000000
#040341:0000132300000000
#0403b1:0000000000000000000000000013535353535353535353535353535353535353
#0403a1:00000000000000000000000000000000000000000000000000000053005300530053005300530053005300530053005300530053005300530053005300530053
#0413b1:23
#041320:1424
#041360:00540000
#042360:13
#042320:00230000
#042320:0013
#042360:00000023
#044370:00000013
#0453b0:23
#045361:13
#045321:00230000
#049361:14
#0493a1:00240000
#049361:00000014
#050321:24
#0503a1:00000014
#0513a1:24
#051320:14545454545424000000000000000000
#051330:0054005400540054005400540000000000000000000000000000000000000000
#0513a1:00000000000014545454545424000000
#051391:0000000000000000000000000054005400540054005400540000000000000000
#051320:00000000000000000000000014545454
#051330:0000000000000000000000000000000000000000000000000054005400540054
#052320:54542400000000000000000000000000
#052330:0054005400000000000000000000000000000000000000000000000000000000
#0523a1:00001454545454542400000000000000
#052391:0000000000540054005400540054005400000000000000000000000000000000
#053361:14
#053321:00240000
#053361:00000014
#0543a1:24
#057321:14250000
#057361:0054000000000000
#0573b1:00000000000000000000000013000023
#0593a1:14
#059361:0054000000000000
#059391:00250000
#059320:00000000130000230000000000000000
#063360:185858000000000000000000000000000000000000000000000000000000000000000000000000000000000000000000
#063340:005800580000000000000000580000000000000000000000000000000000000000000000000000000000000000000000000000000000000000000000000000000000000000000000000000000000000000000000000000000000000000000000
#063330:000000000058005800580000000000000000000000000000000000000000000000000000000000000000000000000000000000000000000000000000000000000000000000000000000000000000000000000000000000000000000000000000
#063350:000000585858000000000000000000000000000000000000000000000000000000000000000000000000000000000000
#063320:000000000000000000000058000000000000000000000000000000000000000000000000000000000000000000000000000000000000000000000000000000000000000000000000000000000000000000000000000000000000000000000000
#064370:0022
#0653a0:14240000
#065360:0054000000000000
#067320:00000014
#068320:34240000
#068370:000000000000000000000000000000000000000000000000000000000000000000000000000000000000000000000000000000000000000000000000000000000000000000000000000000000000000000000000000000000000000000000000000000000000000000000000000000000000000000000000000000000000000000000000000000000000000000000000000000000000000000000000000000000000000000000000000000000000000000000000000000000000000000000000000000000000000000000000000000000000000000000000000000000000000000000000000000000000000000000053000000000000000000000000000000000000000000000000000000000000000000000000000000000000000000000000000000000000000000000000000000000000000000000000000000000000000000000000000000000000000000000000000000000000000000000000000000000000000000000000000000000000000000000000000000000000000000000000000000000000000000000000000000000000000000000000000000000000000000000000000000000000000000000000000000000000000000000000000000000000000000000000000000000000000000000000000000000000000000000000000000000000000000000000000000000000000000000000000000000000000000000000000000000000000000000000000000000000000000000000000000000000000000000000000000000000000000000000000000000000000000000000000000000000000000000000000000000000000000000000000000000000000000000000000000000000000000000000000000000000000000000000000000000000000000000000000000000000000000000000000000000000000000000000000000000000000000000000000000000000000000000000000000000000000000000000000000000000000000000000000000000000000000000000000000000000000000000000000000000000000000000000000000000000000000000000000000000000000000000000000000000000000000000000000000000000000000000000000000000000000000000000000000000000000000000000000000000000000000000000000000000000000000000000000000000000000000000000000000000000000000000000000000000000000000000000000000000000000000000000000000000000000000000000000000000000000000000000000000000000000000000000000000000000000000000000000000000000000000000000000000000000000000000000000000000000000000000000000000000000000000000000000000000000000000000000000000000000000000000000000000000000000000000000000000000000000000000000000000000000000000000000000000000000000000000000000000000000000000000000000000000000000000000000000000000000000000000000000000000000000000000000000000000000000000000000000000000000000000000000000000000000000000000000000000000000000000000000000000000000000000000000000000000000000000000000000000000000000000000000000000000000000000000000000000000000000000000000000000000000000000000000000000000000000000000000000000000000000000000000000000000000000000000000000000000000000000000000000000000000000000000000000000000000000000000000000000000000000000000000000000000000000000000000000000000000000000000000000000000000000000000000000000000000000000000000000000000000000000000000000000000000000000000000000000000000000000000000000000000000000000000000000000000000000000000000000000000000000000000000000000000000000000000000000000000000000000000000000000000000000000000000000000000000000000000000000000000000000000000000000000000000000000000000000000000000000000000000000000000000000000000000000000000000000000000000000000000000000000000000000000000000000000000000000000000000000000000000000000000000000000000000000000000000000000000000000000000000000000000000000000000000000000000000000000000000000000000000000000000000000000000000000000000000000000000000000000000000000000000000000000000000000000000000000000000000000000000000000000000000000000000000000000000000000000000000000000000000000000000000000000000000000000000000000000000000000000000000000000000000000000000000000000000000000000000000000000000000000000000000000000000000000000000000000000000000000000000000000000000000000000000000000000000000000000000000000000000000000000000000000000000000000000000000000000000000000000000000000000000000000000000000000000000000000000000000000000000000000000000000
#0683a1:14343424
#068361:000000000000000000000000000000000000000000000000000000000000000000000000000000000000000000000000000000000000000000000000000000000000000000000000000000000000000000000000000000000000000000000000000000000000000000000000000000000000000000000000000000000000000000000000000000000000000000000000000000000000000000000000000000000000000000000000000000000000000000000000000000000000000000000000000000000000000000000000000000000000000000000000000000000000000000000000000000000000000000000000530000000000000000000000000000000000000000000000000000000000000000000000000000000000000000000000000000000000000000000000000000000000000000000000000000000000000000000000000000000000000000000000000000000000000000000000000000000000000000000000000000000000000000000000000000000000000000000000000000000000000000000000000000000000000000000000000000000000000000000000000000000000000000000000000000000000000000000000000000000000000000000000000000000000000000000000000000000000000000000000000000000000000000000000000000000000000000000000000000000000000000000000000000000000000000000000000000000000000000000000000000000000000000000000000000000000000000000000000000000000000000000000000000000000000000000000000000000000000000000000000000000000000000000000000000000000000000000000000000000000000000000000000000000000000000000000000000000000000000000000000000000000000000000000000000000000000000000000000000000000000000000000000000000000000000000000000000000000000000000000000000000000000000000000000000000000000000000000000000000000000000000000000000000000000000000000000000000000000000000000000000000000000000000000000000000000000000000000000000000000000000000000000000000000000000000000000000000000000000000000000000000000000000000000000000000000000000000000000000000000000000000000000000000000000000000000000000000000000000000000000000000000000000000000000000000000000000000000000000000000000000000000000000000000000000000000000000000000000000000000000000000000000000000000000000000000000000000000000000000000000000000000000000000000000000000000000000000000000000000000000000000000000000000000000000000000000000000000000000000000000000000000000000000000000000000000000000000000000000000000000000000000000000000000000000000000000000000000000000000000000000000000000000000000000000000000000000000000000000000000000000000000000000000000000000000000000000000000000000000000000000000000000000000000000000000000000000000000000000000053000000000000000000000000000000000000000000000000000000000000000000000000000000000000000000000000000000000000000000000000000000000000000000000000000000000000000000000000000000000000000000000000000000000000000000000000000000000000000000000000000000000000000000000000000000000000000000000000000000000000000000000000000000000000000000000000000000000000000000000000000000000000000000000000000000000000000000000000000000000000000000000000000000000000000000000000000000000000000000000000000000000000000000000000000000000000000000000000000000000000000000000000000000000000000000000000000000000000000000000000000000000000000000000000000000000000000000000000000000000000000000000000000000000000000000000000000000000000000000000000000000000000000000000000000000000000000000000000000000000000000000000000000000000000000000000000000000000000000000000000000000000000000000000000000000000000000000000000000000000000000000000000000000000000000000000000000000000000000000000000000000000000000000000000000000000000000000000000000000000000000000000000000000000000000000000000000000000000000000000000000000000000000000000000000000000000000000000000000000000000000000000000000000000000000000000000000000000000000000000000000000000000000000000000000000000000000000000000000000000000000000000000000000000000000000000000000000000000000000000000000000000000000000000000000000000000000000000000000000000000000000000000000000000000000000000000000000000000000000000000
#068320:00001434
#068370:0000000000530000
#069320:24
#0693a0:0014000000000000000000002400000000000000000000000000000000000000
#069320:0000000000000000000000000014000000000000000000002400000000000000
#0693a0:0000000000000000000000000000000000000000000000000014000000000000
#0703a0:00240000
#070361:14000024
#070320:0000000000000000001400000000000024000000000000000000000000000000
#0703a0:0000000000000000000000000000000000140000000000002400000000000000
#070320:0000000000000000000000000000000000000000000000000014000000000000
#071320:24
#0713a1:14240000
#071321:00001525
#072381:16260000
#073321:14240000
#073361:0054000000000000
#077321:13
#0773b1:00230000
#077360:14
#078360:000000000000000000000000000000000000000000000000000000000000000000000000000000000000000000000000000000000000000000000000000000000000000000000000000000000000000000000000000000000000000000000000000000000000000000000000000000000000000000000000000000000000000000000000000000000000000000000000000000000000000000000000000000000000000000000000000000000000000000000000000000000000000000000000000000000000000000000000000000000000000000000000000000000000000000000000000000000000000000000000000000000000000000000000000000000000000000000000000000000000000000000000000000000000000000000000000000000000000000000000000000000000000000000000000000000000000000000000000000000000000000000000000000000000000000000000000000000000000000000000000000000000000000000000000000000000000000000000000000000000000000000000000000000000000000000000000000000000000000000000000000000000000000000000000000000000000000000000000000000000000000000000000000000000000000000000000000000000000000000000000000000000000000000000000000000000000000000000000000000000000000000000000000000000000000000000000000000000000000000000000000000000000000000000000000000000000000000000000000000000000000000000000000000000000000000000000000000000000000000000000000000000000000000000000000000000000000000000000000000000000000000000000000000000000000000000000000000000000000000000000000000000000000000000000000000000000000000000000000000000000000000000000000000000000000000000000000000000000000000000000000000000000000000000000000000000000000000000000000000000000000000000000000000000000000000000000000000000000000000000000000000000000000000000000000000000000000000000000000000000000000000000000000000000000000000000000000000000000000000000000000000000000000000000000000000000000000000000000000000000000000000000000000000000000000000000000000000000000000000000000000000000000000000000000000000000000000000000000000000000000000000000000000000000000000000000000000000000000000000000000000000000000000000000000000000000000000000000000000000000000000000000000000000000000000000000000000000000000000000000000000000000000000000000000000000000000000000000000000000000000000000000000000000000000000000000000000000000000000000000000000000000000000000000000000000000000000000000000000000000000000000000000000000000000000000000000000000000000000000000000000000000000000000000000000000000000000000000000000000000000000000000000000000000000000000000000000000000000000000000000000000000000000000000000000000000000000000000000000000000000000000000000000000000000000000000000000000000000000000000000000000000000000000000000000000000000000000000000000000000000000000000000000000000000000000000000000000000000000000000000000000000000000000000000000000000000000000000000000000000000000000000000000000000000000000000000000000000000000000000000000000000000000000000000000000000000000000000000000000000000000000000000000000000000000000000000000000000000000000000005400000000000000000000000000000000000000000000000000000000000000000000000000000000000000000000000000000000000000000000000000000000000000000000000000000000000000000000000000000000000000000000000000000000000000000000000000000000000000000000000000000000000000000000000000000000000000000000000000000000000000000000000000000000000000000000000000000000000000000000000000000000000000000000000000000000000000000000000000000000000000000000000000000000000000000000000000000000000000000000000000000000000000000000000000000000000000000000000000000000000000000000000000000000000000000000000000000000000000000000000000000000000000000000000000000000000000000000000000000000000000000000000000000000000000000000000000000000000000000000000000000000000000000000000000000000000000000000000000000000000000000000000000000000000000000000000000000000000000000000000000000000000000000000000000000000000000000000000000000000000000000000000000000000000000000000000000000000000000000000
#0783a0:00000000000000000000000000540000
#0793a0:34
#079320:00230000
#0773b1:0013
#077321:00000023
#078321:13
#0783b1:00230000
#0783b1:0013
#078321:00000023
#079321:14
#0793b1:00230000
#084381:0000001323000000
#084381:000000000000000000000000000000000000000000000000000000000000000000000000000000000000140000000054
#085371:540000000000000000005400005400000054000054000000000000000000000000000000000000000000000000000000
#085391:005400005400540000540000000000000000000000540000000000000000000000000000000000000000000000000000
#085381:000054000000000054000054000000000000005400005400260000000000000000000000000000000000000000000000
#0853a1:000000540054005400000000000000000000000000000054000000000000000000000000000000000000000000000000
#085361:00000000545454000000000000000000
#085351:000000000000005454000000000000000000000000000000
#0853a1:0000000000000014
#086351:0024000000000000
#086361:0000000000001424
#087321:0000000000000014
#088371:0024000000000000
#088361:0000000000001424
#0893a1:0000000000000014
#090351:0024000000000000
#091361:0000000000000018
#0923c1:52
#092381:0000000056520052260000000000000000000000000000000000000000000000
#092320:0016260000000000
#092360:0000000000520052000000000000000000000000000000000000000000000000
#0923a0:0000000000000014
#0933a0:000000000000540054005400005400540000000000540054005400540000540000005400000054000054005400000054
#093390:000000000000005400540054000054000054005400000000550000005400000054000000550000540000550000540000
#093380:000000000000000000000000560000005400560054005400000054000054005400540054005400000000000054000000
#093370:000000000000000000000000000000000000000055000055
#094390:550054005400000000000054005400005500550000000000000000000000000000000000000000000000000000000000
#0943a0:005400540000540054005400540054000000000000000000000000000000000000000000000000000000000000000000
#094370:000000000055000000000000000000000056000055000000000000000000000000000000000000000000000000000000
#094380:000000000000005400540000000000550000000000000000000000000000000000000000000000000000000000000000
#094360:000000000000000000000000000000000000000000000000000000000000000000000000000056540000000000000000000000000000000000000000000000000000000000000000000000000000000000000000000000000000000000000000
#094330:000000000000000000000000000000000000000000545700000000550000005500560054000054000053000000540054
#094340:000000000000000000000000000000000000000000000055000056005554000000005400000000005400000054000000
#094320:000000000000000000000000000000000000000000000000595600000000550054000000565400540000555400005400
#095320:540000000000000054000000000000005400000000000000540000000000000000000000540000000000000000000000560000005400000000000000540000000000000054000000540000000000000000540000000000540000000000000000550000000000000000000000000000005400000000000000540000000000000054000000000000005400000000000000540000000000000054000000000000005400000000000000540000000000000054000000000000005400000000000000
#095330:000054000000000000005400000000005400000000005400000000005400000000000000000053540000550000000000000000000000000000005400000000000000540000005400000055000000000000005400000000000000000000005400
#095340:000000540000000000005400000000005400000000000055005400000000005500000000000000540000005400540000
#096320:545454545454545400545454545454540054540000000000
#096330:005400000054000000540054005500005400005400540000000000540054000053000054000054000000000000000000
#096340:000000540000005400000000000000540054000000000054005400000000005400540000005500240000000000000000
#012960:0013000000000000
#012940:00000000000000000023000000000000000000000000000000000000000000000000000000000000000000000000000000000000000000000000000000000000
#012960:0000000000130000
#012940:00000000000000000000000000000000000000000000000000000000000000000000000000000000002300000000000000000000000000000000000000000000
#016970:0013000000000000
#016990:00000000000000000023000000000000000000000000000000000000000000000000000000000000000000000000000000000000000000000000000000000000
#016970:0013
#016990:00000000000000000000000000000000000000000000000000000000000000000023000000000000000000000000000000000000000000000000000000000000
#0499a0:000000000000000000000000000000000000000000000000000000000000000000000000000000000000000000000000000000000000000000000000000000000000000000000000000000000000000000000000000000000000000000000000000000000000000000000000000000000000000000000000000000000000000000000000000000000000000000000000000000000000000000000000000000000000000000000000000000000000000000000000000000000000000000000000000000000000000000000000000000000000000000000000000000000000000000000000000000000000000000000000000000000000000000000000000000000000000000000000000000000000000000000000000000000000000000000000000000000000000000000000000000000000000000000000000000000000000000000000000000000000000000000000000000000000000000000000000000000000000000000000000000000000000000000000000000000000000000000000000000000000000000000000000000000000000000000000000000000000000000000000000000000000000000000000000000000000000000000000000000000000000000000000000000000000000000000000000000000000000000000000140000000000000000000000000000000000000000000000000000000000000000000000000000000000000000000000000000000000000000000000000000000000000000000000000000000000000000000000000000000000000000000000000000000000000000000000000000000000000000000000000000000000000000000000000000000000000000000000000000000000000000000000000000000000000000000000000000000000000000000000000000000000000000000000000000000000000000000000000000000000000000000000000000000000000000000000000000000000000000005454240000000000000000000000000000000000000000000000000000000000000000000000000000000000000000000000000000000000000000000000000000000000000000000000000000000000000000000000000000000000000000000000000000000000000000000000000000000000000000000000000000000000000000000000000000000000000000000000000000000000000000000000000000000000000000000000000000000000000000000000000000000000000000000000000000000000000000000000000000000000000000000000000000000000000000000000000000000000000000000000000000000000000000000000000000000000000000000000000000000000000000000000000000000000000000000000000000000000000000000000000000000000000000000000000000000000000000000000000000000000000000000000000000000000000000000000000000000000000000000000000000000000000000000000000000000000000000000000000000000000000000000000000000000000000000000000000000000000000000000000000000000000000000000000000000000000000000000000000000000000000000000000000000000000000000000000000000000000000000000000000000000000000000000000000000000000000000000000000000000000000000000000000000000000000000000000000000000000000000000000000000000000000000000000000000000000000000000000000000000000000000000000000000000000000000000000000000000000000000000000000000000000000000000000000000000000000000000000000000000000000000000000000000000000000000000000000000000000000000000000000000000000000000000000000000000000000000000000000000000000000000000000000000000000000000000000000000000000000000000000000000000000000000000000000000000000000000000000000000000000000000000000000000000000000000000000000000000000000000000000000000000000000000000000000000000000000000000000000000000000000000000000000000000000000000000000000000000000000000000000000000000000000000000000000000000000000000000000000000000000000000000000000000000000000000000000000000000000000000000000000000000000000000000000000000000000000000000000000000000000000000000000000000000000000000000000000000000000000000000000000000000000000000000000000000000000000000000000000000000000000000000000000000000000000000000000000000000000000000000000000000000000000000000000000000000000000000000000000000000000000000000000000000000000000000000000000000000000000000000000000000000000000000000000000000000000000000000000000000000000000000000000000000000000000000000000000000000000000000000000000000000000000000000000000000000000000000000000000000000000000000000000000000000000000000000000000000000000000000000000
#050920:140000000000000000000000000000000000000000000000000000000000000000000000000000000000000000000000000000000000000000000000000000000000000000000000000000000000000000000000000000000000000000000000000000000000000000000000000000000000000000000000000000000000000000000000000000000000000000000000000000000000000000000000000000000000000000000000000000000000000000000000000000000000000000000000000000000000000000000000000000000000000000000000000000000000000000000000000000000000000000005454240000000000000000000000000000000000000000000000000000000000000000000000000000000000000000000000000000000000000000000000000000000000000000000000000000000000000000000000000000000000000000000000000000000000000000000000000000000000000000000000000000000000000000000000000000000000000000000000000000000000000000000000000000000000000000000000000000000000000000000000000000000000000000000000000000000000000000000000000000000000000000000000000000000000000000000000000000000000000000000000000000000000000000000000000000000000000000000000000000000000000000000000000000000000000000000000000000000000000000000000000000000000000000000000000000000000000000000000000000000000000000000000000000000000000000000000000000000000000000000000000000000000000000000000000000000000000000000000000000000000000000000000000000000000000000000000000000000000000000000000000000000000000000000000000000000000000000000000000000000000000000000000000000000000000000000000000000000000000000000000000000000000000000000000000000000000000000000000000000000000000000000000000000000000000000000000000000000000000000000000000000000000000000000000000000000000000000000000000000000000000000000000000000000000000000000000000000000000000000000000000000000000000000000000000000000000000000000000000000000000000000000000000000000000000000000000000000000000000000000000000000000000000000000000000000000000000000000000000000000000000000000000000000000000000000000000000000000000000000000000000000000000000000000000000000000000000000000000000000000000000000000000000000000000000000000000000000000000000000000000000000000000000000000000000000000000000000000000000000000000000000000000000000000000000000000000000000000000000000000000000000000000000000000000000000000000000000000000000000000000000000000000000000000000000000000000000000000000000000000000000000000000000000000000000000000000000000000000000000000000000000000000000000000000000000000000000000000000000000000000000000000000000000000000000000000000000000000000000000000000000000000000000000000000000000000000000000000000000000000000000000000000000000000000000000000000000000000000000000000000000000000000000000000000000000000000000000000000000000000000000000000000000000000000000000000000000000000000000000000000000000000000000000000000000000000000000000000000000000000000000000000000000000000000000000000000000000000000000000000000000000000000000000000000000000000000000000000000000000000000000000000000000000000000000000000000000000000000000000000000000000000000000000000000000000000000000000000000000000000000000000000000000000000000000000000000000000000000000000000000000000000000000000000000000000000000000000000000000000000000000000000000000000000000000000000000000000000000000000000000000000000000000000000000000000000000000000000000000000000000000000000000000000000000000000000000000000000000000000000000000000000000000000000000000000000000000000000000000000000000000000000000000000000000000000000000000000000000000000000000000000000000000000000000000000000000000000000000000000000000000000000000000000000000000000000000000000000000000000000000000000000000000000000000000000000000000000000000000000000000000000000000000000000000000000000000000000000000000000000000000000000000000000000000000000000000000000000000000000000000000000000000000000000000000000000000000000000000000000000000000000000000000000000000000000000000000000000000000000000000
#053920:000000000000000000000000000000000000000000000000000000000000000000000000000000000000000000000000000000000000000000000000000000000000000000000000000000000000000000000000000000000000000000000000000000000000000000000000000000000000000000000000000000000000000000000000000000000000000000000000000000000000000000000000000000000000000000000000000000000000000000000000000000000000000000000000000000000000000000000000000000000000000000000000000000000000000000000000000000000000000000000000000000000000000000000000000000000000000000000000000000000000000000000000000000000000000000000000000000000000000000000000000000000000000000000000000000000000000000000000000000000000000000000000000000000000000000000000000000000000000000000000000000000000000000000000000000000000000000000000000000000000000000000000000000000000000000000000000000000000000000000000000000000000000000000000000000000000000000000000000000000000000000000000000000000000000000000000000000000000000000000000140000000000000000000000000000000000000000000000000000000000000000000000000000000000000000000000000000000000000000000000000000000000000000000000000000000000000000000000000000000000000000000000000000000000000000000000000000000000000000000000000000000000000000000000000000000000000000000000000000000000000000000000000000000000000000000000000000000000000000000000000000000000000000000000000000000000000000000000000000000000000000000000000000000000000000000000000000000000000000005454240000000000000000000000000000000000000000000000000000000000000000000000000000000000000000000000000000000000000000000000000000000000000000000000000000000000000000000000000000000000000000000000000000000000000000000000000000000000000000000000000000000000000000000000000000000000000000000000000000000000000000000000000000000000000000000000000000000000000000000000000000000000000000000000000000000000000000000000000000000000000000000000000000000000000000000000000000000000000000000000000000000000000000000000000000000000000000000000000000000000000000000000000000000000000000000000000000000000000000000000000000000000000000000000000000000000000000000000000000000000000000000000000000000000000000000000000000000000000000000000000000000000000000000000000000000000000000000000000000000000000000000000000000000000000000000000000000000000000000000000000000000000000000000000000000000000000000000000000000000000000000000000000000000000000000000000000000000000000000000000000000000000000000000000000000000000000000000000000000000000000000000000000000000000000000000000000000000000000000000000000000000000000000000000000000000000000000000000000000000000000000000000000000000000000000000000000000000000000000000000000000000000000000000000000000000000000000000000000000000000000000000000000000000000000000000000000000000000000000000000000000000000000000000000000000000000000000000000000000000000000000000000000000000000000000000000000000000000000000000000000000000000000000000000000000000000000000000000000000000000000000000000000000000000000000000000000000000000000000000000000000000000000000000000000000000000000000000000000000000000000000000000000000000000000000000000000000000000000000000000000000000000000000000000000000000000000000000000000000000000000000000000000000000000000000000000000000000000000000000000000000000000000000000000000000000000000000000000000000000000000000000000000000000000000000000000000000000000000000000000000000000000000000000000000000000000000000000000000000000000000000000000000000000000000000000000000000000000000000000000000000000000000000000000000000000000000000000000000000000000000000000000000000000000000000000000000000000000000000000000000000000000000000000000000000000000000000000000000000000000000000000000000000000000000000000000000000000000000000000000000000000000000000000000000000000000000000000000000000000000000000000000000000000000000000000000000000000000000000000000
#0549a0:140000000000000000000000000000000000000000000000000000000000000000000000000000000000000000000000000000000000000000000000000000000000000000000000000000000000000000000000000000000000000000000000000000000000000000000000000000000000000000000000000000000000000000000000000000000000000000000000000000000000000000000000000000000000000000000000000000000000000000000000000000000000000000000000000000000000000000000000000000000000000000000000000000000000000000000000000000000000000000005454240000000000000000000000000000000000000000000000000000000000000000000000000000000000000000000000000000000000000000000000000000000000000000000000000000000000000000000000000000000000000000000000000000000000000000000000000000000000000000000000000000000000000000000000000000000000000000000000000000000000000000000000000000000000000000000000000000000000000000000000000000000000000000000000000000000000000000000000000000000000000000000000000000000000000000000000000000000000000000000000000000000000000000000000000000000000000000000000000000000000000000000000000000000000000000000000000000000000000000000000000000000000000000000000000000000000000000000000000000000000000000000000000000000000000000000000000000000000000000000000000000000000000000000000000000000000000000000000000000000000000000000000000000000000000000000000000000000000000000000000000000000000000000000000000000000000000000000000000000000000000000000000000000000000000000000000000000000000000000000000000000000000000000000000000000000000000000000000000000000000000000000000000000000000000000000000000000000000000000000000000000000000000000000000000000000000000000000000000000000000000000000000000000000000000000000000000000000000000000000000000000000000000000000000000000000000000000000000000000000000000000000000000000000000000000000000000000000000000000000000000000000000000000000000000000000000000000000000000000000000000000000000000000000000000000000000000000000000000000000000000000000000000000000000000000000000000000000000000000000000000000000000000000000000000000000000000000000000000000000000000000000000000000000000000000000000000000000000000000000000000000000000000000000000000000000000000000000000000000000000000000000000000000000000000000000000000000000000000000000000000000000000000000000000000000000000000000000000000000000000000000000000000000000000000000000000000000000000000000000000000000000000000000000000000000000000000000000000000000000000000000000000000000000000000000000000000000000000000000000000000000000000000000000000000000000000000000000000000000000000000000000000000000000000000000000000000000000000000000000000000000000000000000000000000000000000000000000000000000000000000000000000000000000000000000000000000000000000000000000000000000000000000000000000000000000000000000000000000000000000000000000000000000000000000000000000000000000000000000000000000000000000000000000000000000000000000000000000000000000000000000000000000000000000000000000000000000000000000000000000000000000000000000000000000000000000000000000000000000000000000000000000000000000000000000000000000000000000000000000000000000000000000000000000000000000000000000000000000000000000000000000000000000000000000000000000000000000000000000000000000000000000000000000000000000000000000000000000000000000000000000000000000000000000000000000000000000000000000000000000000000000000000000000000000000000000000000000000000000000000000000000000000000000000000000000000000000000000000000000000000000000000000000000000000000000000000000000000000000000000000000000000000000000000000000000000000000000000000000000000000000000000000000000000000000000000000000000000000000000000000000000000000000000000000000000000000000000000000000000000000000000000000000000000000000000000000000000000000000000000000000000000000000000000000000000000000000000000000000000000000000000000000000000000000000000000000000000000000000000000
#096940:00000000000000000000000000000000000000000000000000000000000000000000000000000000000000000000000000000000140000000057005400540000
#096950:00000000000000000000000000000000000000000000000000000000000000000000000000000000000000000000000000000000005600550000000056000054
#096920:0000000000000000000000000000000000000000000000000000005655550055
#097940:58005400570054000000540054000000000000000057000000000000000000000000540054005400540000000000000000000000000000000000000000000000
#097950:00540000000000000054000000540000005600000000005600540000005500540055005600000055005400545300000000000000000000000000000000000000
#097920:00000055000000005600000000000056000000005700000000000000560000000000000000000000000056000000000000000000000000000000000000000000
#097930:000000000000000000000000000000560000000000540000000000000000000000580000000000000000540000000000540000000000540000560000000000000000540000000000560000000000000057000000000000000000550000000000550000000000000000000000000000560000000000000000000000000000000000000000000000000000000000000000000000000000000000000000000000000000000000000000000000000000000000000000000000000000000000000000
#098960:0021
