This file was generated by Ched 2.7.0.0.
#TITLE ""
#ARTIST ""
#DESIGNER ""
#DIFFICULTY 0
#PLAYLEVEL
#SONGID ""
#WAVE ""
#WAVEOFFSET 0
#JACKET ""
#REQUEST "ticks_per_beat 480"
#00002: 4
#BPM01: 193
#00008: 01
#TIL00: ""
#VOLUME: ""
#HISPEED 00
#MEASUREHS 00
#0011a:2414
#00214:1414
#00318:1414
#00412:1414
#00712:00000014
#0051a:00000014
#0111a:00000014
#01718:0014
#01712:14
#0181a:0014
#01814:14
#0101a:14
#01014:0014
#01312:14
#01318:0014
#01412:14
#01418:0014
#01512:14
#02112:14
#02118:0014
#02214:14
#0221a:0014
#02712:14
#02718:0014
#02814:14
#0281a:0014
#0251a:14
#02517:00000014
#02510:41
#02912:14
#02915:00000014
#03118:14
#03114:0014
#0321a:0000001400000000
#03518:14
#0351a:0014
#04114:0014
#0411a:14
#04212:0014
#04218:14
#03418:14
#03412:0014
#03714:14
#0371a:0014
#03710:41
#03814:14
#0381a:0014
#0451a:14
#04514:0014
#04618:14
#04612:0014
#03312:0014
#03318:24
#0501a:14
#05014:0014
#04912:0014
#05118:14
#0511a:0014
#05110:41
#05218:14
#05312:14
#0531a:0014
#0531f:11
#05412:14
#05418:0014
#05514:14
#05512:0014
#05614:14
#0571a:2414
#05714:00140014
#05918:1414
#05912:00140014
#06214:14
#06212:0014
#06218:00000014
#0621a:24
#06312:14
#06514:00140014
#0651a:2414
#0651f:21
#06510:0041
#06612:00140014
#06618:2414
#06714:00140014
#0671a:2414
#07312:00140014
#0731a:2414
#07414:00140014
#07418:2414
#07512:00140014
#0751a:2414
#08118:14
#08110:41
#08214:14
#0831a:14
#08412:14
#08518:14
#0851a:0000000000000024
#08614:0000140000001434
#08618:0014
#0881a:14
#08814:00140000
#08812:0000000000001434
#08818:0014
#0901a:14
#09012:00260000
#09018:0000000000260000
#09112:26000016
#09118:0000002600000000
#09212:0016
#09218:00000016
#0201a:0014
#02014:14
#02314:0014
#02312:14
#0161a:14
#02412:14
#03618:14
#03914:14
#03912:0014
#04014:14
#04412:0014
#04418:14
#0471a:14
#04718:00003414
#04719:00340000
#06114:14
#06118:0014
#0611a:24
#06112:0024
#06812:00140014
#06818:2414
#07614:00140014
#07618:2414
#0771a:14
#07718:0014
#07719:00340034
#0781a:14
#07819:00340000
#07912:14
#07914:0014
#07913:00340034
#08012:14
#08013:00340000
#01912:14
#01918:0014
#0431a:14
#04314:0014
#00914:24
#00910:41
#00814:0034000000000000
#06014:34
#00752:00000054
#0055a:00000054
#0115a:00000054
#00954:14
#01552:64
#0255a:54
#02557:00000024
#02952:64
#02955:00000024
#03358:14
#0325a:0000005400000000
#03558:64
#0355a:0064
#0365a:0014
#03658:64
#05158:64
#0515a:0064
#05258:64
#0525a:0014
#05352:14
#05554:54
#05552:0054
#05654:54
#05652:0014
#06352:64
#08158:54
#08254:64
#0835a:54
#08452:64
#08558:54
#0855a:0000000000000014
#08654:00000064
#08752:0014
#08852:00000054
#08954:0014
#09052:00160000
#09058:0000000000160000
#09152:16
#09158:0000001600000000
#09258:00160000
#02354:0064
#02352:64
#0165a:54
#02454:0014
#02452:64
#03954:54
#03952:0054
#04054:54
#04052:0014
#0495a:14
#0475a:64
#04758:00000064
#05754:00000054
#05952:00000064
#07058:0014
#07254:0014
#07858:0014
#0785a:54
#0775a:54
#07758:0054
#07952:64
#07954:0064
#08052:64
#08054:0014
#02054:14
#04458:14
#0053a0:14343434
#006380:00342400
#007320:14343434
#008340:0034003400000000
#009340:24
#0113a0:14000034
#011380:0000003400000000
#012380:0024
#015320:14
#015340:0024
#0163a0:14
#016380:0024
#023320:14
#023340:0034
#024320:34
#024340:0024
#0253a0:14
#025370:00000054
#0263a0:0024
#029320:14
#029350:00000054
#030320:0024
#0323a0:1434003400000000
#033380:24
#035380:14
#0353a0:0034
#036380:34
#0363a0:0024
#039340:14
#039320:0034
#040340:34
#040320:0024
#0473a0:14
#047390:00340000
#047380:00003434
#0493a0:24
#051380:14
#0513a0:0034
#052380:34
#0523a0:0024
#055340:14
#055320:0034
#056340:34
#056320:0024
#057340:00000014
#058320:0024
#059320:00000014
#060340:3424
#063320:14
#064360:0024
#0693a0:14
#069390:00340034
#069380:0034
#0703a0:34
#070390:00340000
#070380:0024
#071320:14
#071330:00340034
#071340:0034
#072320:34
#072330:00340000
#072340:0024
#0773a0:14
#077390:00340034
#077380:0034
#0783a0:34
#078390:00340000
#078380:0024
#079320:14
#079330:00340034
#079340:0034
#080320:34
#080330:00340000
#080340:0024
#081380:14
#0813a0:0024
#082340:14
#082320:0024
#0833a0:14
#083380:0024
#084320:14
#084340:0024
#085380:14
#0853a0:0000000034340024
#086340:0000000000001434
#087320:00342400
#088320:0000000000001434
#089340:00342400
#091380:0000000000000016
#092380:00260000
#092320:0000000000000016
#094340:0000565656000000
#094350:00000000005400540000000000000000
#096320:56000000000000000000000000360000
#098330:0024
