This file was generated by Ched 2.7.0.0.
#TITLE ""
#ARTIST ""
#DESIGNER ""
#DIFFICULTY 0
#PLAYLEVEL
#SONGID ""
#WAVE ""
#WAVEOFFSET 0
#JACKET ""
#REQUEST "ticks_per_beat 480"
#00002: 4
#BPM01: 153
#BPM02: 175
#00008: 01
#00908: 02
#TIL00: "71'1440:1, 71'1439:10000"
#VOLUME: ""
#HISPEED 00
#MEASUREHS 00
#01012:1314
#01019:00000013
#01015:0000240000000014
#01017:0014
#0101a:00240000
#01112:0013
#01115:00130013
#0111b:0013000013001300
#01118:0000001300000000
#01412:00240013
#01415:0000000000000016
#01413:0014
#01419:0014
#0141a:00240000
#01416:24
#01517:00000013
#0151b:0013
#01512:0013000000001300
#01515:00131300
#01518:0000001300000000
#0181a:14
#01816:24
#02318:0000000000000013
#0231a:0014
#02312:0053000000140000
#02315:0053
#02314:0000005300000000
#02313:00530000
#02918:0013000023000000
#02915:00130000
#02912:0000001300240000
#0291a:0000000000240000
#03112:0000130000130000
#0311b:00131300
#0351b:00130000
#03512:00130013
#03518:0013
#03515:0013
#03612:0000130000140000
#03615:0000001400000014
#0361a:1400001400000014
#03617:0000000000140000
#03712:00130000
#0371b:0000001300000000
#03718:0000000000130000
#03715:0013
#0391b:00130013
#03912:00130013
#03918:0013
#03915:0023
#0481b:00130013
#04812:00130013
#04818:0013
#04815:0013
#0531b:13
#05313:0000000000140000
#05318:0000001400000000
#0531a:0000000000000014
#05312:1300000000000024
#05314:0000002400000000
#05319:0000000000240000
#06318:0000000013131300
#06315:00000000240000000013001300130000
#06319:0000000000000015
#06312:0024000000000000
#06317:0024000000000000
#0631a:00240000
#05812:0000000000130000
#0581b:0000000000130000
#05815:0000130000000013
#05818:0000130000000023
#05810:00410000
#05015:00130000
#05017:00140000000000000000000000000000
#05014:0000000000130000
#05016:0014
#05019:0000000000130000
#05012:0000000000000014
#0501a:0000000000000014
#0061a:0012
#0061b:00000012
#00619:00120000
#00618:12
#00613:22
#00614:00220000
#00615:0022
#00616:00000022
#00318:13
#00315:13
#00312:0013
#00310:41
#00515:13
#00518:13
#00412:0013
#0041b:0013
#00418:13
#00212:0013
#00215:13
#0021b:0013
#00118:13
#0011b:0013
#00712:13
#0071b:13
#00916:0014000014000000
#00919:0000002500000000
#0091a:24
#00918:00000026
#00914:00000054000000000054000000000000
#00912:0000000000000000540000000000000000000000540000746600000000000000
#01217:0000000014000014
#01214:00000013
#01212:0014
#0121a:00240000
#01215:00240000
#01210:41
#0131b:0013
#01312:0013000013000000
#01318:00130000
#01315:0000001300000000
#0161b:00000013
#01615:0000000000000016
#01613:0014
#01619:0014
#0161a:00240000
#01612:00240000
#0171b:0013000000000000
#01715:0000001300330000
#01712:0013
#01718:00131300
#01714:00000000000000000033000000000000
#01716:00000000000000000000003334343434
#0201a:0000140000140000
#02012:2400002400002600
#02017:24
#02212:0000140000140000
#02218:00000016
#0221a:1400001400000000
#02215:14
#02210:41
#02415:1300000013000023
#0241b:0000001300000000
#02418:00000023
#02612:13
#0261b:13
#0321b:00000013
#03215:1313
#03212:00130000
#03218:13
#0321a:0000002222000000
#03214:0000000000000022
#03312:0000130000341300
#03318:1314
#03314:2214
#0331b:00000013
#0331a:0000000000340000
#03310:41
#03818:00000014
#03814:00230014
#0381a:2400002400240000
#03819:00230000
#03812:2400002400240000
#04218:13
#04215:13
#04518:0000001400000000
#04519:0000000000140000
#0451a:0000000000000014
#0451b:13
#04512:1300000000000024
#04514:0000002400000000
#04513:0000000000240000
#04510:41
#04412:00660013
#0441b:00000013
#0441f:00210000
#04418:00820000560000000000000000000000
#04416:00820000000000000000000000000000
#04712:0000001400000000
#04713:0000000000140000
#04714:0000000000000014
#04718:1300000000000024
#04715:13
#0471a:0000002400000000
#04719:0000000000240000
#04615:0013
#04612:00130013
#0461b:00130013
#04618:0013
#04915:13
#04918:1300001400000000
#04919:0000000000140000
#0491a:0000000000000014
#04914:0000002400000000
#04913:0000000000240000
#04912:0000000000000024
#05217:0000001400000000
#05215:0000000000000000000000000000000000000000000000000000000000000000000000000000000000000000000000000014000000000000000000000000000000000000000000000000000000000000000000000000000000000000000000000000000000000000000000000000000000000000000000000000000000000000
#05212:24
#0521a:24
#05418:00001313
#05415:0013
#05412:00130000
#0541a:0000000000000013
#05413:0000000000130000
#0541b:00130000
#05518:1300000000000024
#05515:13
#05519:0000000000140000
#05512:0000001400000000
#05514:0000000000000014
#0551a:0000002400000000
#05513:0000000000240000
#05718:1300001400000000
#05713:0000000000140000
#0571a:0000000000000014
#05715:13
#05714:0000002400000000
#05719:0000000000240000
#05712:0000000000000024
#0561a:00000014
#0561b:00130000
#05612:00130014
#05618:0023
#05615:0023
#05918:0000000023000013
#0591b:00130000000000000000001300000000
#05913:0000001300000000
#05915:0000130000000013
#06512:0013000013000000
#06518:00131300
#0651b:0013000000001300
#06515:0000001300000000
#06516:00000013
#0671b:0013000013000000
#06718:00130000
#06712:0013000013000000
#06715:0000001300000000
#02112:0014
#0211a:0000630000140000
#02119:0000006300000000
#02118:0063
#0211b:0063000000000000
#04012:00000013
#04014:00130000
#04013:0013
#05115:00140000000000000000000000000000
#05118:00130000
#05119:0000000000130000
#05116:0014
#05114:0000000000130000
#06116:000000000000000000000000000000000000000000000000000000000000000000000000000000000000000000000013000000000000000000000000000000000000000000000000000000000000000000000000000000000000000000000000000000000000000000000000000000000000000000000000000000000000000000000000000000000000000000000000000000000000000000000000000000000000000000000000000000000000000000000000000000000000000000000000000000000000000000000000000000000000000000000000000000000000000000000000000000000000000000000000000000000000000000000000000000000000000000000000000000000000000000000000000000000000000000000000000000000000000000000000000000000000000000000000000000000000000000000000000000000000000000000000000000000000000000000000000000000000000000000000000000000000000000000000000000000000000000000000
#06117:0013000000000000
#06014:00000000000000000000000000130000
#06019:00000000000000000000000000130000
#06012:0013
#0601b:0013
#0661a:0000140014000024
#06615:00141400
#06612:0000000000000024
#0691b:0013000013000000
#06915:00130000
#06912:0013000000002400
#06917:00000014
#06918:0000001300000000
#06916:0024
#06412:1500000000000024
#06415:00141400
#0641a:0000140014000024
#00818:13
#00815:13
#00812:0052
#0081c:0052
#03017:1400001400001400
#03012:1400001400001400
#0341f:11
#03412:0000002400000024
#0341b:00230000
#03415:0000000000240000
#03417:0000002400000024
#0341a:0000000000240000
#06217:2424002400002400
#06212:2424002400002400
#06218:0024
#06213:0024
#06214:0000000000000024
#06219:0000000000000024
#02815:2400002400002400
#0281a:2400002400002400
#04119:00230000
#0411b:00000023
#04115:23
#0411a:0023
#06814:0000000000620028
#0681c:00620000
#0681b:00000000006200000000000000000000
#0681a:0000006200000000
#06819:00000000000000620000000000000000
#06818:0062
#06815:00000000000000000062000000000000
#06813:00000000000000000000006200000000
#06816:0062
#06812:00000062
#01915:00000000000000000000565666000000
#04318:00000000000000000000000000000000000000000000000000000000000000005283000000000000000000000000000000000000000000000000000000000000
#0431a:54
#04312:64
#04316:0062
#04315:00000000000000000000000000000000000000000000000000000000000000000083000000000000000000000000000000000000000000000000000000000000
#02715:53535353
#02714:0053005300530000
#02718:53535353
#02719:0053005300530000
#01152:0063
#01155:00000063
#0115b:00000063
#01252:13
#01258:13
#01257:0000000000000014
#01557:00000053
#0155b:0053
#01552:00000053
#0165a:14
#01655:1400000000000016
#0185a:64
#01856:14
#03452:0000000000000014
#03457:0000000000000014
#03454:14
#03458:14
#0535b:53
#05354:0000003400000000
#05352:6300000000000034
#05359:0000000000440000
#05852:0000000000130000
#0585b:0000000000130000
#05858:0000630000000053
#05855:00530000
#05055:00630000
#05057:00240000000000000000000000000000
#05052:0000000000000064
#0505a:0000000000000014
#00555:63
#00558:53
#0055b:0013
#00552:0013
#0045b:0053
#00458:53
#00252:0053
#00255:53
#00355:53
#00352:0023
#00158:53
#0015b:0023
#00752:53
#00755:0013
#0075b:63
#00758:0013
#00958:00000016
#00952:0000000000000000000000000000000000000000000000241600000000000000
#0095a:14
#00959:0000001500000000
#0135b:0053
#01352:0013
#01456:14
#01455:0000000000000016
#01752:0063
#01758:0013
#02052:5400005400001600
#02258:00000016
#0225a:6400006400000000
#02455:6300000000000053
#02458:00000063
#02652:53
#0265b:63
#02552:0014
#0255a:0014
#0285a:6400006400001400
#02855:6400006400001400
#03358:5364
#03354:0054
#03352:00000023
#0335b:00000023
#03558:0053
#03552:00000063
#03655:0000000000000014
#0365a:5400000000000014
#0385a:1400000000540044
#03858:00000024
#03854:00000024
#03852:1400000000640034
#03952:00000053
#0395b:00000063
#03955:0053
#03958:0063
#04258:53
#04255:63
#04456:00220000000000000000000000000000
#04458:00220000460000000000000000000000
#04452:00360000
#04352:64
#0435a:64
#04355:00000000000000000000000000000000000000000000000000000000000000000053000000000000000000000000000000000000000000000000000000000000
#04358:00000000000000000000000000000000000000000000000000000000000000000053000000000000000000000000000000000000000000000000000000000000
#0455b:53
#04552:6300000000000014
#0455a:0000000000000014
#04758:6300000000000014
#04755:53
#04754:0000000000000014
#04655:0063
#04652:00000063
#03152:0000000000530000
#0315b:0053
#04955:53
#04958:63
#0495a:0000000000000054
#04952:0000000000000014
#04858:0053
#0485b:00000023
#05257:0000002400000000
#05255:0000000000000000000000000000000000000000000000000000000000000000000000000000000000000000000000000024000000000000000000000000000000000000000000000000000000000000000000000000000000000000000000000000000000000000000000000000000000000000000000000000000000000000
#05252:54
#0525a:64
#05458:00000063
#05455:0053
#05453:0000000000230000
#0545a:0000000000000023
#05558:6300000000000044
#05555:53
#0555a:0000004400000000
#05553:0000000000340000
#05758:63
#05752:0000000000000034
#05755:53
#05754:0000003400000000
#05759:0000000000440000
#0565a:00000024
#05652:00000024
#05658:0053
#05655:0063
#05958:0000000053000053
#0595b:00230000000000000000002300000000
#05953:0000002300000000
#05955:0000630000000063
#06552:0053
#0655b:00000053
#06556:00000053
#0675b:0053
#06752:0063
#01055:0000000000000014
#01955:00000016
#02755:63636313
#02754:0063006300630000
#02758:53535313
#02759:0053005300530000
#03255:1363
#03258:53
#04055:13
#03758:0000000000130000
#04158:13
#05155:00240000000000000000000000000000
#05158:00530000
#06157:0023000000000000
#06156:000000000000000000000000000000000000000000000000000000000000000000000000000000000000000000000023000000000000000000000000000000000000000000000000000000000000000000000000000000000000000000000000000000000000000000000000000000000000000000000000000000000000000000000000000000000000000000000000000000000000000000000000000000000000000000000000000000000000000000000000000000000000000000000000000000000000000000000000000000000000000000000000000000000000000000000000000000000000000000000000000000000000000000000000000000000000000000000000000000000000000000000000000000000000000000000000000000000000000000000000000000000000000000000000000000000000000000000000000000000000000000000000000000000000000000000000000000000000000000000000000000000000000000000000000000000000000000000000
#06152:00000015
#06159:00000015
#06059:00000000000000000000000000530000
#06054:00000000000000000000000000530000
#0605b:0023
#06052:0023
#0665a:00145400
#06655:00145400
#06455:00145400
#0645a:00145400
#06854:1400000000000018
#06858:14
#00858:53
#00855:63
#03057:5400005400001400
#03052:5400005400001400
#07054:15
#07059:15
#06952:00000064
#06957:00000064
#0695b:0063
#001380:13
#0013b0:0053
#002380:23
#002351:13
#002321:0033
#003351:33
#003321:0053
#004351:23
#004380:13
#0043b0:0033
#005380:33
#0053b0:0023
#005351:13
#005321:0023
#007321:13
#007351:0023
#0073b0:13
#007380:0023
#008350:13
#008320:0022
#008381:13
#0083c1:0022
#011321:0013
#011351:00000033
#012321:23
#0113b0:00000013
#012380:23
#0133b0:0013
#014360:24
#0153b0:0013
#015370:00000033
#0163a0:24
#015321:00000013
#016351:24
#017321:0013
#017341:00000000000000000033000000000000
#017351:0000000000330000
#017361:00000000000000000000003334343434
#018361:24
#0183a0:14
#019350:0000000000260000
#020320:14
#020350:00240000
#020320:0000001400000000
#020350:0000000000240000
#0223a0:14
#022370:00240000
#0223a0:0000001400000000
#022370:0000000000240000
#024350:13
#024320:0000002300000000
#024380:00000013
#0253a0:0024
#024351:0000000000000013
#025321:0024
#026321:13
#027351:23
#0263b0:13
#027380:23
#0283a0:14
#028370:00240000
#028351:14
#028321:00240000
#0283a1:0000001400000000
#028371:0000000000240000
#028350:0000001400000000
#028320:0000000000240000
#030320:14
#030350:00240000
#030371:14
#0303a1:00240000
#030321:0000001400000000
#030351:0000000000240000
#030370:0000001400000000
#0303a0:0000000000240000
#0313b0:0013
#031380:0000000000000023
#031321:0000000000130000
#031351:0000000000000023
#032381:13
#0323b1:00230000
#032351:0013
#032321:00000023
#033381:13
#0333b1:00230000
#033341:0014
#033321:0000000000345300
#034341:24
#033380:0014
#0333a0:0000000000340000
#0333b0:00000053
#034380:24
#035380:0013
#0353b0:00000023
#035321:00000013
#036351:23
#0363a0:14
#036370:00240000
#0383a0:0000000000140024
#038380:00000054
#038321:0000000000140024
#038341:00000054
#039351:0013
#039321:00000033
#040351:23
#039380:0013
#0393b0:00000033
#040380:33
#041380:23
#041351:13
#042351:33
#043321:24
#042380:13
#0433a0:24
#045320:13
#045350:00230000
#0453b1:13
#045381:00230000
#046351:0013
#046321:00000033
#047351:33
#047321:00230000
#047380:13
#0473b0:00230000
#048380:0013
#0483b0:00000053
#049380:33
#0493b0:00230000
#049351:13
#049321:00230000
#0493a1:0000000000000014
#050371:00540000000000000000000000000000
#0503a1:00240000
#050350:00130000
#050320:0023
#050320:0000000000000014
#051350:00540000000000000000000000000000
#051320:00240000
#051381:00130000
#0513b1:0023
#0523a1:14000024
#052371:0000005400000000
#052320:14000024
#052350:0000000000000000000000000000000000000000000000000000000000000000000000000000000000000000000000000054000000000000000000000000000000000000000000000000000000000000000000000000000000000000000000000000000000000000000000000000000000000000000000000000000000000000
#0533b0:13
#053380:00230000
#053321:13
#053351:00230000
#054351:00001323
#054331:0000000000530000
#054380:00000013
#0543a0:0000000000000053
#055380:33
#0553b0:00230000
#055351:13
#055321:00230000
#056381:0013
#0563a1:00000054
#057381:33
#0573b1:00230000
#056350:0013
#056320:00000054
#057350:33
#057320:00230000
#058350:00130000
#058320:0023
#058381:00130000
#0583b1:0023
#058381:0000000000000013
#0593b1:00530000000000000000000000000000
#059381:00230000
#059350:00132300
#059330:0000005300000000
#059381:0000000013000033
#0593b1:00000000000000000000005300000000
#0603b1:0053
#060391:00000000000000000000000000530000
#061371:0053000000000000
#061391:00000025
#059350:0000000000000013
#060320:0053
#060340:00000000000000000000000000530000
#061360:000000000000000000000000000000000000000000000000000000000000000000000000000000000000000000000053000000000000000000000000000000000000000000000000000000000000000000000000000000000000000000000000000000000000000000000000000000000000000000000000000000000000000000000000000000000000000000000000000000000000000000000000000000000000000000000000000000000000000000000000000000000000000000000000000000000000000000000000000000000000000000000000000000000000000000000000000000000000000000000000000000000000000000000000000000000000000000000000000000000000000000000000000000000000000000000000000000000000000000000000000000000000000000000000000000000000000000000000000000000000000000000000000000000000000000000000000000000000000000000000000000000000000000000000000000000000000000000000
#061320:00000025
#064350:0014
#064320:00000024
#0643a1:0014
#064371:00000024
#065321:0013
#065361:00000033
#066321:24
#0653b0:00000013
#066370:24
#066350:0014
#066320:00000024
#0663a1:0014
#066371:00000024
#0673b1:0013
#068381:24
#067320:0013
#068340:24
#0693b0:0013
#069370:00000034
#070390:25
#069321:00000014
#070341:25
#009960:0014000000000000
#009920:000000000000000000000000000000000000000000000000000000000000000000000000000000000000000000000000000000000000000000000000000000000000000000000000000000000000000000000000000000000000000000000000000000000000000000000000000000000000000000000000000000000000000000000000000000000000000000000000000000000000000000000000000000000000000000000000000000000000000000000000000000000000000000000000000000000000000000000000000000000000000000000000000000000000000000000000000000000000000000000000000000000000000000000000000000000000000000000000000000000000000000000000000000000000000000000000000000000000000000000000000000000000000000000000000000000000000000000000000000000000000000000000000000000000000000000000000000000000000000000000000000000000000000000000000000000000000000000000000000000000000000000000000000000000000000000000000000000000000000000000000000000000000000000000000000000000000000000000000000000000000000000000000000000000000000000000000000000000000054545454240000000000000000000000000000000000000000000000000000000000000000000000000000000000000000000000000000000000000000000000000000000000000000000000000000000000000000000000000000000000000000000000000000000000000000000000000000000000000000000000000000000000000000000000000000000000000000000000000000000000000000000000000000000000000000000000000000000000000000000000000000000000000000000000000000000000000000000000000000000000000000000000000000000000000000000000000000000000000000000000000000000000000000000000000000000000000000000000000000000000000000000000000000000000000000000000000000000000000000000000000000000000000000000000000000000000000000000000000000000000000000000000000000000000000000000000000000000000000000000000000000000000000000000000000000000000000000000000000000000000000000000000000000000000000000000000000000000000000000000000000000000000000000000000000000000000000000000000000000000000000000000000000000000000000000000000000000000000000000000000000000000000000000000000000000000000000000000000000000000000000000000000000000000000000000000000000000000000000000000000000000000000000000000000000000000000000000000000000000000000000000000000000000000000000000000000000000000000000000000000000000000000000000000000000000000000000000000000000000000000000000000000000000000000000000000000000000000000000000000000000000000000000000000000000000000000000000000000000000000000000000000000000000000000000000000000000000000000000000000000000000000000000000000000000000000000000000000000000000000000000000000000000000000000000000000000000000000000000000000000000000000000000000000000000000000000000000000000000000000000000000000000000000000000000000000000000000000000000000000000000000000000000000000000000000000000000000000000000000000000000000000000000000000000000000000000000000000000000000000000000000000000000000000000000000000000000000000000000000000000000000000000000000000000000000000000000000000000000000000000000000000000000000000000000000000000000000000000000000000000000000000000000000000000000000000000000000000000000000000000000000000000000000000000000000000000000000000000000000000000000000000000000000000000000000000000000000000000000000000000000000000000000000000000000000000000000000000000000000000000000000000000000000000000000000000000000000000000000000000000000000000000000000000000000000000000000000000000000000000000000000000000000000000000000000000000000000000000000000000000000000000000000000000000000000000000000000000000000000000000000000000000000000000000000000000000000000000000000000000000000000000000000000000000000000000000000000000000000000000000000000000000000000000000000000000000000000000000000000000000000000000000000000000000000000000000000000000000000000000000000000000000000000000000000000000000000000000000000000000000000000000000000000000000000000000000000000000000000000000000000000000000000000000000000000000000000000000000000000000000
#009960:0014
#009920:000000000000000000000000000000000000000000000000000000000000000000000000000000000000000000000000000000000000000000000000000000000000000000000000000000000000000000000000000000000000000000000000000000000000000000000000000000000000000000000000000000000000000000000000000000000000000000000000000000000000000000000000000000000000000000000000000000000000000000000000000000000000000000000000000000000000000000000000000000000000000000000000000000000000000000000000000000000000000000000000000000000000000000000000000000000000000000000000000000000000000000000000000000000000000000000000000000000000000000000000000000000000000000000000000000000000000000000000000000000000000000000000000000000000000000000000000000000000000000000000000000000000000000000000000000000000000000000000000000000000000000000000000000000000000000000000000000000000000000000000000000000000000000000000000000000000000000000000000000000000000000000000000000000000000000000000000000000000000000000000000000000000000000000000000000000000000000000000000000000000000000000000000000000000000000000000000000000000000000000000000000000000000000000000000000000000000000000000000000000000000000000000000000000000000000000000000000000000000000000000000000000000000000000000000000000000000000000000000000000000000000000000000000000000000000000000000000000000000000000000000000000000000000000000000000000000000000000000000000000000000000000000000000000000000000000000000000000000000000000000000000000000000000000000000000000000000000000000000000000000000000000000000000000000000000000000000000000000000000000000000000000000000000000000000000000000000000000000000000000000000000000000000000000000000000000000000000000000000000000000000000000000000000000000000000000000000000000000000000000000000000000000000000000000000000000000000000000000000000000000000000000000000000000000000000000000000000000000000000000000000000000000000000000000000000000000000000000000000000000000000000000000000000000000000000000000000000000000000000000000000000000000000000000000000000000000000000000000000000000000000000000000000000000000000000000000000000000000000000000000000000000000000000000000000000000000000000000000000000000000000000000000000000000000000000000000000000000000000000000000000000000000000000000000000000000000000000000000000000000000000000000000000000000000000000000000000000000000000000000000000000000000000000000000000000000000000000000000000000000000540000000000000000000000000000000000000000000000000000000000000000000000000000000000000000000000000000000000000000000000000000000000000000000000000000000000000000000000000000000000000000000000000000000000000000000000000000000000000000000000000000000000000000000000000000000000000000000000000000000000000000000000000000000000000000000000000000000000000000000000540000000000000000000000000000000000000000000000000000000000000000000000000000000000000000000000000000000000000056565656260000000000000000000000000000000000000000000000000000000000000000000000000000000000000000000000000000000000000000000000000000000000000000000000000000000000000000000000000000000000000000000000000000000000000000000000000000000000000000000000000000000000000000000000000000000000000000000000000000000000000000000000000000000000000000000000000000000000000000000000000000000000000000000000000000000000000000000000000000000000000000000000000000000000000000000000000000000000000000000000000000000000000000000000000000000000000000000000000000000000000000000000000000000000000000000000000000000000000000000000000000000000000000000000000000000000000000000000000000000000000000000000000000000000000000000000000000000000000000000000000000000000000000000000000000000000000000000000000000000000000000000000000000000000000000000000000000000000000000000000000000000000000000000000000000000000000000000000000000000000000000000000000000000000000000000000000000000000000000000000
#019950:000000000000000000000000000000000000000000000000000000000000000000000000000000000000000000000000000000000000000000000000000000000000000000000000000000000000000000000000000000000000000000000000000000000000000000000000000000000000000000000000000000000000000000000000000000000000000000000000000000000000000000000000000000000000000000000000000000000000000000000000000000000000000000000000000000000000000000000000000000000000000000000000000000000000000000000000000000000000000000000000000000000000000000000000000000000000000000000000000000000000000000000000000000000000000000000000000000000000000000000000000000000000000000000000000000000000000000000000000000000000000000000000000000000000000000000000000000000000000000000000000000000000000000000000000000000000000000000000000000000000000000000000000000000000000000000000000000000000000000000000000000000000000000000000000000000000000000000000000000000000000000000000000000000000000000000000000000000000000000000000000000000000000000000000000000000000000000000000000000000000000000000000000000000000000000000000000000000000000000000000000000000000000000000000000000000000000000000000000000000000000000000000000000000000000000000000000000000000000000000000000000000000000000000000000000000000000000000000000000000000000000000000000000000000000000000000000000000000000000000000000000000000000000000000000000000000000000000000000000000000000000000000000000000000000000000000000000000000000000000000000000000000000000000000000000000000000000000000000000000000000000000000000000000000000000000000000000000000000000000000000000000000000000000000000000000000000000000000000000000000000000000000000000000000000000000000000000000000000000000000000000000000000000000000000000000000000000000000000000000000000000000000000000000000000000000000000000000000000000000000000000000000000000000000000000000000000000000000000000000000000000000000000000000000000000000000000000000000000000000000000000000000000000000000000000000000000000000000000000000000000000000000000000000000000000000000000000000000000000000000000000000000000000000000000000000000000000000000000000000000000000000000000000000000000000000000000000000000000000000000000000000000000000000000000000000000000000000000000000000000000000000000000000000000000000000000000000000000000000000000000000000000000000000000000000000000000000000000000000000000000000000000000000000000000000000000000000000000000000000000160000000000000000000000000000000000000000000000000000000000000000000000000000000000000000000000000000000000000000000000000000000000000000000000000000000000000000000000000000000000000000000000000000000000000000000000000000000000000000000000000000000000000000000000000000000000000000000000000000000000000000000000000000000000000000000000000000000000000000000000000000000000000000000000000000000000000000000000000000000000000000000000000000000000000000000000000000000000000000565656260000000000000000000000000000000000000000000000000000000000000000000000000000000000000000000000000000000000000000000000000000000000000000000000000000000000000000000000000000000000000000000000000000000000000000000000000000000000000000000000000000000000000000000000000000000000000000000000000000000000000000000000000000000000000000000000000000000000000000000000000000000000000000000000000000000000000000000000000000000000000000000000000000000000000000000000000000000000000000000000000000000000000000000000000000000000000000000000000000000000000000000000000000000000000000000000000000000000000000000000000000000000000000000000000000000000000000000000000000000000000000000000000000000000000000000000000000000000000000000000000000000000000000000000000000000000000000000000000000000000000000000000000000000000000000000000000000000000000000000000000000000000000000000000000000000000000000000000000000000000000000000000000000000000000000000000000000000000000000000000
#0219b0:0013000000000000
#021980:0023
#023920:0013000000000000
#023950:0023
#027950:130000000000000000000000000000000000000000000000000000000000000000000000000000000000000000000000000000000000000000000000000000000000000000000000000000000000000000000000000000000000000000000000000000000000000000000000000000000000000000000000000000000000000000000000000000000000000000000000000000000000000000000000000000000000000000000000000000000000000000000000000000000000000000000000000000000000000000000000000000000000000000000000000000000000000000000000000000000000000000000000000000000000000000000000000000000000000000000000000000000000000000000000000000000000000000000000000000000000000000000000000000000000000000000000000000000000000000000000000000000000000000000000000000000000000000000000000000000000000000000000000000000000000000000000000000000000000000000000000000000000000000000000000000000000000000000000000000000000000000000000000000000000000000000000000000000000000000000000000000000000000000000000000000000000000000000000000000000000000000000000530000000000000000000000000000000000000000000000000000000000000000000000000000000000000000000000000000000000000000000000000000000000000000000000000000000000000000000000000000000000000000000000000000000000000000000000000000000000000000000000000000000000000000000000000000000000000000000000000000000000000000000000000000000000000000000000000000000000000000000000000000000000000000000000000000000000000000000000000000000000000000000000000000000000000000000000000000000000000000000000000000000000000000000000000000000000000000000000000000000000000000000000000000000000000000000000000000000000000000000000000000000000000000000000000000000000000000000000000000000000000000000000000000000000000000000000000000000000000000000000000000000000000000000000000000000000000000000000000000000000000000000000000000000000000000000000000000000000000000000000000000000000000000000000000000000000000000000000000000000000000000000000000000000000000000000000000000000000000000000000530000000000000000000000000000000000000000000000000000000000000000000000000000000000000000000000000000000000000000000000000000000000000000000000000000000000000000000000000000000000000000000000000000000000000000000000000000000000000000000000000000000000000000000000000000000000000000000000000000000000000000000000000000000000000000000000000000000000000000000000000000000000000000000000000000000000000000000000000000000000000000000000000000000000000000000000000000000000000000000000000000000000000000000000000000000000000000000000000000000000000000000000000000000000000000000000000000000000000000000000000000000000000000000000000000000000000000000000000000000000000000000000000000000000000000000000000000000000000000000000000000000000000000000000000000000000000000000000000000000000000000000000000000000000000000000000000000000000000000000000000000000000000000000000000000000000000000000000000000000000000000000000000000000000000000000000000053535353535353535353230000000000000000000000000000000000000000000000000000000000000000000000000000000000000000000000000000000000000000000000000000000000000000000000000000000000000000000000000000000000000000000000000000000000000000000000000000000000000000000000000000000000000000000000000000000000000000000000000000000000000000000000000000000000000000000000000000000000000000000000000000000000000000000000000000000000000000000000000000000000000000000000000000000000000000000000000000000000000000000000000000000000000000000000000000000000000000000000000000000000000000000000000000000000000000000000000000000000000000000000000000000000000000000000000000000000000000000000000000000000000000000000000000000000000000000000000000000000000000000000000000000000000000000000000000000000000000000000000000000000000000000000000000000000000000000000000000000000000000000000000000000000000000000000000000000000000000000000000000000000000000000000000000000000000000000000000000000000000000000000
#027940:0053005300530000
#027981:130000000000000000000000000000000000000000000000000000000000000000000000000000000000000000000000000000000000000000000000000000000000000000000000000000000000000000000000000000000000000000000000000000000000000000000000000000000000000000000000000000000000000000000000000000000000000000000000000000000000000000000000000000000000000000000000000000000000000000000000000000000000000000000000000000000000000000000000000000000000000000000000000000000000000000000000000000000000000000000000000000000000000000000000000000000000000000000000000000000000000000000000000000000000000000000000000000000000000000000000000000000000000000000000000000000000000000000000000000000000000000000000000000000000000000000000000000000000000000000000000000000000000000000000000000000000000000000000000000000000000000000000000000000000000000000000000000000000000000000000000000000000000000000000000000000000000000000000000000000000000000000000000000000000000000000000000000000000000000000000530000000000000000000000000000000000000000000000000000000000000000000000000000000000000000000000000000000000000000000000000000000000000000000000000000000000000000000000000000000000000000000000000000000000000000000000000000000000000000000000000000000000000000000000000000000000000000000000000000000000000000000000000000000000000000000000000000000000000000000000000000000000000000000000000000000000000000000000000000000000000000000000000000000000000000000000000000000000000000000000000000000000000000000000000000000000000000000000000000000000000000000000000000000000000000000000000000000000000000000000000000000000000000000000000000000000000000000000000000000000000000000000000000000000000000000000000000000000000000000000000000000000000000000000000000000000000000000000000000000000000000000000000000000000000000000000000000000000000000000000000000000000000000000000000000000000000000000000000000000000000000000000000000000000000000000000000000000000000000000000530000000000000000000000000000000000000000000000000000000000000000000000000000000000000000000000000000000000000000000000000000000000000000000000000000000000000000000000000000000000000000000000000000000000000000000000000000000000000000000000000000000000000000000000000000000000000000000000000000000000000000000000000000000000000000000000000000000000000000000000000000000000000000000000000000000000000000000000000000000000000000000000000000000000000000000000000000000000000000000000000000000000000000000000000000000000000000000000000000000000000000000000000000000000000000000000000000000000000000000000000000000000000000000000000000000000000000000000000000000000000000000000000000000000000000000000000000000000000000000000000000000000000000000000000000000000000000000000000000000000000000000000000000000000000000000000000000000000000000000000000000000000000000000000000000000000000000000000000000000000000000000000000000000000000000000000000053535353535353535353230000000000000000000000000000000000000000000000000000000000000000000000000000000000000000000000000000000000000000000000000000000000000000000000000000000000000000000000000000000000000000000000000000000000000000000000000000000000000000000000000000000000000000000000000000000000000000000000000000000000000000000000000000000000000000000000000000000000000000000000000000000000000000000000000000000000000000000000000000000000000000000000000000000000000000000000000000000000000000000000000000000000000000000000000000000000000000000000000000000000000000000000000000000000000000000000000000000000000000000000000000000000000000000000000000000000000000000000000000000000000000000000000000000000000000000000000000000000000000000000000000000000000000000000000000000000000000000000000000000000000000000000000000000000000000000000000000000000000000000000000000000000000000000000000000000000000000000000000000000000000000000000000000000000000000000000000000000000000000000000
#027991:0053005300530000
#0439a1:14
#043981:00000000000000000000000000000000000000000000000000000000000000005253000000000000520000000000000000000000000000000000000000000000
#044981:000000000000000000000000000000000000000000000000000000000000000000000000000000000000000000000000000000000000000000000000000000000000000000000000000000000000000000000000000000000000000000000000000000000000000000000000000000000000000000000000520000000000000000000000000000000000000000000000000000000000000000000000000000000000000000000000000000000000000000000000000000000000000000000000000000000000000000000000000000000000000000000000000000000000000000000000000000000000000000000000000000000000000000000000000000000000000000000000000000000000000000000000000000000000000000000000000000000000000000000000000000000000000000000000000000000000000000000000000000000000000000000000000000000000000000000000000000000000000000000000000000000000000000000000000000000000000000000000000000000000000000000000000000000000000000000000000000000000000000000000000000000000000000000000000000000000000000000000000000000000000000000000000000000000000000000000000000000000005656565656260000000000000000000000000000000000000000000000000000000000000000000000000000000000000000000000000000000000000000000000000000000000000000000000000000000000000000000000000000000000000000000000000000000000000000000000000000000000000000000000000000000000000000000000000000000000000000000000000000000000000000000000000000000000000000000000000000000000000000000000000000000000000000000000000000000000000000000000000000000000000000000000000000000000000000000000000000000000000000000000000000000000000000000000000000000000000000000000000000000000000000000000000000000000000000000000000000000000000000000000000000000000000000000000000000000000000000000000000000000000000000000000000000000000000000000000000000000000000000000000000000000000000000000000000000000000000000000000000000000000000000000000000000000000000000000000000000000000000000000000000000000000000000000000000000000000000000000000000000000000000000000000000000000000000000000000000000000000000000000000000000000000000000000000000000000000000000000000000000000000000000000000000000000000000000000000000000000000000000000000000000000000000000000000000000000000000000000000000000000000000000000000000000000000000000000000000000000000000000000000000000000000000000000000000000000000000000000000000000000000000000000000000000000000000000000000000000000000000000000000000000000000000000000000000000000000000000000000000000000000000000000000000000000000000000000000000000000000000000000000000000000000000000000000000000000000000000000000000000000000000000000000000000000000000000000000000000000000000000000000000000000000000000000000000000000000000000000000000000000000000000000000000000000000000000000000000000000000000000000000000000000000000000000000000000000000000000000000000000000000000000000000000000000000000000000000000000000000000000000000000000000000000000000000000000000000000000000000000000000000000000000000000000000000000000000000000000000000000000000000000000000000000000000000000000000000000000000000000000000000000000000000000000000000000000000000000000000000000000000000000000000000000000000000000000000000000000000000000000000000000000000000000000000000000000000000000000000000000000000000000000000000000000000000000000000000000000000000000000000000000000000000000000000000000000000000000000000000000000000000000000000000000000000000000000000000000000000000000000000000000000000000000000000000000000000000000000000000000000000000000000000000000000000000000000000000000000000000000000000000000000000000000000000000000000000000000000000000000000000000000000000000000000000000000000000000000000000000000000000000000000000000000000000000000000000000000000000000000000000000000000000000000000000000000000000000000000000000000000000000000000000000000000000000000000000000000000000000000000000000000000000000000000000000000000000000000000000000000000000000000000000000000000000000000000000000000000000000000000000000
#043920:14
#043960:0000000052520000
#043950:00000000000000000000000000000000000000000000000000000000000000000053000000000000000000000000000000000000000000000000000000000000
#044960:00520000000000000000000000000000
#044920:000000000000000000000000000000000000000000000000000000000000000000000000000000000000000000000000000000000000000000000000000000000000000000000000000000000000000000000000000000000000000000000000000000000000000000000000000000000000000000000000000000000000000000000000000000000000000000000000000000000000000000000000000000000000000000000000000000000000000000000000000000000000000000000000000000000000000000000000000000000000000000000000000000000000000000000000000000000000000000000000000000000000000000000000000000000000000000000000000000000000000000000000000000000000000000000000000000000000000000000000000000000000000000000000000000000000000000000000000000000000000000000000000000000000000000000000000000000000000000000000000000000000000000000000000000000000000000000000000000000000000000000000000000000000000000000000000000000000000000000000000000000000000000000000000000000000000000000000000000000000000000000000000000000000000000000000000000000000005656565656260000000000000000000000000000000000000000000000000000000000000000000000000000000000000000000000000000000000000000000000000000000000000000000000000000000000000000000000000000000000000000000000000000000000000000000000000000000000000000000000000000000000000000000000000000000000000000000000000000000000000000000000000000000000000000000000000000000000000000000000000000000000000000000000000000000000000000000000000000000000000000000000000000000000000000000000000000000000000000000000000000000000000000000000000000000000000000000000000000000000000000000000000000000000000000000000000000000000000000000000000000000000000000000000000000000000000000000000000000000000000000000000000000000000000000000000000000000000000000000000000000000000000000000000000000000000000000000000000000000000000000000000000000000000000000000000000000000000000000000000000000000000000000000000000000000000000000000000000000000000000000000000000000000000000000000000000000000000000000000000000000000000000000000000000000000000000000000000000000000000000000000000000000000000000000000000000000000000000000000000000000000000000000000000000000000000000000000000000000000000000000000000000000000000000000000000000000000000000000000000000000000000000000000000000000000000000000000000000000000000000000000000000000000000000000000000000000000000000000000000000000000000000000000000000000000000000000000000000000000000000000000000000000000000000000000000000000000000000000000000000000000000000000000000000000000000000000000000000000000000000000000000000000000000000000000000000000000000000000000000000000000000000000000000000000000000000000000000000000000000000000000000000000000000000000000000000000000000000000000000000000000000000000000000000000000000000000000000000000000000000000000000000000000000000000000000000000000000000000000000000000000000000000000000000000000000000000000000000000000000000000000000000000000000000000000000000000000000000000000000000000000000000000000000000000000000000000000000000000000000000000000000000000000000000000000000000000000000000000000000000000000000000000000000000000000000000000000000000000000000000000000000000000000000000000000000000000000000000000000000000000000000000000000000000000000000000000000000000000000000000000000000000000000000000000000000000000000000000000000000000000000000000000000000000000000000000000000000000000000000000000000000000000000000000000000000000000000000000000000000000000000000000000000000000000000000000000000000000000000000000000000000000000000000000000000000000000000000000000000000000000000000000000000000000000000000000000000000000000000000000000000000000000000000000000000000000000000000000000000000000000000000000000000000000000000000000000000000000000000000000000000000000000000000000000000000000000000000000000000000000000000000000000000000000000000000000000000000000000000000000000000000000000000000000000000000000000000000000000000000
#0689c0:00120000
#068980:000000000000000000000000000000000000000000000000000000000000000000000000000000000000000000000000000000000000000000000000000000000000000000000000000000000000000000000000000000000000000000000000000000000000000000000000000000000000000000000000000000000000000000000000000000000000000000000000000000000000000000000000000000000000000000000000000000000000000000000000000000000000000000000000000000000000000000000000000000000000000000000000000000000000000000000000000000000000000000000000000000000000000000000000000000000000000000000000000000000000000000000000000000000000000000000000000000000000000000000000000000000000000000000000000000000000000000000000000000000000000000000000000000000000000000000000000000000000000000000000000000000000000000000000000000000000000000000000000000000000000000000000000000000000000000000000000000000000000000000000000000000000000000000000000000000000000000000000000000000000000000000000000000000000000000000000000000000000000000000000000000000000000000000000000000000000000000000000000000000000000000000000000000000000000000000000000000000000000000000000000000000000000000000000000000000000000000000000000000000000000000000000000000000000000000000000000000000000000000000000000000000000000000000000000000000000000000000000000000000000000000000000000000000000000000000000000000000000000000000000000000000000000000000000000000000000000000000000000000000000000000000000000000000000000000000000000000000000000000000000000000000000000000000000000000000000000000000000000000000000000000000000000000000000000000000000000000000000000000000000000000000000000000000000000000000000000000000000000000000000000000000000000000000000000000000000000000000000000000000000000000000000000000000000000000000000000000000000000000000000000000000000000000000000000000000000000000000000000000000000000000000000000000000000000000000000000000000000000000000000000000000000000000000000000000000000000000000000000000525252220000000000000000000000000000000000000000000000000000000000000000000000000000000000000000000000000000000000000000000000000000000000000000000000000000000000000000000000000000000000000000000000000000000000000000000000000000000000000000000000000000000000000000000000000000000000000000000000000000000000000000000000000000000000000000000000000000000000000000000000000000000000000000000000000000000000000000000000000000000000000000000000000000000000000000000000000000000000000000000000000000000000000000000000000000000000000000000000000000000000000000000000000000000000000000000000000000000000000000000000000000000000000000000000000000000000000000000000000000000000000000000000000000000000000000000000000000000000000000000000000000000000000000000000000000000000000000000000000000000000000000000000000000000000000000000000000000000000000000000000000000000000000000000000000000000000000000000000000000000000000000000000000000000000000000000000000000000000000000000000000000000000000000000000000000000000000000000000000000000000000000000000000000000000000000000000000000000000000000000000000000000000000000000000000000000000000000000000000000000000000000000000000000000000000000000000000000000000000000000000000000000000000000000000000000000000000000000000000000000000000000000000000000000000000000000000000000000000000000000000000000000000000000000000000000000000000000000000000000000000000000000000000000000000000000000000000000000000000000000000000000000000000000000000000000000000000000000000000000000000000000000000000000000000000000000000000000000000000000000000000000000000000000000000000000000000000000000000000000000000000000000000000000000000000000000000000000000000000000000000000000000000000000000000000000000000000000000000000000000000000000000000000000000000000000000000000000000000000000000000000000000000000000000000000000000000000000000000000000000000000000000000000000000000000000000000000000000000000000000000
#068961:0012
#068921:000000000000000000000000000000000000000000000000000000000000000000000000000000000000000000000000000000000000000000000000000000000000000000000000000000000000000000000000000000000000000000000000000000000000000000000000000000000000000000000000000000000000000000000000000000000000000000000000000000000000000000000000000000000000000000000000000000000000000000000000000000000000000000000000000000000000000000000000000000000000000000000000000000000000000000000000000000000000000000000000000000000000000000000000000000000000000000000000000000000000000000000000000000000000000000000000000000000000000000000000000000000000000000000000000000000000000000000000000000000000000000000000000000000000000000000000000000000000000000000000000000000000000000000000000000000000000000000000000000000000000000000000000000000000000000000000000000000000000000000000000000000000000000000000000000000000000000000000000000000000000000000000000000000000000000000000000000000000000000000000000000000000000000000000000000000000000000000000000000000000000000000000000000000000000000000000000000000000000000000000000000000000000000000000000000000000000000000000000000000000000000000000000000000000000000000000000000000000000000000000000000000000000000000000000000000000000000000000000000000000000000000000000000000000000000000000000000000000000000000000000000000000000000000000000000000000000000000000000000000000000000000000000000000000000000000000000000000000000000000000000000000000000000000000000000000000000000000000000000000000000000000000000000000000000000000000000000000000000000000000000000000000000000000000000000000000000000000000000000000000000000000000000000000000000000000000000000000000000000000000000000000000000000000000000000000000000000000000000000000000000000000000000000000000000000000000000000000000000000000000000000000000000000000000000000000000000000000000000000000000000000000000000000000000000000000000000000000000000000000000000000000000000000000000000000000000000000000000000000000000000000000000000000000000000000000000000000000000000000000000000000000000000000000000000000000000000000000000000000000000000000000000000000000000000000000000000000000000000000000000000000000000000000000000000000000000000000000000000000000000000000000000000000000000000000000000000000000000000000000000000000000000000000000000000000000000000000000000000000000000000000000000000000000000000000000000000000000000000000000000000000000000000000000000000000000000000000000000000000000000000000000000000000000000000000000000000000000000000000000000000000000000000000000000000000000000000000000000000000000000000000000000000000000000000000000000000000000000000000000000000000000000000000000000000000000000000000000000000000000000000000000000000000000000000000000000000000000000000000000000000000000000000000000000000000000000000000000000000000000000000000000000000000000000000000000000000000000000000000525252220000000000000000000000000000000000000000000000000000000000000000000000000000000000000000000000000000000000000000000000000000000000000000000000000000000000000000000000000000000000000000000000000000000000000000000000000000000000000000000000000000000000000000000000000000000000000000000000000000000000000000000000000000000000000000000000000000000000000000000000000000000000000000000000000000000000000000000000000000000000000000000000000000000000000000000000000000000000000000000000000000000000000000000000000000000000000000000000000000000000000000000000000000000000000000000000000000000000000000000000000000000000000000000000000000000000000000000000000000000000000000000000000000000000000000000000000000000000000000000000000000000000000000000000000000000000000000000000000000000000000000000000000000000000000000000000000000000000000000000000000000000000000000000000000000000000000000000000000000000000000000000000000000000000000000000000000000000000000000000000
#0719d1:000000000000000000000000000000000000000000000000000000000000000000000000000000000000000000000000000000000000000000000000000000000000000000000000000000000000000000000000000000000000000000000000000000000000000000000000000000000000000000000000000000000000000000000000000000000000000000000000000000000000000000000000000000000000000000000000000000000000000000000000000000000000000000000000000000000000000000000000000000000000000000000000000000000000000000000000000000000000000000000000000000000000000000000000000000000000000000000000000000000000000000000000000000000000000000000000000000000000000000000000000000000000000000000000000000000000000000000000000000000000000000000000000000000000000000000000000000000000000000000000000000000000000000000000000000000000000000000000000000000000000000000000000000000000000000000000000000000000000000000000000000000000000000000000000000000000000000000000000000000000000000000000000000000000000000000000000000000000000000000000000000000000000000000000000000000000000000000000000000000000000000000000000000000000000000000000000000000000000000000000000000000000000000000000000000000000000000000000000000000000000000000000000000000000000000000000000000000000000000000000000000000000000000000000000000000000000000000000000000000000000000000000000000000000000000000000000000000000000000000000000000000000000000000000000000000000000000000000000000000000000000000000000000000000000000000000000000000000000000000000000000000000000000000000000000000000000000000000000000000000000000000000000000000000000000000000000000000000000000000000000000000000000000000000000000000000000000000000000000000000000000000000000000000000000000000000000000000000000000000000000000000000000000000000000000000000000000000000000000000000000000000000000000000000000000000000000000000000000000000000000000000000000000000000000000000000000000000000000000000000000000000000000000000000000000000000000000000000000000000000000000000000000000000000000000000000000000000000000000000000000000000000000000000000000000000000000000000000000000000000000000000000000000000000000000000000000000000000000000000000000000000000000000000000000000000000000000000000000000000000000000000000000000000000000000000000000000000000000000000000000000000000000000000000000000000000000000000000000000000000000000000000000000000000000000000000000000000000000000000000000000000000000000000000000000000000000000000000000000000000000000000000000000000000000000000000000000000000000000000000000000000000000000000000000000000000000000000000000000000000000000000000000000000000000000000000000000000000000000000000000000000000000000000000000000000000000000000000000000000000000000000000000000000000000000000000000000000000000000000000000000000000000000000000000000000000000000000000000000000000000000000000000000000000000000000000000000000000000000000000000000000000000000000000000000000000000000000000000000000000112100000000000000000000000000000000000000000000000000000000000000000000000000000000000000000000000000000000000000000000000000000000000000000000000000000000000000000000000000000000000000000000000000000000000000000000000000000000000000000000000000000000000000000000000000000000000000000000000000000000000000000000000000000000000000000000000000000000000000000000000000000000000000000000000000000000000000000000000000000000000000000000000000000000000000000000000000000000000000000000000000000000000000000000000000000000000000000000000000000000000000000000000000000000000000000000000000000000000000000000000000000000000000000000000000000000000000000000000000000000000000000000000000000000000000000000000000000000000000000000000000000000000000000000000000000000000000000000000000000000000000000000000000000000000000000000000000000000000000000000000000000000000000000000000000000000000000000000000000000000000000000000000000000000000000000000000000000000000000000000
