This file was generated by Ched 2.7.0.0.
#TITLE ""
#ARTIST ""
#DESIGNER ""
#DIFFICULTY 0
#PLAYLEVEL
#SONGID ""
#WAVE ""
#WAVEOFFSET 0
#JACKET ""
#REQUEST "ticks_per_beat 480"
#00002: 4
#BPM01: 153
#BPM02: 175
#00008: 01
#00908: 02
#TIL00: "71'1440:1, 71'1439:10000"
#VOLUME: ""
#HISPEED 00
#MEASUREHS 00
#0021a:0014
#00414:0014
#0061a:0014
#00812:0014
#01015:16
#00714:14
#00518:14
#01117:0016000000000000
#01218:0016
#01214:0000000000000014
#01212:00260000
#01210:41
#01412:0016
#01418:0000260000000014
#01618:0016
#01614:0000000000000014
#01612:00260000
#01816:00000018
#01818:24
#02118:0014
#02114:0000000000140000
#02314:0014
#02318:0000000000140000
#02412:14
#02414:0014
#02512:14
#02914:0014
#02918:0000000000140000
#03118:0014
#03114:0000000000140000
#02819:15
#02817:0000001500000000
#03012:15
#03014:0000001500000000
#03219:15
#03217:0015
#04018:0014
#0401a:14
#04012:24
#04014:0024
#0411a:14
#04118:0014
#04112:24
#04114:0024
#0421a:14
#04212:24
#04514:00140000
#0451a:14
#04512:0000003400000000
#04510:41
#04614:0014
#04618:00140014
#04818:0014
#04814:00140014
#05018:00140014
#05014:0014
#05112:14
#0511a:00140000
#05114:0014
#06015:00000016
#06012:26
#06612:0016
#06619:0000000000000015
#06618:00260000
#06818:0016
#06812:0000260000000015
#06418:0016
#06412:0000260000000015
#04314:0014
#04318:0014
#03518:0014
#03514:00000014
#03714:0014
#03718:00000014
#03918:0014
#03914:00000014
#0341f:11
#03314:0014
#03318:0000000000140000
#03310:41
#04718:00140000
#04712:14
#0471a:0000003400000024
#04914:00140000
#0491a:14
#04912:0000003400000000
#0531a:00140000
#05314:14
#05318:0000003400000000
#0541a:0014
#05412:00140000
#05414:00000014
#05612:0014
#0561a:00140000
#05618:00000014
#05512:00140000
#05518:14
#05514:0000003400000024
#0571a:00140000
#05714:14
#05718:0000003400000000
#05812:00140000
#0581a:0014
#05814:00000014
#05810:00410000
#05918:14
#05912:00140000
#0591a:0024
#05217:0000001500000000
#05219:25
#06514:00150000
#06512:0015
#06717:00150000
#06914:00150015
#06912:0000000015000015
#00918:26
#07012:27
#0441f:00210000
#01312:00340000
#01712:00340000
#0151a:00343400
#02210:41
#00310:41
#06218:6464000000006464
#0621a:0000006464000000
#0631a:0064640000000000
#00754:54
#00558:54
#00958:56
#01055:26
#01157:0056000000000000
#01352:0014
#01254:0000000000000054
#01458:0000000000000064
#01654:0000000000000054
#01752:0014
#01856:00000028
#01858:54
#02052:00000015
#02259:00000015
#02655:14
#02452:54
#02454:0054
#02552:54
#02859:55000015
#02857:0000005500000000
#03052:55000015
#03054:0000005500000000
#03259:65
#03257:0065
#0425a:54
#04252:54
#04458:00160000
#04452:00160000
#04554:00640000
#04552:0000000000000014
#06055:00000026
#06052:56
#06152:0016
#06452:0000000000000065
#04358:0024
#04354:0024
#06659:0000000000000055
#06759:0015
#06757:00550000
#07052:17
#03452:0000000000000014
#0365a:0000000000000014
#03852:0000000000000014
#03359:15
#04758:00540000
#0475a:0000000000000014
#04954:00640000
#04952:0000000000000014
#0535a:00640000
#05358:0000000000000014
#05552:00540000
#05554:0000000000000014
#0575a:00640000
#05758:0000000000000014
#05259:55
#05257:0000002500000000
#06554:00650000
#06552:0065
#06852:0000000000000065
#06954:00650065
#06952:0000000065000025
#0013a0:14
#0023a0:24
#003340:14
#004340:24
#005380:14
#0063a0:24
#007340:14
#008320:24
#009380:16
#010350:56
#011370:0056000000000000
#011380:00000026
#012340:0000000000000014
#013320:00342400
#014380:0000000000000014
#0153a0:00343424
#016340:0000000000000014
#017320:00342400
#018380:14
#018360:00000058
#019380:0024
#020320:15000025
#020340:0000003500000000
#022390:15000025
#022370:0000003500000000
#024320:14
#024340:0034
#025320:34
#026350:24
#028390:15000025
#028370:0000003500000000
#030320:15000025
#030340:0000003500000000
#032390:15
#032370:0035
#033390:25
#034320:1400003400000024
#034340:0000000000340000
#0363a0:1400003400000024
#036380:0000000000340000
#038320:1400003400000024
#038340:0000000000340000
#0423a0:14
#043380:3454
#044380:00260000
#042321:14
#043341:3454
#044321:00260000
#045341:00140000
#045321:0000003400340024
#047381:00140000
#0473a1:0000003400340024
#049341:00140000
#049321:0000003400340024
#052391:15000025
#052371:0000005500000000
#0533a1:00140000
#053381:0000003400340024
#055321:00140000
#055341:0000003400340024
#0573a1:00140000
#057381:0000003400340024
#060321:16
#060351:00000056
#061321:0026
#064321:0000000000000015
#065341:0055350000552500
#065321:0000005535000000
#066391:0000000000000015
#067371:0055350000000000
#067391:0000005525000000
#068321:0000000000000015
#069341:0055350000553500
#069321:0000005535000055
#070321:27
#062980:1454000000005454
#0629a0:0000005454000000
#0639a0:000000000000000000000000000000000000000000000000000000000000000000000000000000000000000000000000000000000000000000000000000000000000000000000000000000000000000000000000000000000000000000000000000000000000000000000000000000000000000000000000000000000000000000000000000000000000000000000000000000000000000000000000000000000000000000000000000000000000000000000000000000000000000000000000000000000000000000000000000000000000000000000000000000000000000000000000000000000000000000000000540000000000000000000000000000000000000000000000000000000000000000000000000000000000000000000000000000000000000000000000000000000000000000000000000000000000000000000000000000000000000000000000000000000000000000000000000000000000000000000000000000000000000000000000000000000000000000000000000000000000000000000000000000000000000000000000000000000000000000000000000000000000000000000000000000000000000000000000000000000000000000000000000000000000000000000000000000000000545454545454240000000000000000000000000000000000000000000000000000000000000000000000000000000000000000000000000000000000000000000000000000000000000000000000000000000000000000000000000000000000000000000000000000000000000000000000000000000000000000000000000000000000000000000000000000000000000000000000000000000000000000000000000000000000000000000000000000000000000000000000000000000000000000000000000000000000000000000000000000000000000000000000000000000000000000000000000000000000000000000000000000000000000000000000000000000000000000000000000000000000000000000000000000000000000000000000000000000000000000000000000000000000000000000000000000000000000000000000000000000000000000000000000000000000000000000000000000000000000000000000000000000000000000000000000000000000000000000000000000000000000000000000000000000000000000000000000000000000000000000000000000000000000000000000000000000000000000000000000000000000000000000000000000000000000000000000000000000000000000000000000000000000000000000000000000000000000000000000000000000000000000000000000000000000000000000000000000000000000000000000000000000000000000000000000000000000000000000000000000000000000000000000000000000000000000000000000000000000000000000000000000000000000000000000000000000000000000000000000000000000000000000000000000000000000000000000000000000000000000000000000000000000000000000000000000000000000000000000000000000000000000000000000000000000000000000000000000000000000000000000000000000000000000000000000000000000000000000000000000000000000000000000000000000000000000000000000000000000000000000000000000000000000000000000000000000000000000000000000000000000000000000000000000000000000000000000000000000000000000000000000000000000000000000000000000000000000000000000000000000000000000000000000000000000000000000000000000000000000000000000000000000000000000000000000000000000000000000000000000000000000000000000000000000000000000000000000000000000000000000000000000000000000000000000000000000000000000000000000000000000000000000000000000000000000000000000000000000000000000000000000000000000000000000000000000000000000000000000000000000000000000000000000000000000000000000000000000000000000000000000000000000000000000000000000000000000000000000000000000000000000000000000000000000000000000000000000000000000000000000000000000000000000000000000000000000000000000000000000000000000000000000000000000000000000000000000000000000000000000000000000000000000000000000000000000000000000000000000000000000000000000000000000000000000000000000000000000000000000000000000000000000000000000000000000000000000000000000000000000000000000000000000000000000000000000000000000000000000000000000000000000000000000000000000000000000000000000000000000000000000000000000000000000000000000000000000000000000000000000000000000000000000000000000000000000000000000000000000000000000000000000000000000000000000000000000000000000000000000000000000
#0719d0:000000000000000000000000000000000000000000000000000000000000000000000000000000000000000000000000000000000000000000000000000000000000000000000000000000000000000000000000000000000000000000000000000000000000000000000000000000000000000000000000000000000000000000000000000000000000000000000000000000000000000000000000000000000000000000000000000000000000000000000000000000000000000000000000000000000000000000000000000000000000000000000000000000000000000000000000000000000000000000000000000000000000000000000000000000000000000000000000000000000000000000000000000000000000000000000000000000000000000000000000000000000000000000000000000000000000000000000000000000000000000000000000000000000000000000000000000000000000000000000000000000000000000000000000000000000000000000000000000000000000000000000000000000000000000000000000000000000000000000000000000000000000000000000000000000000000000000000000000000000000000000000000000000000000000000000000000000000000000000000000000000000000000000000000000000000000000000000000000000000000000000000000000000000000000000000000000000000000000000000000000000000000000000000000000000000000000000000000000000000000000000000000000000000000000000000000000000000000000000000000000000000000000000000000000000000000000000000000000000000000000000000000000000000000000000000000000000000000000000000000000000000000000000000000000000000000000000000000000000000000000000000000000000000000000000000000000000000000000000000000000000000000000000000000000000000000000000000000000000000000000000000000000000000000000000000000000000000000000000000000000000000000000000000000000000000000000000000000000000000000000000000000000000000000000000000000000000000000000000000000000000000000000000000000000000000000000000000000000000000000000000000000000000000000000000000000000000000000000000000000000000000000000000000000000000000000000000000000000000000000000000000000000000000000000000000000000000000000000000000000000000000000000000000000000000000000000000000000000000000000000000000000000000000000000000000000000000000000000000000000000000000000000000000000000000000000000000000000000000000000000000000000000000000000000000000000000000000000000000000000000000000000000000000000000000000000000000000000000000000000000000000000000000000000000000000000000000000000000000000000000000000000000000000000000000000000000000000000000000000000000000000000000000000000000000000000000000000000000000000000000000000000000000000000000000000000000000000000000000000000000000000000000000000000000000000000000000000000000000000000000000000000000000000000000000000000000000000000000000000000000000000000000000000000000000000000000000000000000000000000000000000000000000000000000000000000000000000000000000000000000000000000000000000000000000000000000000000000000000000000000000000000000000000000000000000000000000000000000000000000000000000000000000000000000000000000000000000000000000000000112100000000000000000000000000000000000000000000000000000000000000000000000000000000000000000000000000000000000000000000000000000000000000000000000000000000000000000000000000000000000000000000000000000000000000000000000000000000000000000000000000000000000000000000000000000000000000000000000000000000000000000000000000000000000000000000000000000000000000000000000000000000000000000000000000000000000000000000000000000000000000000000000000000000000000000000000000000000000000000000000000000000000000000000000000000000000000000000000000000000000000000000000000000000000000000000000000000000000000000000000000000000000000000000000000000000000000000000000000000000000000000000000000000000000000000000000000000000000000000000000000000000000000000000000000000000000000000000000000000000000000000000000000000000000000000000000000000000000000000000000000000000000000000000000000000000000000000000000000000000000000000000000000000000000000000000000000000000000000000000
