This file was generated by Ched 2.7.0.0.
#TITLE ""
#ARTIST ""
#DESIGNER ""
#DIFFICULTY 0
#PLAYLEVEL
#SONGID ""
#WAVE ""
#WAVEOFFSET 0
#JACKET ""
#REQUEST "ticks_per_beat 480"
#00002: 4
#BPM01: 148
#00008: 01
#TIL00: ""
#VOLUME: ""
#HISPEED 00
#MEASUREHS 00
#00018:14
#00214:14
#04714:14
#04710:41
#0041a:14
#0061a:14
#00818:14
#00918:14
#01012:14
#01112:14
#00712:14
#00512:14
#0121a:14
#01210:41
#0131a:14
#01414:14
#01514:14
#02512:1616
#02618:16
#02612:0016
#02812:16
#02818:0016
#02912:16
#02918:0016
#03318:1616
#03412:16
#03418:0016
#03618:16
#03612:0016
#03610:41
#03718:16
#03712:0016
#04018:14
#04112:14
#0421a:14
#04314:14
#04418:14
#04518:14
#04614:14
#04912:14
#05114:14
#05018:14
#0481a:14
#0481f:11
#05718:16
#05712:0016
#05518:0016
#05512:26
#0551f:21
#05510:0041
#05818:16
#05812:0016
#05918:16
#05912:0016
#06212:1616
#06312:0016
#06318:26
#06512:16
#06518:0016
#06510:41
#06612:16
#06618:0016
#06712:16
#06718:0016
#0691a:14
#07012:14
#0711a:14
#07212:14
#02418:2626
#02410:41
#03212:2626
#06112:26
#06118:0026
#0163a0:14
#017380:24
#018320:14
#019340:24
#0203a0:14
#021380:24
#022320:14
#023340:24
#027380:1626
#030320:1626
#031380:1626
#035320:1626
#038380:1626
#039320:1626
#053380:1434
#054380:34342400
#056320:1626
#060380:1626
#064380:1626
#068320:1626
#073380:14
#074380:24
#075340:14
#076340:3400002400000000
