This file was generated by Ched 2.7.0.0.
#TITLE ""
#ARTIST ""
#DESIGNER ""
#DIFFICULTY 0
#PLAYLEVEL
#SONGID ""
#WAVE ""
#WAVEOFFSET 0
#JACKET ""
#REQUEST "ticks_per_beat 480"
#00002: 4
#BPM01: 171
#00008: 01
#TIL00: ""
#VOLUME: ""
#HISPEED 00
#MEASUREHS 00
#0111a:14
#01214:14
#01314:14
#01418:14
#01410:41
#01518:14
#01612:14
#01712:14
#0181a:14
#01914:14
#0201a:14
#02114:14
#02218:14
#02312:14
#02418:14
#02410:41
#02512:14
#02618:14
#02714:14
#0281a:14
#02912:14
#03018:14
#03114:14
#0321a:14
#03312:14
#03310:41
#04212:0016
#04218:26
#0421f:21
#04210:0041
#04412:16
#04418:0016
#04612:0016
#04618:26
#04812:16
#04818:0016
#04718:1616
#04912:1616
#05218:16
#05212:0016
#05518:1414
#05614:1414
#0571a:1414
#05812:14
#05818:0014
#05912:14
#05918:0014
#06014:14
#0601a:0014
#06114:14
#0611a:0014
#05412:2414
#05410:41
#0341f:11
#03418:0034
#0101a:24
#05018:26
#05112:26
#05318:26
#06212:24
#03518:34
#03612:0034
#03712:34
#0391a:34
#0381a:0034
#04114:34
#04014:0034
#00410:41
#000320:14
#001320:24
#002380:14
#003380:24
#004340:14
#005340:24
#0063a0:14
#0073a0:24
#008320:14
#009340:5424
#0343a0:14
#034380:0034
#035380:3424
#036340:14
#036320:0034
#037320:3424
#038380:14
#0383a0:0034
#0393a0:3424
#040320:14
#040340:0034
#041340:3424
#043380:1626
#045320:1626
#050380:1626
#051320:1626
#053380:1626
#062320:14
#063320:0034000000000000
#066340:24
