This file was generated by Ched 2.7.0.0.
#TITLE ""
#ARTIST ""
#DESIGNER ""
#DIFFICULTY 0
#PLAYLEVEL
#SONGID ""
#WAVE ""
#WAVEOFFSET 0
#JACKET ""
#REQUEST "ticks_per_beat 480"
#00002: 4
#BPM01: 171
#00008: 01
#TIL00: ""
#VOLUME: ""
#HISPEED 00
#MEASUREHS 00
#00018:14
#0001a:0014
#00118:14
#04214:0000000014000014
#04218:0000000000140000
#0421a:00140000
#04212:24
#0421f:21
#04210:0041
#0441a:14
#04418:0000000014000014
#04414:0000000000140000
#04412:00140000
#00212:14
#00218:0014
#04118:16
#00414:14
#00412:0014
#00410:41
#00514:14
#00314:14
#0031a:0014
#0061a:14
#00614:0014
#00718:14
#00712:0014
#0081a:14
#00818:0014
#01812:1414
#01818:00140000
#02018:00140000
#02012:1414
#02214:14
#02318:14
#02412:14
#02410:41
#0251a:14
#02618:00140000
#02614:24
#02718:14
#02714:00140000
#02812:14
#0281a:00140000
#0291a:14
#02912:00140000
#03014:14
#03018:00140000
#03012:0014
#0301a:00000014
#03114:14
#03118:00140000
#03112:0014
#0331a:0014
#03318:14
#03314:00140000
#03310:41
#03218:14
#03214:00140000
#0321a:0014
#03212:00000014
#03418:00140000
#03416:0014
#03414:00000014
#0341f:11
#0341a:24
#03412:24
#03514:00140000
#03516:0014
#03518:00000014
#03512:24
#03618:00140000
#03616:0014
#03614:00000014
#0361a:24
#03714:00140000
#03716:0014
#03718:00000014
#03712:24
#04614:0014
#04612:2400000000000014
#04618:0000000000140000
#0461a:00140000
#0481a:1400000000000014
#04818:0014
#04814:0000000000140000
#04812:00140000
#05012:14
#05015:0034340000000000
#0511a:14
#05117:0034340000000000
#05212:1616
#05218:00160016
#0541a:24140000
#05414:00002414
#05410:41
#05518:14140000
#05512:00001414
#0561a:14
#05618:0014
#05614:00140000
#05612:00000014
#05812:24140000
#05818:00002414
#05914:14140000
#0591a:00001414
#06012:14
#06014:0014
#06018:00140000
#0601a:00000014
#01012:24140000
#01018:00002414
#01114:14140000
#0111a:00001414
#01212:1414
#01218:00140014
#0141a:24140000
#01414:00002414
#01410:41
#01518:14140000
#01512:00001414
#0161a:1414
#01614:00140014
#0191a:1414
#01914:00140000
#0211a:1414
#02114:00140000
#03812:24
#0381a:00240000
#03817:0024
#03814:00000024
#04012:26000026
#04018:00260000
#04015:0026
#0621a:24
#03919:25
#03912:00250000
#03915:0025
#03918:00000025
#0091a:24
#05312:26
#04312:0034343400000000
#0451a:0034343400000000
#04714:0034343400000000
#04918:0034343400000000
#01314:00343400
#01718:00343400
#00058:64
#0005a:0064
#00158:64
#04052:16
#04254:0000000000000054
#04252:14
#0445a:14
#04458:0000000000000064
#03852:14
#03959:15
#04158:66
#04155:0016
#04652:1400000000000064
#00454:54
#00452:0054
#00554:54
#0085a:54
#00858:0054
#0095a:14
#02254:54
#02358:64
#02452:64
#0255a:54
#02558:0014
#0335a:0014
#04352:0014
#0455a:0014
#04754:0014
#0485a:1400000000000054
#04958:0014
#05052:64
#0515a:54
#03152:0014
#05352:16
#05252:1616
#05258:00160016
#000380:14
#0003a0:0034
#001380:34
#0013a0:0024
#004340:14
#004320:0034
#005340:34
#005320:0024
#0083a0:14
#008380:0034
#0093a0:24
#013320:14
#013340:00343424
#0173a0:14
#017380:00343424
#022340:14
#022320:00342400
#023380:14
#0233a0:00342400
#024320:14
#024340:00342400
#0253a0:14
#025380:00342400
#026340:00001424
#027380:00001424
#028320:00001424
#0293a0:00001424
#041380:16
#041350:0026
#042340:0000000000000014
#043320:0034343424000000
#044380:0000000000000014
#0453a0:0034343424000000
#046320:0000000000000014
#047340:0034343424000000
#0483a0:0000000000000014
#049380:0034343424000000
#050320:14
#050350:0034343400002400
#0513a0:14
#051370:0034343400002400
#0573a0:1434
#057380:00340024
#061320:1434
#061340:00340024
#0623a0:14
#0633a0:0034000000000000
#066380:23
