This file was generated by Ched 2.7.0.0.
#TITLE ""
#ARTIST ""
#DESIGNER ""
#DIFFICULTY 0
#PLAYLEVEL
#SONGID ""
#WAVE ""
#WAVEOFFSET 0
#JACKET ""
#REQUEST "ticks_per_beat 480"
#00002: 4
#BPM01: 128
#00008: 01
#TIL00: ""
#VOLUME: ""
#HISPEED 00
#MEASUREHS 00
#0091a:14
#01014:14
#01114:14
#01218:14
#01318:14
#01412:14
#01410:41
#01512:14
#01618:14
#0161f:11
#01814:14
#0201a:14
#02212:14
#02412:0016
#02418:26
#0241f:21
#02410:00410000
#02612:16
#02618:0016
#02818:1616
#02912:1616
#03018:16
#03012:0016
#03218:0016
#03212:26
#03312:1616
#03418:16
#03412:0016
#03410:41
#03518:1616
#03618:0016
#03612:26
#03712:16
#03718:0016
#03812:16
#03813:0016
#04018:14
#04014:0014
#04010:41
#04118:14
#04114:0014
#04217:0016
#04218:26
#04414:14
#04418:0014
#04514:14
#04518:0000000000000016
#0081a:24
#00810:41
#00210:41
#01658:54
#01854:64
#0205a:64
#02252:54
#03852:56
#03853:0026
#04257:0026
#04258:56
#04558:0000000000000056
#0003a0:14
#0013a0:24
#002340:14
#003340:24
#004380:14
#005380:24
#006320:14
#007320:24
#016380:14
#0173a0:24
#018340:14
#019320:24
#0203a0:14
#021380:24
#022320:14
#023340:24
#025380:1626
#027320:1626
#031380:1626
#038320:16
#038330:0056
#039320:26
#042380:16
#042370:0056
#043380:26
#045380:0000000016000036
#049390:24
