This file was generated by Ched 2.7.0.0.
#TITLE ""
#ARTIST ""
#DESIGNER ""
#DIFFICULTY 0
#PLAYLEVEL
#SONGID ""
#WAVE ""
#WAVEOFFSET 0
#JACKET ""
#REQUEST "ticks_per_beat 480"
#00002: 4
#BPM01: 128
#00008: 01
#TIL00: ""
#VOLUME: ""
#HISPEED 00
#MEASUREHS 00
#00815:00001300000000000000001300000000
#00818:00131300
#00812:0000001300000013
#0081b:13000000000000000000331300000000
#00810:41
#00918:13000013
#0091b:00003313000000000000000000001300
#00912:13000013
#00915:00003313000000000000000000000000
#01015:13131300
#01018:00000000000013000000001300000000
#01012:00000000000000000000001300000000
#0101b:0000000000000013
#01115:13000013
#01112:00000013000000000000000000001300
#0111b:13000013
#01118:00000013000000000000000000000000
#01218:13131300
#01215:0000001300000013
#0121b:00000000000000000000331300000000
#01212:00000000000000000000001300000000
#01318:13
#01315:13
#0131b:00000013000000000000000023000000
#01312:00000013000000000000000000002300
#01419:00000013
#0141a:00000000000000000014000000000000
#01414:00000013
#01412:00000000000000000014000000000000
#01415:0000001300000000
#01418:0023002300000000
#0141b:00230000
#01410:41
#01512:0013
#01515:0000000000130000
#01518:00000013
#01616:2300130000131300
#0161f:11
#01614:00000000000000000000000000000000005300000000000000000000000000000000000000000000000000000000000000530000000000000000000000000000
#01714:0000130000131300
#01719:33
#01712:00000000000000000000000000000000005300000000000000000000000000000000000000000000000000000000000000530000000000000000000000000000
#01817:0000130000131300
#01819:00000000000000000000000000000000005300000000000000000000000000000000000000000000000000000000000000530000000000000000000000000000
#01919:0000130000131300
#01914:33
#0191b:00000000000000000000000000000000005300000000000000000000000000000000000000000000000000000000000000530000000000000000000000000000
#02018:1300000013000013
#02015:0000130000000013
#0201b:00000000000000000000331300000000
#0211b:0013
#02115:00000000000000000000001300001300
#02118:0000000000001313
#02112:0013
#02214:0000001300140000
#02213:00130014
#02212:0000000000000014
#02215:0013
#0221a:0000230000000024
#02219:0000002300002400
#02218:0000000023240000
#02416:1424000014240000
#02412:2400002400000024
#02414:00240024
#0241a:0000242400002424
#0241f:21
#02410:00410000
#02516:1424000014000000
#02518:0000000000140000
#02512:0000000000001414
#0271a:0000000000000014
#02716:1414000000000000
#02816:00140000000000000000000000000000
#02812:00130014
#02814:0013
#02817:0000001300000000
#02819:0000000000130000
#02916:14
#02918:00130000
#02915:0000001300000000
#0291b:0013
#02912:0000000013001313
#02917:0000000000000013
#03012:0000001313000013
#03017:0000001323000000
#0301b:00000013
#03115:0000000013130000
#03118:00000000000000000013000000000000
#03112:0000000000001424
#0311a:00000014
#03117:0000000000000024
#03312:00001414
#03316:0000000000140000
#0331a:0024000000001414
#03315:0000000000000014
#03516:15
#03512:000000000000160000000000000000000000000000000000000000000000006400000000000000000000006400000000
#03518:0026000014002400
#03514:0000000000240024
#03513:000000000000000000000000000000000000000000000000000000000000000000000000000000000000000000000000000000000000000000000000006400000000000000000000000000000000000000000000006400000000000000000000
#03519:000000000000000000000000000000000000000000000000000000000000000000000000000000000000000000000000000000000000000000000000000000000000000000000000006400000000000000000000000000000000000000000000
#0351a:000000000000000000000000000000000000000000000000000000000000000000000000006400000000000000000000
#03615:00000000000013000000001300001300
#03618:2600000000001313
#0361b:0013
#03612:0013
#03718:00000000000000000000001300000000
#03716:0000002424000014
#03713:00000000000000000000001400000000
#0371b:0000002323000013
#03719:00000033
#03714:00000034
#03817:14
#03819:0014000000000000
#03816:0000000000140000
#03812:0000001400000000
#03813:00000000000000340000000000003400
#03814:0034
#03912:14
#03916:0000001400000000
#04018:0000140000000013
#04015:00000000000000000000000000000013
#04019:0000000000140000
#04012:25
#04013:0000002500000000
#04014:00000025
#04010:41
#04115:00002500000000000000001300000000
#04112:0000002323000013
#04119:00000000000000000000001400000000
#04116:0000002424000014
#0411a:14
#04114:00000033
#04118:00000034
#04212:0000000000140000
#04216:0000140000140000
#04214:00000000000000140000000000000000
#0421a:0000001400000000
#04219:00000000000000340000000000003400
#04218:0034
#04312:0000001400000000
#04316:1400001400000000
#0431a:14
#04414:00140024
#04413:0000000000140000
#0441a:24
#04415:0000002400000000
#04419:0000002400000000
#04418:00000024
#04512:14000025
#0451a:0000001400000000
#04518:0024000024000000
#04514:0000240024000025
#04519:0000000000000025
#04517:00000025
#03412:00140000000000000000000014000000
#03417:0014
#03415:0000001400140000
#0341a:0000001400000014
#03416:0014000000000000
#03418:00140000
#03414:0000000000000025
#03410:41
#04616:00140000
#04714:0014000000000000
#00018:0000001300000033
#0001b:2300000000130000
#00012:2300001300000013
#00015:0000000000130000
#00116:0000001300000000
#00117:13
#0011b:0000001300000000
#00112:13
#0041a:0000001300000033
#00417:0000000000130000
#00412:00000013140000000000001314000000
#0041b:13
#0031b:13
#00317:0000001300000000
#00316:13
#00312:0000001300000000
#0021b:0000001300000013
#00218:0000000000130000
#00215:0000001300000033
#00212:0000000000130000
#00210:41
#0051b:13
#00517:0000001300000000
#00512:00000013140000000000001314000000
#02312:12000014
#0231c:12
#0231a:0000000000001424
#00613:0000001300000033
#00616:0000000000130000
#0061b:00000013000000000000001300006300
#0061a:00140014
#00712:13
#00716:0000001300000000
#00718:00000013
#00715:0000000000000013
#02612:0000141400001414
#02612:00000014
#0261a:0000001400000014
#02618:00140014
#02616:1414000014140000
#03216:0024000000240000
#03214:00240024
#03212:0000002400000024
#03217:0000002400000024
#0321a:00240000000000000024000000000000
#04812:64
#00858:0063
#0085b:13000000000000000000006300000000
#00958:63
#0095b:00000063000000000000000000000000
#00952:63
#00955:00000063000000000000000000000000
#01055:0053
#01052:00000000000000000000005300000000
#01155:53
#01152:00000053000000000000000000000000
#0115b:53
#01158:00000053000000000000000000000000
#01258:0063
#0125b:00000000000000000000006300000000
#01358:63
#01355:53
#0135b:00000063000000000000000000000000
#01352:00000053000000000000000000000000
#01558:00130000
#01555:00130000
#0145a:00000000000000000024000000000000
#01459:00000053
#01458:0000005300000000
#01454:00000063
#01452:00000000000000000024000000000000
#01455:0000006300000000
#02055:1300630000000063
#0205b:00000000130000000000002300000000
#02052:0013
#02058:5300000053000053
#02152:0013000000000000
#0215b:0013000000000000
#02158:0000000000000053
#02155:0000000000000063
#02352:2215000000000000
#02359:0015000000000000
#0235c:22
#0235a:0000000000000054
#02252:0000000000000054
#0225a:0000000000000054
#02452:14
#02456:2424
#0245a:0000005400000054
#02556:2454000000000000
#0255a:0044000000000014
#02552:0000000000000064
#02752:0034000000000013
#0275a:0000000000000054
#02756:2464000000000000
#02856:00240000000000000000000000000000
#02852:00630064
#0285b:00000013
#02854:0063
#02857:0000006300000000
#02859:0000000000630000
#02956:24
#0295b:0053
#02952:0000000000000063
#02957:0000000000000063
#03056:0013000000000000
#0305b:0013000000002300
#03052:0000000063000063
#03057:0063
#03156:0013000000000000
#0315a:0000001400000000
#03152:0000000000000064
#03157:0000000000000014
#03556:25
#03558:0046000000000000
#03552:0056000000000000
#03658:1600000000000053
#03655:0000000000000053
#0365b:0023
#04852:64
#04554:0000140014000065
#04558:0014000014000000
#04559:0000000000000045
#04552:00000035
#03752:0013000000000000
#0375b:0013000063000063
#03756:0000000064000064
#03758:00000000000000000000002300000000
#03753:00000000000000000000002400000000
#03857:24
#03859:0064000000000000
#03856:0000000000240000
#03852:0014006400000000
#03952:54
#03956:0000005400000000
#04155:00001500000000000000002300000000
#04152:0000000053000053
#04159:00000000000000000000002400000000
#04156:0000000064000054
#04252:0000000000240000
#04256:0000240000240000
#0425a:0014005400000000
#04254:00000000000000540000000000000000
#04352:0000006400000000
#04356:6400006400000000
#0435a:64
#04456:14
#0445a:14
#04458:00000014
#04454:00000014
#04455:0000001400000000
#04459:0000001400000000
#03452:00000024
#03459:0000000000440000
#03457:0024
#03454:0000000000000045
#03455:0000001400640000
#0345a:0000006400000064
#03355:0000000000000014
#03356:0014000000000000
#0335a:0064000000000064
#03252:0000006400000064
#03257:0000001400000014
#04052:15
#04053:0000001500000000
#04054:00000015
#0405a:14
#04656:00240000
#04754:0064000000000000
#00058:0000005300000000
#0005b:0000000000230000
#00156:0000005300000000
#00157:53
#0015b:0000005300000000
#00152:53
#0045a:0000006300000000
#00457:0000000000230000
#00452:00000023540000000000002354000000
#0045b:13
#0035b:63
#00357:0000006300000000
#00356:63
#00352:0000006300000000
#0055b:63
#00557:0000006300000000
#00552:00000023540000000000002354000000
#00255:0000006300000000
#00252:0000000000230000
#00653:0000005300000000
#00656:0000000000230000
#0065b:00000023000000000000002300000000
#0065a:00640064
#00652:13
#00752:53
#00756:0000005300000000
#02652:0000006400000064
#02656:2424
#000380:0000001300000033
#0003b0:0000000000330000
#001370:33
#0013b0:0000003300000000
#002370:23
#001321:13
#001361:0000003300000000
#002321:23
#002351:0000001300000033
#002321:0000000000330000
#003361:33000023
#003321:0000003300000000
#0033b0:13000023
#003370:0000003300000000
#004320:13000053345300000000005334530000
#005320:00000053345300000000005334530000
#006320:23
#0043a1:0000001300000033
#004371:0000000000330000
#0053b1:33000023
#005371:0000003300000000
#0063b1:13000053005300000000005300532300
#0063a1:00340034
#006330:0000001300000033
#006360:0000000000330000
#007320:33000023
#007360:0000003300000000
#008380:0000000013000033
#0083b0:00000000000000000000333300000000
#009380:3323
#0093b0:00003333000000000000000000000000
#009321:1323
#009351:00003333000000000000000000000000
#010381:00130000230000000000000000000000
#010351:0000000013000033
#010321:00000000000000000000003300000000
#011351:3323
#011321:00000033000000000000000000000000
#0113b0:1323
#011380:00000033000000000000000000000000
#012350:00130000230000000000000000000000
#012380:0000000013000033
#0123b0:00000000000000000000333300000000
#013380:3323
#0133b0:00000033000000000000000000000000
#013351:1323
#013321:00000033000000000000000000000000
#013321:0000000000000013
#014351:0033003300000033
#014321:00000000000000000054000000000000
#014341:00000033
#015351:00230000
#014380:0000001300000033
#0143a0:00000000000000000054000000000000
#014390:00000033
#015380:00230000
#0153b0:0000000000000013
#0163b0:0000000000000000000000000000000000000000000000000000000000000053
#017390:33
#017380:0053000000000000000000000000000000000000000000000000000000000000
#018380:23
#018321:1300000000000000000000000000000000000000000000000000000000000053
#019341:33
#019351:0053000000000000000000000000000000000000000000000000000000000000
#020351:23
#020380:13
#0203b0:00230000
#020351:00130000
#020321:0023
#020380:0000000013000033
#0203b0:00000000000000000000333300000000
#0213b0:0023000000000000
#020351:0000000000000013
#021321:0023000000000000
#021351:0000000000000013
#022321:0023000000000000
#021380:0000000000000013
#0223b0:0023000000000000
#022320:0000000000000014
#023320:5225000000000000
#0223a1:0000000000000014
#0233c1:52
#023391:0025000000000000
#0233a1:0000000000000014
#024361:54
#0243a1:0024000000000000
#0243a1:0000001400240000
#024361:0054
#0243a1:0000000000000014
#025361:54
#0253a1:0024000000000000
#025360:0014000000000000
#025320:0023
#0253a0:0000000000001424
#025321:0000000000000014
#026361:54
#026321:0024000000000000
#026321:0000001400240000
#026361:0054
#026321:0000000000000014
#027361:54
#027321:0024000000000000
#027360:0014000000000000
#0273b0:0023
#027351:0000000013230000
#027380:0000000000132300
#027321:0000000000001323
#0273a0:0000000000000014
#028360:00540000000000000000000000000000
#0283a0:00240000
#028321:00130000
#028341:0000002300000000
#028370:0000001300000000
#028390:0023
#028341:0013
#028361:0000000000230000
#028390:0000000000130000
#0283b0:00000023
#028321:00000014
#029361:54
#029321:00240000
#0293b1:0013
#029371:00000023
#029321:0000000000000013
#030361:0023000000000000
#029370:0000000000000013
#0303b0:0023000000000000
#030320:0013
#030360:00000023
#030371:0013
#0303b1:00000053
#0313a1:0000002400000000
#030320:0000000000000013
#031360:0023000000000000
#031321:0000000000000014
#032361:00240000000000000000000000000000
#032321:0000001400000000
#032361:00000000000000000024000000000000
#032321:0000000000000014
#033361:0024000000000000
#0333a0:0014000000000000
#033360:0024
#0333a0:0000000000000014
#034360:00240000000000000000000000000000
#0343a0:0000001400000000
#034370:0054
#034390:0000000000240000
#034351:0000000000140000
#034321:00000054
#034341:0000000000000025
#0343a0:0000000000000014
#035360:55
#035380:0026000000000000
#035321:0016000023000000
#0363b1:0013
#036381:00000000000000000000002300000000
#036351:0000000000000013
#037321:0023000000000000
#036380:0000000000000013
#0373b0:0023000000000000
#0373b0:0000000013000033
#037380:00000000000000000000005300000000
#037390:00000033
#038370:54
#038390:0034000000000000
#0383a0:00000054000000000000000000000000
#0403a0:24
#037361:0000000014000034
#037331:00000000000000000000005400000000
#037341:00000034
#038321:5424000000000000
#038321:0000001400000000
#038331:00000000000000340000000000003400
#038341:0034
#038361:0000000000340000
#039321:34
#039361:0000003400000000
#040321:25
#041321:0000000013000033
#041351:00000000000000000000005300000000
#041341:00000033
#042361:00540000
#042341:00000000000000540000000000000000
#042321:0000000000540000
#043361:34
#043321:0000003400000000
#044361:24
#041360:0000000014000034
#041390:00000000000000000000005400000000
#041380:00000034
#0423a0:0024000000000000
#0423a0:0000001400000000
#042390:00000000000000340000000000003400
#042380:0034
#042360:0000000000340000
#0433a0:34
#043360:0000003400000000
#0443a0:24
#045340:0000000000000015
#046360:00540000
#047340:0054000000000000
#048320:24
#016960:00130000
#016940:00000000000000000000000000000000002300000000000000000000000000000000000000000000000000000000000000000000000000000000000000000000
#016960:00000013
#016940:00000000000000000000000000000000000000000000000000000000000000000000000000000000000000000000000000230000000000000000000000000000
#017940:00130000
#017920:00000000000000000000000000000000002300000000000000000000000000000000000000000000000000000000000000000000000000000000000000000000
#017940:00000013
#017920:00000000000000000000000000000000000000000000000000000000000000000000000000000000000000000000000000230000000000000000000000000000
#018970:00130000
#018990:00000000000000000000000000000000002300000000000000000000000000000000000000000000000000000000000000000000000000000000000000000000
#018970:00000013
#018990:00000000000000000000000000000000000000000000000000000000000000000000000000000000000000000000000000230000000000000000000000000000
#019990:00130000
#0199b0:00000000000000000000000000000000002300000000000000000000000000000000000000000000000000000000000000000000000000000000000000000000
#019990:00000013
#0199b0:00000000000000000000000000000000000000000000000000000000000000000000000000000000000000000000000000230000000000000000000000000000
#035940:0000000000140000
#035920:000000000000000000000000000000000000000000000000000000000000002400000000000000000000000000000000
#035980:00000014
#0359a0:000000000000000000000000000000000000000000000000000000000000000000000000002400000000000000000000
#035940:0000000000000014
#035920:000000000000000000000000000000000000000000000000000000000000000000000000000000000000002400000000
#048920:14
#049920:22
