This file was generated by Ched 2.7.0.0.
#TITLE ""
#ARTIST ""
#DESIGNER ""
#DIFFICULTY 0
#PLAYLEVEL
#SONGID ""
#WAVE ""
#WAVEOFFSET 0
#JACKET ""
#REQUEST "ticks_per_beat 480"
#00002: 4
#BPM01: 128
#00008: 01
#TIL00: ""
#VOLUME: ""
#HISPEED 00
#MEASUREHS 00
#03812:14
#04615:00000000000000000000000000000016
#02518:0014
#02512:00140014
#0251a:24
#0281a:1414
#02814:00140000
#03018:0000000000000014
#0301a:1414
#03014:00140000
#04212:14
#0421a:24
#0001a:14
#0041a:14
#00412:00000014
#00512:14
#0051a:00000014
#0061a:14
#00612:00000014
#00112:14
#0021a:14
#00210:41
#00312:14
#00712:1414
#00714:00140014
#00818:0014
#00810:41
#00912:14
#00918:0014
#01014:14
#0101a:0014
#01114:14
#0111a:0014
#01212:14
#01218:0014
#01314:14
#0141a:14
#01414:0014
#01410:41
#01518:14
#01612:14
#01618:00140014
#0161f:11
#01712:14
#01718:00140014
#0181a:14
#01814:00140014
#0191a:14
#01914:00140014
#02414:00140014
#02418:0014
#0241a:24
#0241f:21
#02410:00410000
#02614:00140014
#02618:0014
#0261a:24
#02712:00140014
#02718:0014
#0271a:24
#02912:1414
#02918:00140000
#03314:0014
#0331a:00140014
#03312:24
#03218:00140014
#03214:0014
#03212:24
#03418:00140014
#03414:0014
#03412:24
#03410:41
#0351a:00140014
#03514:0014
#03512:24
#03618:00140000
#03614:0014
#0361a:00000014
#03612:24
#03712:14
#03718:00140000
#03714:0014
#0371a:00000014
#0391a:14
#03914:0014
#03918:00000014
#04012:14
#0401a:0014
#04010:41
#04112:14
#04118:0014
#04114:00000014
#04114:00000014
#04412:14
#0441a:0014
#04512:14000026
#0451a:0014
#04518:0000000000000026
#0221a:14
#02216:00140000
#03112:0014
#03118:00000014
#04819:15
#0491b:63
#04558:0000000000000056
#03852:54
#04655:00000000000000000000000000000026
#0245a:14
#0285a:1454
#03058:0000000000000054
#0305a:0054
#0315a:0014000000000000
#0425a:64
#04252:54
#04354:0014
#04358:0014
#0005a:54
#0045a:54
#00552:64
#0065a:54
#00152:64
#0025a:54
#00352:64
#00752:6464
#00754:00640064
#00852:14
#01354:54
#01558:64
#02252:0000000000000014
#02952:0064
#03252:14
#03652:14
#04859:55
#0003a0:14
#000380:0024
#001320:14
#001340:0024
#0023a0:14
#002380:0024
#003320:14
#003340:0024
#0043a0:14
#004380:0024
#005320:14
#005340:0024
#0063a0:14
#006380:0024
#007320:1454
#007340:00540054
#008320:24
#013340:14
#013320:0024
#015380:14
#0153a0:0024
#0203a0:14240000
#020340:00001424
#021380:14240000
#021320:00001424
#022320:0000000014343424
#0283a0:0014
#028380:00000024
#029320:0014
#029340:00000024
#0303a0:0014
#030380:0000000000003434
#0313a0:0024000000000000
#038320:14
#038340:00000024
#042320:14
#043340:0024
#0423a1:14
#043381:0024
#045381:0000000000000016
#046351:00000000000000000000000000000056
#048391:35
#0493b1:23
