This file was generated by Ched 2.7.0.0.
#TITLE ""
#ARTIST ""
#DESIGNER ""
#DIFFICULTY 0
#PLAYLEVEL
#SONGID ""
#WAVE ""
#WAVEOFFSET 0
#JACKET ""
#REQUEST "ticks_per_beat 480"
#00002: 4
#BPM01: 115
#00008: 01
#TIL00: ""
#VOLUME: ""
#HISPEED 00
#MEASUREHS 00
#0401a:14
#04012:0014
#00418:14
#00410:41
#00714:14
#00718:0014
#02412:0016
#02418:26
#0241f:21
#00514:14
#00618:14
#0101a:14
#01010:41
#00812:14
#00912:14
#0111a:14
#01418:14
#01214:14
#01314:14
#01518:14
#01514:0014
#01510:41
#01814:14
#01818:0014
#01914:14
#01918:0014
#02314:14
#02218:14
#02612:1616
#02718:1616
#02818:0016
#02812:26
#03018:1616
#03112:1616
#03818:14
#03914:2414
#03910:41
#04212:14
#0421a:0014
#04118:2414
#04312:14
#0161f:11
#02510:41
#03210:41
#0003a0:14
#0013a0:24
#002320:14
#003320:24
#016380:14
#0163a0:0034
#0173a0:34
#017380:0024
#020340:14
#020320:0034
#021320:34
#021340:0024
#025380:1626
#029320:1626
#032380:14000024
#033340:0014
#034340:00240000
#0353a0:14000024
#036320:0014
#037320:00240000
