This file was generated by Ched 2.7.0.0.
#TITLE ""
#ARTIST ""
#DESIGNER ""
#DIFFICULTY 0
#PLAYLEVEL
#SONGID ""
#WAVE ""
#WAVEOFFSET 0
#JACKET ""
#REQUEST "ticks_per_beat 480"
#00002: 4
#BPM01: 115
#00008: 01
#TIL00: ""
#VOLUME: ""
#HISPEED 00
#MEASUREHS 00
#0161f:11
#01612:13000000000000000000000000130013
#01618:00000000001300000000000013001300
#0161b:0013000013000000
#0001b:13001300000000000013000013000000
#00015:00000013000000000000000000000000
#00012:00000000000000000000000000000013
#00018:0000001300000000
#00218:00000013000000000000000000000000
#00212:13001300000000000013000013000000
#0021b:00000000000000000000000000000013
#00215:0000001300000000
#0231c:12
#02312:12
#02314:000000000000646464646464640000000000000000000000
#02318:000000000000646464646464640000000000000000000000
#02214:12
#0221a:12
#0421a:001400000000
#04216:001400000000000000000000
#04212:140000000000000000000000260000000000000000000000006500000000000000000000260066006600660066006600
#04215:000026262600
#04218:000000000026002600000000
#04213:000000000000000000000000000000000000000000000000000000000000000000000000000000000000000000000000006600000000000000000000000000000000000000000000000066000000660000006600000066000000660000006600
#0411a:001400000014000000000000
#04116:001414000000
#04112:26140000
#04118:66
#04012:000014000026002600000000
#04016:001400000000000000000000
#0401a:14
#04018:000000000000260000000000000000000000266666666666
#04015:000026262600
#04017:000000000000000000000000000000000000000000000000000000000000000000000000000000000000000000000000006600000000000000000000000000000000000000000000000066000000660000006600000066000000660000006600
#04019:000000000000000000000000000000000000000000000000006500000000000000000000000000000000000000000000
#03912:001400000014000000000000
#03916:001414000000
#0391a:00140000
#03918:26
#03910:41
#0371c:0000120000120000
#0371a:000000000000000000000012000000000000000000000000
#03716:1414000000002400
#03714:00240000
#03612:0000000012000012
#03614:000000000000000000000000000000000012000000000000
#03616:0000141400000000
#0361a:0012000000000000
#03618:0024
#0351a:24000012
#0351c:000000000000000000000000000000000000000000000012
#03516:0000000014140000
#03514:0000001200000000
#03512:000000000012000000000000000000000000240000000000
#0341c:0000120000120000
#03418:0014000000000000
#03414:14240000
#03312:0000000012000012
#03314:0000001400000000
#03318:00142400
#0331c:0012000000000000
#0321c:00000012
#03218:0000000000140000
#03214:0014
#03212:0000001200002400
#0321a:24
#03210:41
#03018:00001300000000000014000000001300
#03012:1400001300000000
#03015:00001313
#0301a:0000001400000000
#03014:00000014000000000000000000000000
#02717:0000000000130000
#02716:0013000000001400
#02712:1323
#0271b:1323
#02718:00230000
#02715:0000002300000000
#02918:00000000000000130000000013001300
#02912:00130000000000001300000013000000
#02915:0000001300000000
#02914:00000013000000000000000000000000
#02919:0013000000000000
#02917:13
#02815:0000000000000013
#0281b:00001313
#02817:00000013000000000000000000000000
#02816:00000000000000000013000000000000
#02812:0013002400000000
#0281a:24
#02618:13000014000000000000000000001300
#02615:00000013
#02614:0013001400000000
#02612:14
#0261a:00000000000013000014000000000000
#02616:0013
#02515:0000000000000013
#02516:1414141400000000
#02512:13
#02518:00000013
#0251b:0013
#02510:41
#02415:1300000000000013
#02412:00000000000000000014000000000000
#02417:0013
#02413:0000001300000000
#02414:00000014000000000000000000000000
#02419:0013000000000000
#02418:0000002400001300
#0241f:21
#0241a:24
#02118:0013000013000012
#0211b:00000000001300000000000000000000
#02116:00000012
#02115:13
#02015:00000000001300000000000013001300
#0201b:13000000000000000000001300130013
#02012:0013000013000000
#01915:00000000000000000000000000130013
#0191b:0000000000001313
#01912:00130000000000001300000000000000
#01917:0013000000000000
#01919:00130000
#01916:00000000001300000000000000000000
#01914:00000013000000000000000000000000
#01718:13000013
#01712:00000000001300000000000000000000
#01715:0013000013000013
#0181b:0013
#01816:0013
#01812:1300000000000013
#01817:13
#01418:0000000000000013
#0141b:0013
#01412:14141414
#01312:0013000000001300
#01315:0013
#01313:00130000
#01314:0000001300000000
#0131a:14141414
#01115:0000000013000013
#0111a:14141414
#01212:14141414
#0121b:13130000
#01218:0000000000130000
#01217:00000013
#0121a:0000001300000000
#01219:0013
#01216:0000000000000013
#0101b:0013
#01012:14141414
#01015:0000000000000013
#01010:41
#00912:0013
#00913:0000001300000000
#00915:0013000000000000
#00914:00130000
#0091a:14141414
#00916:00000013
#00812:14141414
#0081b:13000013
#00817:00130000
#0081a:0000000000130000
#00818:0000001300000000
#00819:0013
#00816:0000000000000013
#00618:00130000000000000000130000000013
#00612:13240000
#00615:00001300000013000013000000000000
#0061a:00000024
#00516:00000016
#00515:0013000000130000
#00518:00130000000000000013000000000000
#0051b:0000001300000000
#00512:00000024
#0051a:00240000
#00415:00130000000000000000130000000000
#0041b:13
#00418:00001300000013000013000000000000
#00412:00000024
#0041a:00240000
#00410:41
#00318:00000026000000001300130000000000
#00315:26000000000000000013000000000000
#0031a:00000024
#00312:0000002600002400
#00112:00130000
#0011b:00000000001300000000000000000000
#00115:00130000000000000000000000001300
#00118:1313000000000000
#00718:0000000026000013
#00716:0000000000140000
#00712:26000026
#00715:00260000
#01518:00000000260000000000260000130013
#01512:2600000026001313
#01510:41
#04318:26
#04312:66
#04317:00820000
#03815:000000000000000000266666000000000000000000000000
#03816:00240000
#03812:0000000000000000000000006c6c6c6c6c6c5c0000000000
#03814:000000000000000000000000000000000000006800680068006800680068006800680068000000000000000000000000
#0311a:0024002400000000
#03112:24240000
#03856:0014140000000000
#03852:0000001c
#03754:0000000000140000
#03658:0000000000000014
#03652:0014000000000000
#03454:0000000000140000
#0355a:0000001400000000
#03358:0000000000000014
#03352:0014000000000000
#0325a:0000001400000000
#02552:0013
#02556:5464546400000000
#0255b:0013
#0195b:0013
#01952:0013
#01857:53000000000000000000001300000000
#01852:53000000000000000000001300000000
#01856:00136300
#0185b:00136300
#04358:66
#04152:16
#02852:0000003400000000
#0285a:44
#02855:0000000000000063
#0285b:00000063
#02857:00000053000000000000000000000000
#02856:00000000000000000063000000000000
#0275b:1363
#02752:5313
#02757:0000000000230000
#02756:0023000000006400
#02458:0000004400000000
#0245a:44
#01558:0000460000460000
#01552:3636
#0035a:00000014
#00352:00000014
#00752:00000016
#0315a:0044004400000000
#03152:34340000
#03958:16
#0005b:00000063
#00055:00000063000000000000000000000000
#00258:00000053000000000000000000000000
#00252:00000053
#0235c:62
#02352:52
#02254:62
#0225a:52
#0305a:0000004400000000
#03052:34
#02958:0000000000000053
#02952:00001353
#02654:0000003400000000
#02652:34
#02158:0013
#02155:13
#02052:0013
#0205b:13
#01758:13
#01755:0013
#0145b:0063
#01155:0063
#0105b:0063
#01055:0000000000000063
#00556:00000056
#0165b:0013
#01652:13
#000320:13
#000350:0023000000000000
#000350:00000013000000000000000000000000
#000320:0000002300000000
#000320:00000000000000130000000000000000
#000350:00000000000000000023000000000000
#000350:0000000000132300
#0003b1:00000013
#000381:00000000000000000000000000000023
#001351:0000000000000000000000000000000013535353535323000000000000000000
#001341:00000000000000000000000000000000000000000000000000000000000000000053005300530053005300530000000000000000000000000000000000000000
#001380:0000000000000000000000000000000000000000000013535353535323000000
#001390:00000000000000000000000000000000000000000000000000000000000000000000000000000000000000000053005300530053005300530000000000000000
#0023b0:13
#002380:0023000000000000
#002380:00000013000000000000000000000000
#0023b0:0000002300000000
#0023b0:00000000000000130000000000000000
#002380:00000000000000000023000000000000
#002380:0000000000132300
#002321:00000013
#002351:00000000000000000000000000000023
#004321:0000000000001353535353532300000000000000000000000000000000000000
#004331:00000000000000000000000000530053005300530053005300000000000000000000000000000000000000000000000000000000000000000000000000000000
#004351:0000000000000000000000000000135353532300000000000000000000000000
#004341:00000000000000000000000000000000000000000000000000000000005300530053005300000000000000000000000000000000000000000000000000000000
#0043b1:0000000000000000000000000000000000000000000000001353535353532300
#0043a1:00000000000000000000000000000000000000000000000000000000000000000000000000000000000000000000000000530053005300530053005300000000
#004350:0000000000000000000000000000000000000000000000000000000000001353
#004340:00000000000000000000000000000000000000000000000000000000000000000000000000000000000000000000000000000000000000000000000000530053
#005350:5353230000000000000000000000000000000000000000000000000000000000
#005340:00530053000000000000000000000000000000000000000000000000000000000000000000000000000000000000000000000000000000000000000000000000
#005320:0000000000000000135353532300000000000000000000000000000000000000
#005330:00000000000000000000000000000000005300530053005300000000000000000000000000000000000000000000000000000000000000000000000000000000
#005350:0000000000000000000000000000135353532300000000000000000000000000
#005340:00000000000000000000000000000000000000000000000000000000005300530053005300000000000000000000000000000000000000000000000000000000
#005360:00000016
#0063b0:23
#0063b0:0000000000001353535353532300000000000000000000000000000000000000
#0063a0:00000000000000000000000000530053005300530053005300000000000000000000000000000000000000000000000000000000000000000000000000000000
#006380:0000000000000000000000000000135353532300000000000000000000000000
#006390:00000000000000000000000000000000000000000000000000000000005300530053005300000000000000000000000000000000000000000000000000000000
#006320:0000000000000000000000000000000000000000000000001353535353532300
#006330:00000000000000000000000000000000000000000000000000000000000000000000000000000000000000000000000000530053005300530053005300000000
#010390:1300003300000000
#010380:0033000000002300
#0103a0:00330000
#0103b0:0033
#010350:0000000000000013
#011320:0033000000002300
#011340:00330000
#011330:0000003300000000
#011350:0033
#0143b0:13333300
#014380:0033003300002300
#016350:00000013002300000000000000000000
#016320:0000001323000000
#0173b0:00000013002300000000000000000000
#017380:0000001323000000
#018320:13
#018360:00230000
#018371:13
#0183b1:00230000
#0183b1:0013
#018371:00000000000000000000002300000000
#018360:0013
#018320:00000000000000000000002300000000
#018370:00000000000000000000000000000013
#019370:00230000000000000000000000000000
#0193b0:0000001323000000
#020380:00000013002300000000000000000000
#0203b0:0000001323000000
#021320:00000013002300000000000000000000
#021350:0000001323000000
#022340:12
#022320:00000000320000003200003200003200
#023320:32
#023340:000000000000000000000000000000000000000000000000000000000000000000000000000000000000000000000000000000000000000000000000000000000000000000000000000000000000000000000000000000000000000000000000000000000000000000000000000000000000000000000000000000000000000000000000000000000000000000000000000000000000000000000000000000000000000000000000000000000000000000000000000000000000000000000000000000000000000000000000000000000000000000000000000000000000000000000000000000000000000000000000000000000000000000000000000000000000000000000000000000000000000000000000000000000000000000000000000000000000000000000000000000000000000000000000000000000000000000000000000000000000000000000000000000000000000000000000000000000000000000000000000000000000000000000000000000000000000000000000000000000000000000000000000000000000000000000000000000000000000000000000000000000000000000000000000000000000000000000000000000000000000000000000000000000000000000000000000000000000000000000054000000000000000000000000000000000000000000000000000000000000000000000000000000000000000000000000000000000000000000000000000000000000000000000000000000000000000000000000000000000000000000000000000000000000000000000000000000000000000000000000000000000000000000000000000000000000000000000000000000000000000000000000000000000000000000000000000000000000000000000000000000000000000000000000000000000000000000000000000000000000000000000000000000000000000000000000000000000000000000000000000000000000000000000000000000000000000000000000000000000000000000000000000000000000000000000000000000000000000000000000000000000000000000000000000000000000000000000000000000000000000000000000000000000000000000000000000000000000000000000000000000000000000000000000000000000000000000000000000000000000000000000000000000000000000000000000000000000000000000000000000000000000000000000000000000000000000000000000000000000000000000000000000000000000000000000000000000000000000000000000240000000000000000000000000000000000000000000000000000000000000000000000000000000000000000000000000000000000000000000000000000000000000000000000000000000000000000000000000000000000000000000000000000000000000000000000000000000000000000000000000000000000000000000000000000000000000000000000000000000000000000000000000000000000000000000000000000000000000000000000000000000000000000000000000000000000000000000000000000000000000000000000000000000000000000000000000000000000000000000000000000000000000000000000000000000000000000000000000000000000000000000000000000000000000000000000000000000000000000000000000000000000000000000000000000000000000000000000000000000000000000000000000000000000000000000000000000000000000000000000000000000000000000000000000000000000000000000000000000000000000000000000000000000000000000000000000000000000000000000000000000000000000000000000000000000000000000000000000000000000000000000000000000000000000000000000000000000000000000000000000000000000000000000000000000000000000000000000000000000000000000000000000000000000000000000000000000000000000000000000000000000000000000000000000000000000000000000000000000000000000000000000000000000000000000000000000000000000000000000000000000000000000000000000000000000000000000000000000000000000000000000000000000000000000000000000000000000000000000000000000000000000000000000000000000000000000000000000000000000000000000000000000000000000000000000000000000000000000000000000000000000000000000000000000000000000000000000000000000000000000000000000000000000000000000000000000000000000000000000000000000000000000000000000000000000000000000000000000000000000000000000000000000000000000000000000000000000000000000000000000000000000000000000000000000000000000000000000000000000000000000000000000000000000000000000000000000000000000000000000000000000000000000000000000000000000000000000000000000000000000000000000000000000000000000000000000000000000000000000000
#0223a1:12
#0223c1:00000000320000003200003200003200
#0233c1:32
#023381:000000000000000000000000000000000000000000000000000000000000000000000000000000000000000000000000000000000000000000000000000000000000000000000000000000000000000000000000000000000000000000000000000000000000000000000000000000000000000000000000000000000000000000000000000000000000000000000000000000000000000000000000000000000000000000000000000000000000000000000000000000000000000000000000000000000000000000000000000000000000000000000000000000000000000000000000000000000000000000000000000000000000000000000000000000000000000000000000000000000000000000000000000000000000000000000000000000000000000000000000000000000000000000000000000000000000000000000000000000000000000000000000000000000000000000000000000000000000000000000000000000000000000000000000000000000000000000000000000000000000000000000000000000000000000000000000000000000000000000000000000000000000000000000000000000000000000000000000000000000000000000000000000000000000000000000000000000000000000000000054000000000000000000000000000000000000000000000000000000000000000000000000000000000000000000000000000000000000000000000000000000000000000000000000000000000000000000000000000000000000000000000000000000000000000000000000000000000000000000000000000000000000000000000000000000000000000000000000000000000000000000000000000000000000000000000000000000000000000000000000000000000000000000000000000000000000000000000000000000000000000000000000000000000000000000000000000000000000000000000000000000000000000000000000000000000000000000000000000000000000000000000000000000000000000000000000000000000000000000000000000000000000000000000000000000000000000000000000000000000000000000000000000000000000000000000000000000000000000000000000000000000000000000000000000000000000000000000000000000000000000000000000000000000000000000000000000000000000000000000000000000000000000000000000000000000000000000000000000000000000000000000000000000000000000000000000000000000000000000000000240000000000000000000000000000000000000000000000000000000000000000000000000000000000000000000000000000000000000000000000000000000000000000000000000000000000000000000000000000000000000000000000000000000000000000000000000000000000000000000000000000000000000000000000000000000000000000000000000000000000000000000000000000000000000000000000000000000000000000000000000000000000000000000000000000000000000000000000000000000000000000000000000000000000000000000000000000000000000000000000000000000000000000000000000000000000000000000000000000000000000000000000000000000000000000000000000000000000000000000000000000000000000000000000000000000000000000000000000000000000000000000000000000000000000000000000000000000000000000000000000000000000000000000000000000000000000000000000000000000000000000000000000000000000000000000000000000000000000000000000000000000000000000000000000000000000000000000000000000000000000000000000000000000000000000000000000000000000000000000000000000000000000000000000000000000000000000000000000000000000000000000000000000000000000000000000000000000000000000000000000000000000000000000000000000000000000000000000000000000000000000000000000000000000000000000000000000000000000000000000000000000000000000000000000000000000000000000000000000000000000000000000000000000000000000000000000000000000000000000000000000000000000000000000000000000000000000000000000000000000000000000000000000000000000000000000000000000000000000000000000000000000000000000000000000000000000000000000000000000000000000000000000000000000000000000000000000000000000000000000000000000000000000000000000000000000000000000000000000000000000000000000000000000000000000000000000000000000000000000000000000000000000000000000000000000000000000000000000000000000000000000000000000000000000000000000000000000000000000000000000000000000000000000000000000000000000000000000000000000000000000000000000000000000000000000000000000000000000000000000
#025361:14
#0253b1:0023000000000000
#025360:0014000000000000
#025320:00230000
#025361:00140000
#0253b1:0000002300000000
#025360:0000001400000000
#025320:0023
#027320:13230000
#027360:0053000000000000
#0273b0:00001323
#027370:0000000000530000
#027361:00000014
#028321:23
#028371:00000013000000000000000000000000
#0283b1:0000002300000000
#028361:00000000000000000013000000000000
#028321:00000023
#0283b0:00000013
#028380:0000000000000023
#028351:0000000000000013
#029321:23
#0293b1:0000132300000000
#029321:00000013
#029351:0000000000000023
#029380:0000000000000013
#0303b0:23
#031340:000000000000000000000000000000000000000000000000000000000000000000000000000000000000000000000000145400000000540000000000005400000000540000000000540000005400005400005400540000540000000000000000
#031330:000000000000000000000000000000000000000000000000000000000000000000000000000000000000000000000000000054005400000000000000000000540054000000000000005400000054000000540000005400000000000000000000
#031350:000000000000000000000000000000000000000000000000000000000000000000000000000000000000000000000000000000540054000000000000000054005400000000000000000054000000540054000000000054000000000000000000
#031320:000000000000000000000000000000000000000000000000000000000000000000000000000000000000000000000000000000000000000000000000000000000000000000000000000000540000000000000054000000000000000000000000
#032340:24
#0323a1:14545454545454545454545454545454545454545454545424000000000000000000000000000000000000000000000000000000000000000000000000000000
#032391:0054005400540054005400540054005400540054005400540054005400540054005400540054005400540054005400540000000000000000000000000000000000000000000000000000000000000000000000000000000000000000000000000000000000000000000000000000000000000000000000000000000000000000
#032321:00000000000000000000000000000000000000000000000000000000000000000000000000000000000000000000000014545454545454545454545454545454
#032331:0000000000000000000000000000000000000000000000000000000000000000000000000000000000000000000000000000000000000000000000000000000000000000000000000000000000000000000000000000000000000000000000000054005400540054005400540054005400540054005400540054005400540054
#033321:54545454545454542400000000000000000000000000000000000000000000000000000000000000000000000000000000000000000000000000000000000000
#033331:0054005400540054005400540054005400000000000000000000000000000000000000000000000000000000000000000000000000000000000000000000000000000000000000000000000000000000000000000000000000000000000000000000000000000000000000000000000000000000000000000000000000000000
#033381:00000000000000000000000000000000000000000000000000000000000000001454545454545454545454545454545454545454545454542400000000000000
#033391:0000000000000000000000000000000000000000000000000000000000000000000000000000000000000000000000000000000000000000000000000000000000540054005400540054005400540054005400540054005400540054005400540054005400540054005400540054005400000000000000000000000000000000
#034341:00000000000000000000000000000000145454545454545454545454545454545454545454545454240000000000000000000000000000000000000000000000
#034331:0000000000000000000000000000000000000000000000000000000000000000005400540054005400540054005400540054005400540054005400540054005400540054005400540054005400540054000000000000000000000000000000000000000000000000000000000000000000000000000000000000000000000000
#034381:000000000000000000000000000000000000000000000000000000000000000000000000000000000000000000000000000000000000000000000000000000000000000000000000000000000000000000000000000000000000000000000000000000000000000000000000000000000000000000000000000000000000000000000000000000000000000000000000145500550055005500550055005500550055005500550055240000000000000000000000000000000000000000000000
#034371:000000000000000000000000000000000000000000000000000000000000000000000000000000000000000000000000000000000000000000000000000000000000000000000000005555555555555555555555000000000000000000000000
#034340:000000000000000000000000000000000000000000000000000000000000000000000000000000000000000000000000000000000000000000000000000000000000000000000000000000000000000000000000145555555555555555555555
#034330:000000000000000000000000000000000000000000000000000000000000000000000000000000000000000000000000000000000000000000000000000000000000000000000000000000000000000000000000000000000000000000000000000000000000000000000000000000000000000000000000000000000000000000000000000000000000000000000000000000000000000000000000000000000000000000000000005500550055005500550055005500550055005500550055
#035340:24
#0353a1:14545454545454545454545454545454545454545454545424000000000000000000000000000000000000000000000000000000000000000000000000000000
#035391:0054005400540054005400540054005400540054005400540054005400540054005400540054005400540054005400540000000000000000000000000000000000000000000000000000000000000000000000000000000000000000000000000000000000000000000000000000000000000000000000000000000000000000
#035321:00000000000000000000000000000000000000000000000000000000000000000000000000000000000000000000000014545454545454545454545454545454
#035331:0000000000000000000000000000000000000000000000000000000000000000000000000000000000000000000000000000000000000000000000000000000000000000000000000000000000000000000000000000000000000000000000000054005400540054005400540054005400540054005400540054005400540054
#036321:54545454545454542400000000000000000000000000000000000000000000000000000000000000000000000000000000000000000000000000000000000000
#036331:0054005400540054005400540054005400000000000000000000000000000000000000000000000000000000000000000000000000000000000000000000000000000000000000000000000000000000000000000000000000000000000000000000000000000000000000000000000000000000000000000000000000000000
#036381:00000000000000000000000000000000000000000000000000000000000000001454545454545454545454545454545454545454545454542400000000000000
#036391:0000000000000000000000000000000000000000000000000000000000000000000000000000000000000000000000000000000000000000000000000000000000540054005400540054005400540054005400540054005400540054005400540054005400540054005400540054005400000000000000000000000000000000
#037341:00000000000000000000000000000000145454545454545454545454545454545454545454545454240000000000000000000000000000000000000000000000
#037331:0000000000000000000000000000000000000000000000000000000000000000005400540054005400540054005400540054005400540054005400540054005400540054005400540054005400540054000000000000000000000000000000000000000000000000000000000000000000000000000000000000000000000000
#037361:00000014
#038321:3c000000000000000000000000000000000000000000000000000000000000000000000000000000000000000000000000000000000000000000000000000000000000003c00000000000000000000000000000000000000000000000000000000000000000000000000000000000000000000000000000000000000000000000000000000000000003c000000000000000000000000000000000000000000000000000000000000000000000000000000000000000000000000000000000000000000000000000000000000003c00000000000000000000000000000000000000000000000000000000000000000000000000000000000000000000000000000000000000000000000000000000000000000000000000000000000000000000000000000000000000000000000000000000000000000000000000000000000000000000000000000000000000000000000000000000000000000000000000000000000000000000000000000000000000000000000000000000000000000000000000000000000000000000000000000000000000000000000000000000000000000000000000000000000000000000000000000000000000000000000000000000000000000000000000000000000000000000000000000000000000000000000000000000000000000000000000000000000000000000000000000000000000000000000000000000000000000000000000000000000000000000000000000000000000000000000000000000000000000000000000000000000000000000000000000000000000000000000000000000000000000000000000000000000000000000000000000000000000000000000000000000000000000000000000000000000000000000000000000000000000000000000000000000000000000000000000000000000000000000000000000000000000000000000000000000000000000000000000000000000000000000000000000000000000000000000000000000000000000000000000000000000000000000000000000000000000000000000000000000000000000000000000000000000000000000000000000000000000000000000000000000000000000000000000000000000000000000000000000000000000000000000000000000000000000000000000000000000000000000000000000000000000000000000000000000000000000000000000000000000000000000000000000000000000000000000000000000000000000000000000000000000000000000000000000000000000000000000000000000000000000000000000000000000000000000000000000000000000000000000000000000000000000000000000000000000000000000000000000000000000000000000000000000000000000000000000000000000000000000000000000000000000000000000000000000000000000000000000000000000000000000000000000000000000000000000000000000000000000000000000000000000000000000000000000000000000000000000000000000000000000000000000000000000000000000000000000000000000000000000000000000000000000000000000000000000000000000000000000000000000000000000000000000000000000000000000000000000000000000000000000000000000000000000000000000000000000000000000000000000000000000000000000000000000000000000000000000000000000000000000000000000000000000000000000000000000000000000000000000000000000000000000000000000000000000000000000000000000000000000000000000000000000000000000000000000000000000000000000000000000000000000000000000000000000000000000000000000000000000000000000000000000000000000000000000000000000000000000000000000000000000000000000000000000000000000000000000000000000000000000000000000000000000000000000000000000000000000000000000000000000000000000000000000000000000000000000000000000000000000000000000000000000000000000000000000000000000000000000000000000000000000000000000000000000000000000000000000000000000000000000000000000000000000000000000000000000000000000000000000000000000000000000000000000000000000000000000000000000000000000000000000000000000000000000000000000000000000000000000000000000000000000000000000000000000000000000000000000000000000000000000000000000000000000000000000000000000000000000000000000000000000000000000000000000000000000000000000000000000000000000000000000000000000000000000000000000000000000000000000000000000000000000000000000000000000000000000000000000000000000000000000000000000000000000000000000000000000000000000000000000000000000000000000000000000000000000000000000000000000000000000000000000000000000000000000000000000000000000000000000000000
#038361:000000000000000000000000000000000000000000000000000000000000000000003400000000000000000000000000000000000000000000000000000000000000000000000000000000000000000000000000000000000000000000000000000000000000340000000000000000000000000000000000000000000000000000000000000000000000000000000000000000000000000000000000000000000000000000000000000000340000000000000000000000000000000000000000000000000000000000000000000000000000000000000000000000000000000000000000000000000000000000000000240000000000000000000000000000000000000000000000000000000000000000000000000000000000000000000000000000000000000000000000000000000000000000000000000000000000000000000000000000000000000000000000000000000000000000000000000000000000000000000000000000000000000000000000000000000000000000000000000000000000000000000000000000000000000000000000000000000000000000000000000000000000000000000000000000000000000000000000000000000000000000000000000000000000000000000000000000000000000000000000000000000000000000000000000000000000000000000000000000000000000000000000000000000000000000000000000000000000000000000000000000000000000000000000000000000000000000000000000000000000000000000000000000000000000000000000000000000000000000000000000000000000000000000000000000000000000000000000000000000000000000000000000000000000000000000000000000000000000000000000000000000000000000000000000000000000000000000000000000000000000000000000000000000000000000000000000000000000000000000000000000000000000000000000000000000000000000000000000000000000000000000000000000000000000000000000000000000000000000000000000000000000000000000000000000000000000000000000000000000000000000000000000000000000000000000000000000000000000000000000000000000000000000000000000000000000000000000000000000000000000000000000000000000000000000000000000000000000000000000000000000000000000000000000000000000000000000000000000000000000000000000000000000000000000000000000000000000000000000000000000000000000000000000000000000000000000000000000000000000000000000000000000000000000000000000000000000000000000000000000000000000000000000000000000000000000000000000000000000000000000000000000000000000000000000000000000000000000000000000000000000000000000000000000000000000000000000000000000000000000000000000000000000000000000000000000000000000000000000000000000000000000000000000000000000000000000000000000000000000000000000000000000000000000000000000000000000000000000000000000000000000000000000000000000000000000000000000000000000000000000000000000000000000000000000000000000000000000000000000000000000000000000000000000000000000000000000000000000000000000000000000000000000000000000000000000000000000000000000000000000000000000000000000000000000000000000000000000000000000000000000000000000000000000000000000000000000000000000000000000000000000000000000000000000000000000000000000000000000000000000000000000000000000000000000000000000000000000000000000000000000000000000000000000000000000000000000000000000000000000000000000000000000000000000000000000000000000000000000000000000000000000000000000000000000000000000000000000000000000000000000000000000000000000000000000000000000000000000000000000000000000000000000000000000000000000000000000000000000000000000000000000000000000000000000000000000000000000000000000000000000000000000000000000000000000000000000000000000000000000000000000000000000000000000000000000000000000000000000000000000000000000000000000000000000000000000000000000000000000000000000000000000000000000000000000000000000000000000000000000000000000000000000000000000000000000000000000000000000000000000000000000000000000000000000000000000000000000000000000000000000000000000000000000000000000000000000000000000000000000000000000000000000000000000000000000000000000000000000000000000000000000000000000000000000000000000000000000000000000000000000000000000000000000000000000000000000000000000000000000
#0393a1:000000000000000000000000143434343434240000000000
#039391:000000000000000000000000000000000000000000000000003400340034003400340034000000000000000000000000
#039320:0000000000000000000000000000000000000000000000001636363636363636
#039330:00000000000000000000000000000000000000000000000000000000000000000000000000000000000000000000000000360036003600360036003600360036
#040320:26
#041320:000000000000000000000000143434343434240000000000
#041330:000000000000000000000000000000000000000000000000003400340034003400340034000000000000000000000000
#041381:0000000000000000000000000000000000000000000000001636363636363636
#041371:00000000000000000000000000000000000000000000000000000000000000000000000000000000000000000000000000360036003600360036003600360036
#042381:26
#043381:16
#043371:00220000
#038950:000000000000000000165656000000000000000000000000
#038940:000000000000000000000000000000000000005800580000005800580058005800580058000000000000000000000000
#038920:0000000000000000000000000000000000000000000000000000000000000000000000000000000000000000000000000000000000000000000000000000000000000000000000000000000000000000000000000000000000000000000000000000000000000000000000000000000000000000000000000000000000000000000000000000000000000000000000000000000000000000000000000000000000000000000000000000000000000000000000000000000000000000000000000000000000000000000000000000000000000000000000000000000000000000000000000000000000000000000000000000000000000000000000000000000000000000000000000000000000000000000000000000000000000000000000000000000000000000000000000000000000000000000000000000000000000000000000000000000000000000000000000000000000000000000000000000000000000000000000000000000000000000000000000000000000000000000000000000000000000000000000000000000000000000000000000000000000000000000000000000000000000000000000000000000000000000000000000000000000000000000000000000000000000000000000000000000000000000000000000000000000000000000000000000000000000000000000000000000000000000000000000000000000000000000000000000000000000000000000000000000000000000000000000000000000000000000000000000000000000000000000000000000000000000000000000000000000000000000000000000000000000000000000000000000000000000000000000000000000000000000000000000000000000000000000000000000000000000000000000000000000000000000000000000000000000000000000000000000000000000000000000000000000000000000000000000000000000000000000000000000000000000000000000000000000000000000000000000000000000000000000000000000000000000000000000000000000000000000000000000000000000000000000000000000000000000000000000000000000000000000000000000000000000000000000000000000000000000000000000000000000000000000000000000000000000000000000000000000000000000000000000000000000000000000000000000000000000000000000000000000000000000000000000000000000000000000000000000000000000000000000000000000000000000000000000000000000000000000000005c000000000000000000000000000000000000000000000000000000000000000000000000000000000000000000000000000000000000000000000000000000000000000000000000000000000000005c000000000000000000000000000000000000000000000000000000000000000000000000000000000000000000000000000000000000000000000000000000000000000000000000000000000000005c000000000000000000000000000000000000000000000000000000000000000000000000000000000000000000000000000000000000000000000000000000000000000000000000000000000000005c000000000000000000000000000000000000000000000000000000000000000000000000000000000000000000000000000000000000000000000000000000000000000000000000000000000000005c000000000000000000000000000000000000000000000000000000000000000000000000000000000000000000000000000000000000000000000000000000000000000000000000000000000000005c000000000000000000000000000000000000000000000000000000000000000000000000000000000000000000000000000000000000000000000000000000005c5c5c5c5c5c5c5c5c5c5c5c5c5c5c2c0000000000000000000000000000000000000000000000000000000000000000000000000000000000000000000000000000000000000000000000000000000000000000000000000000000000000000000000000000000000000000000000000000000000000000000000000000000000000000000000000000000000000000000000000000000000000000000000000000000000000000000000000000000000000000000000000000000000000000000000000000000000000000000000000000000000000000000000000000000000000000000000000000000000000000000000000000000000000000000000000000000000000000000000000000000000000000000000000000000000000000000000000000000000000000000000000000000000000000000000000000000000000000000000000000000000000000000000000000000000000000000000000000000000000000000000000000000000000000000000000000000000000000000000000000000000000000000000000000000000000000000000000000000000000000000000000000000000000000000000000000000000000000000000000000000000000000000000000000000000000000000000000000000000000000000000000000000000000000000000
#040980:000000000000000000000000000000000000000000000000000000000000000000000000000000000000000000000000000000000000000000000000000000000000000000000000000000000000000000000000000000000000000000000000000000000000000000000000000000000000000000000000000000000000000000000000000000000000000000000000000000000000000000000000000000000000000000000000000000000000000000000000000000000000000000000000000000000000000000000000000000000000000000000000000000000000000000000000000000000000000000000000000000000000000000000000000000000000000000000000000000000000000000000000000000000000000000000000000000000000000000000000000000000000000000000000000000000000000000000000000000000000000000000000000000000000000000000000000000000000000000000000000000000000000000000000000000000000000000000000000000000000000000000000000000000000000000000000000000000000000000000000000000000000000000000000000000000000000000000000000000000000000000000000000000000000000000000000000000000000000000000000000000000000000000000000000000000000000000000000000000000000000000000000000000000000000000000000000000000000000000000000000000000000000000000000000000000000000000000000000000000000000000000000000000000000000000000000000000000000000000000000000000000000000000000000000000000000000000000000000000000000000000000000000000000000000000000000000000000000000000000000000000000000000000000000000000000000000000000000000000000000000000000000000000000000000000000000000000000000000000000000000000000000000000000000000000000000000000000000000000000000000000000000000000000000000000000000000000000000000000000000000000000000000000000000000000000000000000000000000000000000000000000000000000000000000000000000000000000000000000000000000000000000000000000000000000000000000000000000000000000000000000000000000000000000000000000000000000000000000000000000000000000000000000000000000000000000000000000000000000000000000000000000000000000000000000000000000000000000000000000000000000000000000000000000000000000000000000000000000000000000000000000000000000000000000000000000000000000000000000000000000000000000000000000000000000000000000000000000000000000000000000000000000000000000000000000000000000000000000000000000000000000000000000000000000000000000000000000000000000000000000000000000000000000000000000000000000000000000000000000000000000000000000000000000000000000000000000000000000000000000000000000000000000000000000000000000000000000000000000000000000000000000000000000000000000000000000000000000000000000000000000000000000000000000000000000000000000000000000000000000000000000000000000000000000000000000000000000000000000000000000000000000000000000000000000000000000000000000000000000000000000000000000000000000000000000000000000000000000000000000000000000000000000000000000000000000000000000000000000000000000000000000000000000000000000000000000000000000000000000000000000000000000000000000000000000000000000000000000000000000160000000000000000000000000000000000000000000000000000000000000000000000000000000000000000000000000000000000000000000000000000000000000000000000000000000000000056000000000000000000000000000000000000000000000000000000000000000000000000000000000000000000000000000000000000000000000000000000000000000000000000000000000000005600000000000000000000000000000000000000000000000000000000000000000000000000000000000000000000000000000000000000000000000000000000000000000000000000000000000000560000000000000000000000000000000000000000000000000000000000000000000000000000000000000000000000000000000000000000000000000000000000000000000000000000000000000056000000000000000000000000000000000000000000000000000000000000000000000000000000000000000000000000000000000000000000000000000000000000000000000000000000000000005600000000000000000000000000000000000000000000000000000000000000000000000000000000000000000000000000000000000000000000000000000000000000000056565656565656565656
#040970:000000000000000000000000000000000000000000000000000000000000000000000000005600560056005600560056
#041980:26
#042920:000000000000000000000000000000000000000000000000000000000000000000000000000000000000000000000000000000000000000000000000000000000000000000000000000000000000000000000000000000000000000000000000000000000000000000000000000000000000000000000000000000000000000000000000000000000000000000000000000000000000000000000000000000000000000000000000000000000000000000000000000000000000000000000000000000000000000000000000000000000000000000000000000000000000000000000000000000000000000000000000000000000000000000000000000000000000000000000000000000000000000000000000000000000000000000000000000000000000000000000000000000000000000000000000000000000000000000000000000000000000000000000000000000000000000000000000000000000000000000000000000000000000000000000000000000000000000000000000000000000000000000000000000000000000000000000000000000000000000000000000000000000000000000000000000000000000000000000000000000000000000000000000000000000000000000000000000000000000000000000000000000000000000000000000000000000000000000000000000000000000000000000000000000000000000000000000000000000000000000000000000000000000000000000000000000000000000000000000000000000000000000000000000000000000000000000000000000000000000000000000000000000000000000000000000000000000000000000000000000000000000000000000000000000000000000000000000000000000000000000000000000000000000000000000000000000000000000000000000000000000000000000000000000000000000000000000000000000000000000000000000000000000000000000000000000000000000000000000000000000000000000000000000000000000000000000000000000000000000000000000000000000000000000000000000000000000000000000000000000000000000000000000000000000000000000000000000000000000000000000000000000000000000000000000000000000000000000000000000000000000000000000000000000000000000000000000000000000000000000000000000000000000000000000000000000000000000000000000000000000000000000000000000000000000000000000000000000000000000000000000000000000000000000000000000000000000000000000000000000000000000000000000000000000000000000000000000000000000000000000000000000000000000000000000000000000000000000000000000000000000000000000000000000000000000000000000000000000000000000000000000000000000000000000000000000000000000000000000000000000000000000000000000000000000000000000000000000000000000000000000000000000000000000000000000000000000000000000000000000000000000000000000000000000000000000000000000000000000000000000000000000000000000000000000000000000000000000000000000000000000000000000000000000000000000000000000000000000000000000000000000000000000000000000000000000000000000000000000000000000000000000000000000000000000000000000000000000000000000000000000000000000000000000000000000000000000000000000000000000000000000000000000000000000000000000000000000000000000000000000000000000000000000000000000000000000000000000000000000000000000000000000000000000000000000000000000000000000000000000000000160000000000000000000000000000000000000000000000000000000000000000000000000000000000000000000000000000000000000000000000000000000000000000000000000000000000000056000000000000000000000000000000000000000000000000000000000000000000000000000000000000000000000000000000000000000000000000000000000000000000000000000000000000005600000000000000000000000000000000000000000000000000000000000000000000000000000000000000000000000000000000000000000000000000000000000000000000000000000000000000560000000000000000000000000000000000000000000000000000000000000000000000000000000000000000000000000000000000000000000000000000000000000000000000000000000000000056000000000000000000000000000000000000000000000000000000000000000000000000000000000000000000000000000000000000000000000000000000000000000000000000000000000000005600000000000000000000000000000000000000000000000000000000000000000000000000000000000000000000000000000000000000000000000000000000000000000056565656565656565656
#042930:000000000000000000000000000000000000000000000000000000000000000000000000005600560056005600560056
#043920:26
