This file was generated by Ched 2.7.0.0.
#TITLE ""
#ARTIST ""
#DESIGNER ""
#DIFFICULTY 0
#PLAYLEVEL
#SONGID ""
#WAVE ""
#WAVEOFFSET 0
#JACKET ""
#REQUEST "ticks_per_beat 480"
#00002: 4
#BPM01: 115
#00008: 01
#TIL00: ""
#VOLUME: ""
#HISPEED 00
#MEASUREHS 00
#00116:0014
#02418:00141400
#02414:0014000000140000
#0241a:24000014
#02412:0000002400000014
#0241f:21
#02612:1414
#0261a:0014001400000000
#02614:00140000
#02618:0000000000140000
#0401a:14
#04016:00140000
#04012:0024
#04018:00000026
#0311a:00001414
#03112:0000000000140000
#03118:24240000
#03114:0024002400000000
#00414:1414
#00418:00140014
#00410:41
#00512:14
#0051a:00140000
#00514:00001414
#00518:0000000000140000
#0081a:14141414
#00912:14141414
#01018:14140000
#01014:00001414
#01010:41
#0121a:14
#01219:00140000
#01218:0014
#01217:00000014
#01312:14
#01314:0014
#01313:00140000
#01315:00000014
#0141a:14
#01416:00140014
#01412:0014
#00618:1414
#00614:00140014
#01518:00002414
#01512:00240000
#01514:0000000000240000
#0151a:24
#01510:41
#01614:00140014
#0161a:0014
#0161f:11
#01718:00140014
#01712:0014
#01714:0000000000000014
#01818:14
#01814:0014
#0191a:14000014
#01916:00140000
#01912:0014
#02012:00140014
#02018:0014
#0211a:00140000
#02114:0000000014000014
#02118:00000014
#02514:00000014
#02518:0000000000000014
#02510:41
#02814:00141400
#02818:0014000000140000
#02812:24000014
#0281a:0000002400000014
#0301a:14001414
#03012:0014001400000014
#03018:00140000
#03014:0000000000140000
#02918:00000014
#02914:0000000000000014
#0351a:00000014
#03512:14
#03614:0014
#03718:00140000
#03812:14
#03814:00240000
#03818:0024000000000000
#03918:00140000
#03912:26
#03910:41
#04212:14000026
#04216:00140000
#0421a:0024
#04114:00140000
#04312:16540000
#01118:14140000
#01114:00001414
#0031a:00000024
#00312:24
#0071a:24
#00712:00240000
#00718:0024
#00714:00000024
#0271a:00240000
#00018:00340034
#00214:00340034
#03210:41
#0035a:00000014
#00352:14
#0015a:14
#0165a:14
#01654:00000064
#01558:00000054
#01752:14
#01858:54
#0185a:00140000
#01854:0064
#01852:00000014
#0195a:00000064
#02058:14
#02052:00000054
#02154:14
#0235a:14
#02754:14
#02758:0014
#0255a:0014
#02952:0014
#0315a:00000014
#03252:0000001400000000
#0335a:0014000000000000
#03354:0000000000000014
#03458:0000000000140000
#03554:0000001400000000
#0355a:00000064
#03552:54
#03658:0014000000000000
#03652:0000000000000014
#03654:0064
#0375a:0000000000140000
#03758:00540000
#0385a:00000014
#03952:16000015
#04052:0014
#0425a:0014
#04159:00000015
#04158:16
#04352:66
#0003a0:14
#000380:00343434
#0013a0:24
#002320:14
#002340:00343434
#003320:24
#0033a0:00001424
#015380:00000014
#0163a0:24
#016340:00000014
#017320:24
#018380:14
#0183a0:00240000
#018340:0014
#018320:00000024
#0193a0:00000014
#020380:24
#020320:00000014
#021340:24
#022380:14
#022390:00340000
#0223a0:00000000000000003400003400003400
#0233a0:24
#0253a0:1400003424000000
#025380:0034340000000000
#026320:00000014
#026330:0000000000000034
#027340:24
#0273a0:00140000
#027390:0000003400000000
#027380:0024
#029320:1400003424000000
#029340:0034340000000000
#032320:1400002400000000
#0323a0:00000014
#0333a0:0024000000000000
#033340:0000000014000024
#034380:0000140000240000
#035320:14
#035340:0000002400000000
#0353a0:00000014
#036380:0024000000000000
#036340:0014
#036320:0000000000000024
#037380:00140000
#0373a0:0000000000240000
#0383a0:0000001454542400
#038390:00000000000000540054005400000000
#039320:0000000015552500
#039330:00000000000000000055005500000000
#040380:0000000000001656
#040370:00000000000000000000000000560056
#041380:26
#041390:0000000015552500
#041380:00000000000000000055005500000000
#042320:0000000000001656
#042330:00000000000000000000000000560056
#043320:36240000
