This file was generated by Ched 2.7.0.0.
#TITLE ""
#ARTIST ""
#DESIGNER ""
#DIFFICULTY 0
#PLAYLEVEL
#SONGID ""
#WAVE ""
#WAVEOFFSET 0
#JACKET ""
#REQUEST "ticks_per_beat 480"
#00002: 4
#BPM01: 192
#00008: 01
#TIL00: ""
#VOLUME: ""
#HISPEED 00
#MEASUREHS 00
#00618:14
#00614:0014
#06312:14
#0761a:0014
#07618:14
#07614:00140000
#07718:14
#0811a:14
#07318:00140000
#07314:0014
#0731a:00000014
#07312:24
#0731f:21
#00118:14
#00214:14
#00318:14
#00414:14
#00518:14
#00514:0014
#0071a:14
#00712:0014
#0081a:0000001400000000
#00816:0000000000000014
#0101a:0000000000000014
#0141a:0000000000000014
#01216:0000000000000014
#0171a:0014
#01712:24
#01710:41
#01814:1414
#01818:00140014
#01912:14
#0191a:0014
#02014:14000014
#02018:0014
#0211a:14
#02112:0014
#02218:1414
#02214:00140014
#0231a:14
#02312:0014
#02418:14
#02414:0014
#02512:0014
#0251a:24
#02510:41
#02618:1414
#02614:00140014
#0271a:14
#02712:0014
#02818:14
#02814:0014
#0291a:14
#03012:14
#03114:00000014
#03118:26
#03218:00000014
#0331a:0014
#03310:41
#03612:0014
#03718:14
#03714:0014
#0381a:14
#03814:0014
#03918:14
#03912:0014
#04018:14
#04018:14
#04014:0014
#04014:0014
#04712:0000000000000014
#0491a:1414
#05012:1414
#05118:1414
#05214:1414
#0531a:14
#05316:0014
#05412:14
#05416:0014
#0551a:14
#05516:0014
#05612:14
#0561f:0000000000000011
#05616:0000000000000024
#0571a:0014
#05812:14
#0581a:0014
#05912:14
#05918:0014
#06014:14
#06018:00000014
#06212:14
#0621a:0014
#06418:0014
#06518:0014
#06514:24
#06614:14
#06618:0014
#06712:14
#0671a:0014
#06812:14
#0681a:0014
#06914:14
#06918:0014
#07012:14
#0701a:0014
#07114:14
#07414:14
#07418:00140000
#07412:0014
#07514:00140000
#07518:0014
#07512:00000014
#0751a:14
#07510:41
#07812:0014
#08017:0014
#08216:14
#08312:0014
#08418:14
#08414:0014
#0851a:14
#08512:0014
#08618:14
#08614:0014
#0871a:14
#08712:00140000
#08718:0014
#08714:00000014
#0881a:1400000000000024
#08812:00140000
#01616:0024
#0791a:24
#04810:0000000000000041
#04110:41
#01656:0014
#06352:54
#03158:16
#03154:00000064
#0765a:0064
#0785a:14
#07758:54
#0815a:64
#0835a:14
#0085a:0000006400000000
#00856:0000000000000054
#0105a:0000000000000064
#0145a:0000000000000064
#01256:0000000000000054
#0295a:64
#03052:54
#03258:00000054
#0335a:0064
#03656:14
#04854:0014
#04752:0000000000000054
#05656:0000000000000014
#05652:54
#0615a:0014
#06058:00000054
#06454:14
#0725a:0014
#08057:0054
#08256:24
#0885a:0000000000000014
#0795a:64
#0083a0:1400003400000000
#008360:0000000000000034
#0103a0:0000000000000034
#012360:0000000000000034
#0143a0:0000000000000034
#016360:0024
#0293a0:14
#029380:0024
#030320:14
#030340:0024
#031340:00000014
#032320:00240000
#032380:00000014
#0333a0:0034
#036360:24
#0413a0:1434
#042380:0034000000000000
#0423a0:00000034
#043380:0024
#044320:14
#044340:0000000000000034
#045320:0034
#046340:34
#046320:0000000000000034
#047320:0000000000000034
#048340:0024
#056320:14
#056360:0000000034000024
#060380:00001434
#0613a0:0024
#063320:14
#064340:24
#071380:0000000014000034
#0723a0:0024
#0763a0:0014
#077380:34
#0783a0:24
#0793a0:14
#080370:0034
#0813a0:34
#082360:54
#0833a0:24
#0883a0:0000000014000024
