This file was generated by Ched 2.7.0.0.
#TITLE ""
#ARTIST ""
#DESIGNER ""
#DIFFICULTY 0
#PLAYLEVEL
#SONGID ""
#WAVE ""
#WAVEOFFSET 0
#JACKET ""
#REQUEST "ticks_per_beat 480"
#00002: 4
#BPM01: 114
#00008: 01
#TIL00: ""
#VOLUME: ""
#HISPEED 00
#MEASUREHS 00
#0001a:14
#00112:14
#00218:14
#00414:0014
#0041a:24
#00410:41
#00518:14
#00512:0014
#0061a:14
#00614:0014
#00718:14
#00712:0014
#0121a:14
#01214:0014
#01318:1414
#01412:14
#01418:0014
#01514:1414
#0161a:1414
#01612:00140000
#01610:41
#01714:1414
#01718:00140000
#0181a:1414
#01812:00140000
#02018:1414
#02014:00140000
#02112:1414
#0211a:00140000
#02412:0016
#02418:26
#02410:41
#02518:1616
#02512:00160000
#02612:16
#02618:0016
#02818:1616
#02912:1616
#02918:00160000
#03018:16
#03012:0016
#03218:00140000
#03214:0014
#0321a:00000014
#03212:24
#03712:1414
#0371a:00140000
#03818:1414
#03814:00140000
#03912:1414
#0391a:00140000
#04114:1414
#04118:00140000
#0421a:1414
#04212:00140000
#04912:0016
#04918:26000016
#0491f:21
#04910:0041
#05012:16000016
#05018:0016
#05212:14
#0521a:0014
#05314:1414
#05318:00140000
#0541a:14
#05414:00140000
#05418:0014
#05412:00000014
#05714:14
#05718:0014
#0441f:11
#04818:2626
#04812:00260026
#0551a:24
#05812:24
#05818:00240000
#05814:0024
#0581a:00000024
#01110:41
#03310:41
#003340:1424
#0083a0:1424
#009340:1424
#010380:1424
#011320:1424
#019340:1424
#022380:1424
#023340:1424
#027320:1626
#031380:1626
#033320:14
#034340:24
#0353a0:14
#036380:3424
#040380:1424
#043340:1424
#044380:1424
#045320:14
#047340:3424
#051380:1626
#0553a0:14
#0563a0:24
#059320:1424
