This file was generated by Ched 2.7.0.0.
#TITLE ""
#ARTIST ""
#DESIGNER ""
#DIFFICULTY 0
#PLAYLEVEL
#SONGID ""
#WAVE ""
#WAVEOFFSET 0
#JACKET ""
#REQUEST "ticks_per_beat 480"
#00002: 4
#BPM01: 114
#00008: 01
#TIL00: ""
#VOLUME: ""
#HISPEED 00
#MEASUREHS 00
#00214:0012000000000000
#00216:00120000
#00218:00000000000012000000000000240000
#0021a:0000000012240000
#00212:0000000000240000
#00312:000000130000000000130033000000130000000000000000
#00318:1424
#0031b:000000130033000000130000000000130033000000000000
#00314:00240024
#00412:23131313
#00417:0014000000000000
#00415:0000001400000000
#0041b:23131313
#00416:0000000000140000
#00414:0000000000000013
#00419:0000000000000013
#00410:41
#0051b:13131323
#00515:0014000000000000
#00517:0000001400000000
#00512:13131323
#00516:0000000000140000
#00519:0000000000000023
#00514:0000000000000023
#00617:0014000000000000
#0061a:24141414
#00612:24141414
#00615:0000001400160000
#00614:0000000000000013
#00619:0000000000000013
#00715:0015000000230013
#00712:14141414
#0071a:14141424
#00716:0000001500000000
#00718:0000000000130023
#0081b:131300131300000000130000
#00815:000000130013000000130013000000000000000000000000
#00816:0000000000000014
#00812:24
#00912:131300131300000000130000
#00918:130000130013000000130013000000000000000000000000
#00916:0000000000000014
#01014:131300131300000000130000
#01019:130000130013000000130013000000000000000000000000
#0101b:0000000000000013
#01012:0000000000000013
#01118:000013000000000000230000000000000000000000000000
#01115:000000230000000013000000000000000000000000000000
#01116:0000000000140014
#01112:2324
#0111b:00230000
#01110:41
#0121a:131300000000240000240000
#01213:130000000000000000130013000000000000000000000000
#01215:000000130013000000000000000000000000000000000000
#01218:000000131300000000000000
#01216:000000000000002400002400
#01212:000000000000000024000024
#0131a:131300000000000000000000
#01315:000000130013000000000000000000000000000000000000
#01318:000000131300000000000000
#01313:000000000000000000130013000000000000000000000000
#0131b:00000013
#01316:0000000000000014
#01413:231300000000000000000000
#0141a:130000000000000000230013000000230013000000000000
#01418:000000230013000000000000000000000000000000000000
#01415:000000231300000000231300
#01416:000000000000231300000000
#01419:000000000000000000000000000000000000000000230013
#01512:24142500
#01516:000000000000000000000000000000150000003535153535
#0151a:00241400
#01519:00000025
#01515:003400000000000000000000
#01517:003400
#01617:000000000013000000000000000013000000000000000000
#01612:2513000000000000
#01613:0000000000130000
#01618:000000000000000000000000000000000013000000000000
#01610:41
#01712:15
#01716:000000000013000000000000000013000000000000000000
#0171b:0013000000000000
#0171a:0000000000130000
#01715:000000000000000000000000000000000013000000000000
#01819:15
#01815:0013000000000000
#0181b:000000000013000000000000000000000000000000000000
#01814:000000000000001300000000
#01818:0000000000130000
#01813:000000000000000000000000000000000013000000000000
#01917:15000000000000000000001300000000
#01916:00000013000000001300000000000000
#0191b:00000013000000001300000000000000
#01912:13000000000000000000001300000000
#02017:0013130000000000
#02012:150000000013000000000000000000000000000000000000
#02013:000000000000001300000000
#0201a:0000000000130000
#02015:000000000000000000000000000000000013000000000000
#02019:25
#02119:15
#02116:0013130000000000
#0211b:000000000013000000000000000000000000000000000000
#0211a:000000000000001300000000
#02113:0000000000130000
#02118:000000000000000000000000000000000013000000000000
#02212:15000013000000000000130000000000
#02218:13
#0221b:00000013000000000000000013000000
#02219:0000000015000013
#02215:0000000013000013
#02418:0013000000001300
#0241a:24130000
#02413:00130000
#02415:0000001300001300
#02419:0013
#02414:0013
#02417:0000000000130012
#02412:25
#02410:41
#02518:000000000000000000230000000013000013000000000000
#02516:2300000000000014
#0251b:2323
#0251a:0023000000000000
#02515:0023000000230000
#02514:00230000
#02519:00230000
#02513:0000002300000000
#02512:00002324
#02615:0013000000001300
#02613:00130000
#0261a:00130000
#02618:0000001300001300
#02614:0013
#02619:2513
#02616:0000000000130000
#02617:0000000000000012
#02612:24
#02714:0000001300000000
#02719:0000001300000000
#02712:2300000013000023
#0271b:00002313
#02717:23
#02718:0000000000230000
#02715:00000023
#02815:13
#02818:13
#0281a:0013000000001400
#02814:0000130000000014
#02819:00131400
#02813:0014
#02812:0000001300001400
#02817:0000000000140000
#02915:001300000000000000000000
#02918:001300
#0291a:2424
#02912:0000240000240000
#02916:00000024
#03118:0012000000000000
#03115:00120000
#03117:0000001200000000
#03119:0012
#03113:23
#0311a:2300000000240000
#03112:0000000000240000
#03114:00000000000000000000000000240000
#0321b:000000130000000000130033000000130000000000000000
#03214:1424
#03212:000000130033000000130000000000130033000000000000
#03218:00240024
#03312:1300000000000023
#03317:23000000000000000000002300000000
#03316:00000023000000002300000000000000
#0331b:0000002300000000
#03310:41
#03717:000000000013000000000000000013000000000000000000
#03712:00001300000000130000000000000000
#03713:0000000000130000
#03718:000000000000000000000000000000000013000000000000
#03714:00000013
#03719:000000000013
#03715:2300000000000013
#03816:000000130013000000000000000013000000000000000000
#0381a:0000000000130000
#03815:000000000000000000000000000000000013000000000000
#0381b:000000001300000000000000000000000000000000130000000000000000000000000000000000000000000000000000
#03819:00000013
#03814:000000000013
#03818:1300000000000013
#03812:15
#03919:15130013
#03915:130000000000001300000000
#03912:0013000000000000
#03917:0013000000000000
#03914:000000000000130000000000000000000013000000000000
#03916:000000000000000000000013000000000000000000000000
#0391b:0013
#0391a:0000000000130000
#03913:000000000013
#03918:0000000000000013
#04017:13000000000000000000001300000000
#04012:13000000000000000000001300000000
#04016:00000013000000001300000000000000
#0401b:00000013000000001300000000000000
#04018:0000000000000000001300000000000000000000000000000000000000000000
#04013:0000000000000000001300000000000000000000000000000000000000000000
#04015:0000000000000000000000000000000000000000000000000013000000000000
#0401a:0000000000000000000000000000000000000000000000000013000000000000
#04117:0013130000000000
#04112:250000000013000000130000000000000000000000000000
#04119:250000000000001300000000
#04114:0000000000130000
#04118:000000000000000000000000000000000013000012000000
#0411a:000000000000000000000013000000000000000000000000
#04113:0013
#04115:00000013
#04219:1500000000130000
#04216:0013130000000000
#0421b:000000000013000000130000000000000000000000000000
#04214:000000000000001300000000
#04215:000000000000000000000000000000000013000000000000
#04213:000000000000000000000013000000000000000000000000
#0421a:0013
#04315:13
#0431b:00000013000000000000130000000000
#04312:00000013000000001500000013000000
#04318:0000000013000013
#04314:0000000000000013
#04319:25
#04416:130000000000000000000034000000000000130000000000
#04414:00130000
#0441f:11
#0441a:24
#04413:0023000000000000
#04412:0000002323000000
#04419:003400000000000000000000
#04418:000000000034000000000000000000000000000000000000
#04417:003400
#04516:00140000000000000014000000000000
#04517:0014001400140014
#04518:00000000001400000000000000140000
#04616:00140000000000000014000000000000
#04617:0014001400140014
#04618:00000000001400000000000000140000
#04716:00140000000000000014000000000000
#04713:0013001300130013
#04714:00000000001300000000000000130000
#04712:00130000000000000013000000000000
#04717:0014001400140014
#04718:00000000001400000000000000140000
#0481a:0013000000000000
#04814:0000001300000000
#04818:0000000000130000
#04816:24240000
#04812:23000025
#0481b:00230000
#04813:0023
#04817:0023
#04819:00000025
#04919:00131400
#04914:00130000
#04913:0014
#04917:0000001300000015
#04915:1300000000150000
#04912:00000014
#0491a:00000014
#04916:0013000000000000
#04918:23
#0491f:21
#04910:0041
#05015:000013000000000000130013000000000000000000000000
#05018:000000130013000013000000000000000000000000000000
#05012:1400240000240000
#0501a:2424
#05016:00000024
#05115:000000131300000000000000
#05118:000000000000000000130013000000000000000000000000
#05217:0000001300000013
#05212:0000001300000013
#0521b:2323
#05216:23
#05312:0013
#05316:23
#05317:00000023000000002300000000000000
#05315:0000002300000000
#0541b:0013
#05413:0013000000130000
#05419:00130000
#05415:0000001300002300
#05417:1300000000000023
#0541a:0000002300001300
#05412:2300000000000013
#05416:0023
#05418:0023000000230000
#05414:00230000
#05512:0013000000240000
#05515:00000000130000000000000000140000
#05518:0000001300000000
#0551b:2313
#05516:24
#0551a:00000000000000000000000000240000
#05517:0000000000240000
#0561b:0013000000000000
#05618:00130000
#05615:0000001300240000
#05612:00000000000000001300000000240000
#05617:00000000000000000000000000140000
#0561a:0000000000240000
#05712:0013000000240000
#05715:00000000130000000000000000140000
#05718:0000001300000000
#0571b:0013
#0571a:00000000000000000000000000240000
#05717:0000000000240000
#0581b:0013000000130000
#05815:000000000013000000000000000000000013000000000000
#05812:0000001300000000
#05818:000000000000240000000013000000000000240000000000
#05816:000000000000000000000000000000000000003434143434
#05814:0024
#00114:0012
#00116:0000001200000000
#00118:00120000
#0011a:0012000000240000
#00112:00000000000000000000240000240000
#00014:0012000000000000
#0001a:24000000000000001200240000240000
#00018:0000001200000000
#00016:00120000
#00012:2400000000240000
#03418:00000013
#0341b:2300002300000013
#03412:00000023000000000000000000000000
#03416:0023
#03515:0000000000000000130000000000000000000000000000000000006400640000
#03512:0000001300006400
#03517:2400000000000000000000000000000000000064006400000000000000000000
#03514:00000000000000002400000000640064
#0351a:00006464
#03518:00000000000000000064006400000000
#03519:0000000000000000000000000000000000640000000000640000000000000000
#03516:0000000000640064
#03513:0000000000000000000000000000000000000000000000000064000000000064
#02312:25
#02317:2300000000000000000000000000000000000000000000000000000000000000000000000000000000000000000000000000000000000000000000000000000000000000000000000000000000000000000000000000000000000000000000000000006400000064000000000000000000000000000000000000000000000000
#02314:0000000000000000000000000000000026000026000026000000000000000000
#0231a:00000000000000000000000000000000000000000000000000000000000000000000000000000000000000000000000064000000006400000000000000000000
#02319:0000000000000000000000000000000000000000000000000000000000000000000000000000000000000000000000000000000000000000000000000000000000000000000000000000000000000000000000000000000000000000000000000064000000000000006400000000000000000000000000000000000000000000
#02318:00000000000000000000000000000000000000000000000000000000000000000000000000000000000000000000000000640000640000000000000000000000
#02316:00000000000000000000000000000000000000000000000000000000000000000000000000000000000000000000000000006464000000000000000000000000
#02315:0000000000000000000000000000000000000000000000000000000000000000000000000000000000000000000000000000000000000000000000000000000000000000000000000000000000000000000000000000000000000000000000000000000000640000000000000000000000000000000000000000000000000000
#0361a:64240000
#03612:6464000000000000
#03619:0064000000000000000000000000000000000000000000000000000000000000
#03618:00640000000000000000000000000000
#03617:0000006400000000000000000000000000000000000000000000000000000000
#03616:0064640000000000
#03613:0000000000640000000000000000000000000000000000000000000000000000
#03614:00000064000000000000000000000000
#03615:0000000000000064000000000000000000000000000000000000000000000000
#05912:25
#0015a:14
#00152:14
#0025a:14
#00252:1400000000640000
#0035b:0023000000230000
#00354:14641414
#00352:0000002300000000
#00358:64145414
#00452:1313
#0045b:00130000
#00552:00130000
#0055b:1313
#00652:1414
#0065a:00140000
#00752:00140000
#0075a:1414
#0085b:00000013
#00855:00000013
#00952:00000013
#00958:00000013
#01054:00000013
#01059:00000013
#01156:0000000000240000
#01152:00006434
#0135b:00000013
#01355:00000013
#01552:64006535
#01555:0014000000000000
#0155a:00540000
#01557:0000001400000000
#01556:0000000000250025
#01559:00000065
#01659:45
#01657:00000000000000130000000000000000
#01652:00000000000000130000000000000000
#01752:35
#0175b:00000000000000130000000000000000
#01756:00000000000000130000000000000000
#01859:45
#01856:00000000000000330000000000000000
#0185b:00000000000000330000000000000000
#01957:45000000000000000000005300000000
#01956:00000063000000000000000000000000
#0195b:00000063000000006300000000000000
#01952:63000000000000000000005300000000
#02054:00000000000000130000000000000000
#02059:00000000000000130000000000000000
#02057:00630000
#02052:35
#02159:45000000000000130000000000000000
#02156:00530000
#02154:00000000000000130000000000000000
#02252:35000063000000000000230000000000
#02258:63
#0225b:00000063000000000000000000000000
#02259:0045
#02255:0063
#02352:35
#02357:63
#02452:15
#0245a:00130000
#02454:0013
#02458:00000013
#02552:00000034
#02653:00130000
#02659:1513
#02655:00000013
#02752:6313
#02757:63
#0275b:00000013
#02855:13
#02859:00130000
#02853:0014
#0285a:00000014
#02956:00000064
#0315a:1300000000640000
#03153:13
#03254:54146414
#03252:0023000000230000
#0325b:0000002300000000
#03258:14541414
#03352:13
#0335b:0013
#03357:63
#03356:0063
#03552:13
#03452:13000063000000000000000000000000
#0345b:6313
#03456:0063
#03759:15
#03757:00000000000000130000000000000000
#03752:00000000000000130000000000000000
#0385b:00000000000000130000000000000000
#03856:00000000000000130000000000000000
#03852:15
#03959:15630000
#04052:53000000000000000000005300000000
#04056:00000063000000003300000000000000
#0405b:00000063000000006300000000000000
#04057:43000000000000000000005300000000
#04058:0000000000000000002300000000000000000000000000000000000000000000
#04053:0000000000000000002300000000000000000000000000000000000000000000
#04055:0000000000000000000000000000000000000000000000000023000000000000
#0405a:0000000000000000000000000000000000000000000000000023000000000000
#04157:00630000
#04152:35
#04259:45
#04256:00530000
#04355:53
#0435b:00000053000000000000230000000000
#04352:00000053000000003500000000000000
#04358:0053
#04359:45
#04456:00001423
#04452:0063
#04856:14140000
#04852:13
#0485b:00130000
#04853:0013
#04857:0013
#04556:00240000000000000024000000000000
#04557:0064006400640064
#04558:00000000002400000000000000240000
#04552:13
#04656:00240000000000000024000000000000
#04657:0064006400640064
#04658:00000000002400000000000000240000
#04756:00240000000000000024000000000000
#04753:0063006300630063
#04754:00000000002300000000000000230000
#04752:00230000000000000023000000000000
#04757:0064006400640064
#04758:00000000002400000000000000240000
#04954:00130000
#04959:0014
#04952:00000014
#04958:13
#0505a:1414
#05052:0000140000140000
#05056:00000064
#05257:0000000000000023
#0525b:1363
#05252:0000002300000000
#05256:6313
#0535b:1300001300000000
#05352:00000013000000006300000000000000
#05356:63
#05357:00000063000000006300000000000000
#05355:0000006300000000
#0545b:0013
#05453:0000000000130000
#0545a:00000013
#05452:0000000000000013
#0555b:13
#05552:0000000000640000
#0555a:00000000000000000000000000640000
#05555:00000000000000000000000000640000
#05557:0000000000140000
#05652:14000000000000000000000000540000
#05657:14000000000000000000000000540000
#0565a:0000000000540000
#05655:0000000000140000
#0575a:14000000000000000000000000640000
#05755:14000000000000000000000000640000
#05752:0000000000640000
#05757:0000000000140000
#05857:14
#05852:14
#05858:00140064
#05854:0014
#05856:0000000000000024
#05959:45
#05952:65
#05957:0012
#000320:00000000000000000000140000340000
#001320:24
#0003a1:00000000000000000000000000140000
#0013a1:24
#0013a1:00000000000000000000140000340000
#0023a1:24
#001320:00000000000000000000000000140000
#002320:24
#002320:0000000000140000
#002340:00000000000000000000000000340000
#003340:24
#002381:00000000000000000000000000140000
#003381:34240000
#0033b1:000000330033000000000000000000000000000000000000
#003340:00142400
#003320:000000000000000000330033000000000000000000000000
#003381:00001424
#0033b1:000000000000000000000000000000330033000000000000
#0083b1:0000000013230000
#008350:0000000000132300
#009320:0000000013230000
#009381:0000000000132300
#010341:0000000013230000
#010390:0000000000132300
#011320:00001424
#011360:0000000000540000
#013380:0000000013230000
#013351:0000000000132300
#015321:14
#015351:000034240000000000000000000000000000000000000000
#0153a1:00140000
#015371:000000000000000034240000000000000000000000000000
#015321:00001525
#015361:0000000000550000
#015390:00000015
#015360:000000000000000000000000000000000000003535353535
#016390:25
#016320:00000000130033230000000000000000
#016371:00000000000013230000000000000000
#016341:0000000000001323
#016390:0000000000000013
#017390:23
#0173b0:00000000130033230000000000000000
#017361:00000000000013230000000000000000
#017391:0000000000001323
#017340:0000000000000013
#018340:23
#018360:00000000130033230000000000000000
#0183b1:00000000000013230000000000000000
#018371:0000000000001323
#018320:0000000000000013
#019320:3300002300000000
#019360:00000033000000000000000000000000
#0193b1:00000013000000000000000000000000
#019371:0000002300000000
#0193b1:0000000013000023
#019371:00000000000000000000003300000000
#019320:00000000000000000000001300000000
#019360:0000000000000023
#020370:00130000
#020390:00000000000033230000000000000000
#020341:00000000000013230000000000000000
#020381:0000000000001323
#020350:0000000000000013
#021350:23
#021360:00130000
#021340:00000000000033230000000000000000
#021391:00000000000013230000000000000000
#021351:0000000000001323
#021380:0000000000000013
#022380:3300002300000000
#0223b0:00000033000000000000000000000000
#022321:00000013000000000000000000000000
#022351:0000002300000000
#022351:00001323
#022321:0000000000530000
#023371:13
#0233a1:0000000000000000000000000000000034000034000034002400000000000000
#027371:13
#0273b1:00230000
#027320:13
#027360:00230000
#029380:0013230000000000
#029350:0000001323000000
#029360:00000014
#0303a0:24
#030361:13
#030331:0023000000000000
#030390:0013230000000000
#030351:00130000
#030321:0000002300000000
#030380:0000001323000000
#030351:0000000013230000
#030390:0000000000130000
#0303b0:00000023
#030341:0000000000001323
#030380:0000000000000013
#0313a0:23
#0313a0:0000000000140000
#031380:00000000000000000000000000340000
#032380:24
#031341:00000000000000000000000000140000
#032341:34240000
#032321:000000330033000000000000000000000000000000000000
#032380:00142400
#0323b0:000000000000000000330033000000000000000000000000
#032341:00001424
#032321:000000000000000000000000000000330033000000000000
#033371:13
#0333b1:00000000000053535353535323000000000000000000000000000000000000000000000000000000000000000000000000000000000000000000000000000000
#0333a1:0000000000000000000000000053005300530053005300530000000000000000000000000000000000000000000000000000000000000000000000000000000000000000000000000000000000000000000000000000000000000000000000000000000000000000000000000000000000000000000000000000000000000000
#033360:00000000000000000000000013000000000053535353535323000000000000000000000000000000000000000000000000000000000000000000000000000000
#033350:0000000000000000000000000000000000000000000000000000000000000000000000000053005300530053005300530000000000000000000000000000000000000000000000000000000000000000000000000000000000000000000000000000000000000000000000000000000000000000000000000000000000000000
#0333b1:00000000000000000000000000000000000000000000000013535353535353532300000000000000000000000000000000000000000000000000000000000000
#0333a1:0000000000000000000000000000000000000000000000000000000000000000000000000000000000000000000000000053005300530053005300530053005300000000000000000000000000000000000000000000000000000000000000000000000000000000000000000000000000000000000000000000000000000000
#033360:0013
#033320:00000000000000000000000000000000000000000000000000000000000000000000000000005353535353532300000000000000000000000000000000000000
#033330:0000000000000000000000000000000000000000000000000000000000000000000000000000000000000000000000000000000000000000000000000000000000000000000000000000000000530053005300530053005300000000000000000000000000000000000000000000000000000000000000000000000000000000
#033371:00000000000000000000000000000000000000000000000000000000000000000000000000000000000000001300000000005353535353532300000000000000
#033381:0000000000000000000000000000000000000000000000000000000000000000000000000000000000000000000000000000000000000000000000000000000000000000000000000000000000000000000000000000000000000000000000000000000000530053005300530053005300000000000000000000000000000000
#033320:00000000000000000000000000000000000000000000000000000000000000000000000000000000000000000000000000000000000000001353535353535353
#033330:0000000000000000000000000000000000000000000000000000000000000000000000000000000000000000000000000000000000000000000000000000000000000000000000000000000000000000000000000000000000000000000000000000000000000000000000000000000000530053005300530053005300530053
#034320:23
#0343b1:13
#034371:00000000000053535353535323000000000000000000000000000000000000000000000000000000000000000000000000000000000000000000000000000000
#034381:0000000000000000000000000053005300530053005300530000000000000000000000000000000000000000000000000000000000000000000000000000000000000000000000000000000000000000000000000000000000000000000000000000000000000000000000000000000000000000000000000000000000000000
#034320:00000013000000000000000000000000
#034360:00000000000000000000000000000000000053535353535323000000000000000000000000000000000000000000000000000000000000000000000000000000
#034350:0000000000000000000000000000000000000000000000000000000000000000000000000053005300530053005300530000000000000000000000000000000000000000000000000000000000000000000000000000000000000000000000000000000000000000000000000000000000000000000000000000000000000000
#0343b1:00000000000000000000000000000000000000000000000013535353535353532300000000000000000000000000000000000000000000000000000000000000
#0343a1:0000000000000000000000000000000000000000000000000000000000000000000000000000000000000000000000000053005300530053005300530053005300000000000000000000000000000000000000000000000000000000000000000000000000000000000000000000000000000000000000000000000000000000
#034360:0013
#034320:00000000000000000000000000000000000000000000000000000000000000000000000000000000000000000000000053535353535353535353535353535353
#034330:0000000000000000000000000000000000000000000000000000000000000000000000000000000000000000000000000000000000000000000000000000000000000000000000000000000000000000000000000000000000000000000000000053005300530053005300530053005300530053005300530053005300530053
#035320:23
#035371:14
#0353a1:000000000000000054000000000000000000000000000000000000000000000000000000000000000000000000000000540000540000540000540000540000540000540000540000540000540000540000540000540000540000540000540000240000000000000000000000000000000000000000000000000000000000000000000000000000000000000000000000000000000000000000000000000000000000000000000000000000000000000000000000000000000000000000000000
#035391:0000000000000000000000000000000000000000000000000000000000000000005400540054005400540054005400540054005400540054005400540054005400000000000000000000000000000000000000000000000000000000000000000000000000000000000000000000000000000000000000000000000000000000
#0363a1:000000000000000000000000000000000000000000000000000000000000000000000000000000000000000000000000140000000000000000000000000000000000000000000000000000000000000000000000000000000000000000000000340000000000000054000000000000005400000000000000340000000000540000000000540000000000540000000000340000005400000054000000540000003400000054000000340000540000540000540000540000540000540000540000
#036391:000000000000000000000000000000000000000000000000000000000000000000000000000000000000000000000000000000000000000000000000000000000000000000000000000000000000000000000000000000000000000000000000000000000000000000000000000000000000000000000000000000000000000000000000000000000000000000000000000000000000000000000000000000000000000000000000000000000000000000000000000000000000000000000000000000000000000054000000000000000000000000000000540000000000000000000000000000005400000000000000000000000000540000000000000000000000540000000000000000000000540000000000000000000000540000000000000000005400000000000000540000000000000054000000000000005400000000000000540000000000000054000000000000540000000000540000000000540000000000540000000000540000000000540000000000540000000000540000
#037391:25
#037321:0000132300000000
#037370:00000000000013230000000000000000
#0383b0:0000132300000000
#038361:00000000000013230000000000000000
#039391:00130000
#0393b1:000000000000000000000023000000000000000000000000
#040321:13
#040361:00000033000023000000000000000000
#040331:0000000000000000005300000000000000000000000000000000000000000000
#0403b0:00000013000023000000000000000000
#040380:0000000000000000005300000000000000000000000000000000000000000000
#0403b0:0013
#040370:00000000000000000000003300002300
#0403a0:0000000000000000000000000000000000000000000000000053000000000000
#040321:00000000000000000000001300002300
#040351:0000000000000000000000000000000000000000000000000053000000000000
#041371:00130000
#0413a1:0000002300000000
#041361:0000000000000012
#042361:22
#042361:00130000
#042331:0000002300000000
#042381:0000000000001323
#042350:0000000000000013
#043350:3300002300000000
#043320:00000033000000000000000000000000
#0433b1:00000013000000000000000000000000
#043381:0000002300000000
#043381:00001323
#0433b1:0000000000530000
#0443a1:14
#044391:000034340000000000000000000000000000000000000000
#044381:000000000034340000000000000000000000000000000000
#044371:000000000000000034340000000000000000000000000000
#044361:000000000000000000000034240000000000000000000000
#044320:0013
#044360:00000053
#045320:23
#045361:14540000000000540054000000000054
#045371:0034003400340034
#045381:00000054005400000000005400540000
#046361:00540000000000540054000000000054
#046371:0034003400340034
#046381:00000054005400000000005400540000
#047361:00540000000000540054000000000054
#047371:0034003400340034
#047381:00000054005400000000005400540000
#048361:24
#047320:13530000000000530053000000000053
#047330:0033003300330033
#047340:00000053005300000000005300530000
#048320:23
#050360:00000014
#0513a0:24
#051361:1323000000000000
#0513b0:0013230000000000
#051320:0000000013230000
#051371:0000000000130000
#0513a1:00000023
#051340:0000000000001323
#051381:0000000000000013
#0523b1:23
#052360:1323
#052320:000000000000535353535353535353535353330000000000000000000000000000000000000000000000000000000000
#052330:000000000000000000000000005300530053005300530053005300530053005300530053000000000000000000000000000000000000000000000000000000000000000000000000000000000000000000000000000000000000000000000000
#0523b1:0013
#052371:000000000000000000000000000000000000000000000000000000000000535353535353535353535353330000000000
#052381:000000000000000000000000000000000000000000000000000000000000000000000000000000000000000000000000000000000000000000000000005300530053005300530053005300530053005300530053000000000000000000000000
#0533b1:23
#053360:13
#053320:00000000000053535353535323000000000000000000000000000000000000000000000000000000000000000000000000000000000000000000000000000000
#053330:0000000000000000000000000053005300530053005300530000000000000000000000000000000000000000000000000000000000000000000000000000000000000000000000000000000000000000000000000000000000000000000000000000000000000000000000000000000000000000000000000000000000000000
#053371:00000013000000000000000000000000
#0533b1:00000000000000000000000000000000000053535353535323000000000000000000000000000000000000000000000000000000000000000000000000000000
#0533a1:0000000000000000000000000000000000000000000000000000000000000000000000000053005300530053005300530000000000000000000000000000000000000000000000000000000000000000000000000000000000000000000000000000000000000000000000000000000000000000000000000000000000000000
#053350:0000001300000000
#053320:0033
#053360:0000000000000023
#053371:0013
#0533b1:0000000000000023
#055321:0000000000140000
#055351:00000000000000000000000000340000
#056321:24
#0553a0:00000000000000000000000000140000
#056370:24
#0563a0:0000000000140000
#056370:00000000000000000000000000340000
#0573a0:24
#056321:00000000000000000000000000140000
#057351:24
#057321:0000000000140000
#057351:00000000000000000000000000340000
#058321:24
#0573a0:00000000000000000000000000140000
#058370:24
#058380:00000014
#058360:000000000000000000000000000000000000003434343434
#059390:25
#059321:15
#059371:000000000000520000000032220000000000000000000000
#0359a0:000000000000000000000000000000000000000000000000000000000000000000000000000000000000000000000000000000000000000000000000000000000000000000000000000000000000000000000000000000000000000000000000000000000000000000000000000000000000000000000000000000000000000000000000000000000000000000000000000000000000000000000000000000000000000000000000000000000000000000000000000000000000000000000000000000000000000000000000000000000000000000000000000000000000000000000000000000000000000000000000000000000000000000000000000000000000000000000000000000000000000000000000000000000000000000000000000000000000000000000000000000000000000000000000000000000000000000000000000000000000000000000000000000000000000000000000000000000000000000000000000000000000000000000000000000000000000000000000000000000000000000000000000000000000000000000000000000000000000000000000000000000000000000000000000000000000000000000000000000000000000000000000000000000000000000000000000000000000000000000000000000000000000000000000000000000000000000000000000000000000000000000000000000000000000000000000000000000000000000000000000000000000000000000000000000000000000000000000000000000000000000000000000000000000000000000000000000000000000000000000000000000000000000000000000000000000000000000000000000000000000000000000000000000000000000000000000000000000000000000000000000000000000000000000000000000000000000000000000000000000000000000000000000000000000000000000000000000000000000000000000000000000000000000000000000000000000000000000000000000000000000000000000000000000000000000000000000000000000000000000000000000000000000000000000000000000000000000000000000000000000000000000000000000000000000000000000000000000000000000000000000000000000000000000000000000000000000000000000000000000000000000000000000000000000000000000000000000000000000000000000000000000000000000000000000000000000000000000000000000000000000000000000000000000000000000000000000000000000000000000140000000000000000000000000000000000000000000000000000000000000000000000000000000000000000000000000000000000000000000000000000000000000000000000000000000000000000000000000000000000000000000000000000000000000000000000000000000000000000000000000000000000000000000000000000000000000000000000000000000000000000000000000000000000000000000000000000000000000000000000000000000000000000000000000000000000000000000000000000000000000000000000000000000000000000000000000000000000000000000000000000000000000000000000000000000000000000000000000000000000000000000000000000000000000000000000000000000000000000000000000000000000000000000000000000000000000000000000000000000000000000000000000000000000000000000000000000000000000000000000000000000000000000000000000000000000000000000000000000000000000000000000000000000000000000000000000000000000000000000000000000000000000000000000000000000000000000000000000000000000000000000000000000000000000000000000000000000000000000005454240000000000000000000000000000000000000000000000000000000000000000000000000000000000000000000000000000000000000000000000000000000000000000000000000000000000000000000000000000000000000000000000000000000000000000000000000000000000000000000000000000000000000000000000000000000000000000000000000000000000000000000000000000000000000000000000000000000000000000000000000000000000000000000000000000000000000000000000000000000000000000000000000000000000000000000000000000000000000000000000000000000000000000000000000000000000000000000000000000000000000000000000000000000000000000000000000000000000000000000000000000000000000000000000000000000000000000000000000000000000000000000000000000000000000000000000000000000000000000000000000000000000000000000000000000000000000000000000000000000000000000000000000000000000000000000000000000000000000000000000000000000000000000000000000000000000000000000000000000000000000000000000000000000000000000000000000000000000000000000000
#035960:0000000000540000
#035921:000000000000000000000000000000000000000000000000000000000000000000000000000000000000000000000000000000000000000000000000000000000000000000000000000000000000000000000000000000000000000000000000000000000000000000000000000000000000000000000000000000000000000000000000000000000000000000000000000000000000000000000000000000000000000000000000000000000000000000000000000000000000000000000000000000000000000000000000000000000000000000000000000000000000000000000000000000000000000000000000000000000000000000000000000000000000000000000000000000000000000000000000000000000000000000000000000000000000000000000000000000000000000000000000000000000000000000000000000000000000000000000000000000000000000000000000000000000000000000000000000000000000000000000000000000000000000000000000000000000000000000000000000000000000000000000000000000000000000000000000000000000000000000000000000000000000000000000000000000000000000000000000000000000000000000000000000000000000000000000000000000000000000000000000000000000000000000000000000000000000000000000000000000000000000000000000000000000000000000000000000000000000000000000000000000000000000000000000000000000000000000000000000000000000000000000000000000000000000000000000000000000000000000000000000000000000000000000000000000000000000000000000000000000000000000000000000000000000000000000000000000000000000000000000000000000000000000000000000000000000000000000000000000000000000000000000000000000000000000000000000000000000000000000000000000000000000000000000000000000000000000000000000000000000000000000000000000000000000000000000000000000000000000000000000000000000000000000000000000000000000000000000000000000000000000000000000000000000000000000000000000000000000000000000000000000000000000000000000000000000000000000000000000000000000000000000000000000000000000000000000000000000000000000000000000000000000000000000000000000000000000000000000000000000000000000000000000000000000000000000000000000000000000000000000000000000000000000000000000000000000000000000000000000000000000000000000000000000000000000000000000000000000000000000000000000000000000000000000000000000000000000000000000000000000000000000000000000000000000000000000000000000000000000000000000000000000000000000000000000000000000000000000000000000000000000000000000000000000000000000000000000000000000000000000000000000000000000000000000000000000000000000000000000000000000000000000000000000000000000000000000000000000000000000000000000000000000000000000000000000000000000000000000000000000000000000000000000000000000000000000000000000000000000000000000000000000000000000000000000000000000000000000000000000000000000000000000000000000000000000000000000000000000000000000000000000000000000000000000000000000000000000000000000000000000000000000000000000000000000000000000000000000000000000000000000000000000000000000000000000000000000000000000000000000000000000000000000000000000000000140000000000000000000000000000000000000000000000000000000000000000000000000000000000000000000000000000000000000000000000000000000000000000000000000000000000000000000000000000000000000000000000000000000000000000000000000000000000000000000000000000000000000000000000000000000000000000000000000000000000000000000000000000000000000000000000000000000000000000000000000000000000000000000000000000000000000000000000000000000000000000000000000000000000000000000000000000000000000000000000000000000000000000000000000000000000000000000000000000000000000000000000000000000000000000000000000000000000000000000000000000000000000000000000000000000000000000000000000000000000000000000000000000000000000000000000000000000000000000000000000000000000000000000000000000000000000000000000000000000000000000000000000000000000000000000000000000000000000000000000000000000000000000000000000000000000000000000000000000000000000000000000000000000000000000000000000000000000000000005454
#035961:0000000000000054
#036921:24
#0369a0:14
#036960:000000000000000000000000000000000000000000000000000000000000000000000000000000000000000000000000000000000000000000000000000000000000000000000000000000000000000000000000000000000000000000000000000000000000000000000000000000000000000000000000000000000000000000000000000000000000000000000000000000000000000000000000000000000000000000000000000000000000000000000000000000000000000000000000000000000000000000000000000000000000000000000000000000000000000000000000000000000000000000000054240000000000000000000000000000000000000000000000000000000000000000000000000000000000000000000000000000000000000000000000000000000000000000000000000000000000000000000000000000000000000000000000000000000000000000000000000000000000000000000000000000000000000000000000000000000000000000000000000000000000000000000000000000000000000000000000000000000000000000000000000000000000000000000000000000000000000000000000000000000000000000000000000000000000000000000000000000000000000000000000000000000000000000000000000000000000000000000000000000000000000000000000000000000000000000000000000000000000000000000000000000000000000000000000000000000000000000000000000000000000000000000000000000000000000000000000000000000000000000000000000000000000000000000000000000000000000000000000000000000000000000000000000000000000000000000000000000000000000000000000000000000000000000000000000000000000000000000000000000000000000000000000000000000000000000000000000000000000000000000000000000000000000000000000000000000000000000000000000000000000000000000000000000000000000000000000000000000000000000000000000000000000000000000000000000000000000000000000000000000000000000000000000000000000000000000000000000000000000000000000000000000000000000000000000000000000000000000000000000000000000000000000000000000000000000000000000000000000000000000000000000000000000000000000000000000000000000000000000000000000000000000000000000000000000000000000000000000000000000000000000000000000000000000000000000000000000000000000000000000000000000000000000000000000000000000000000000000000000000000000000000000000000000000000000000000000000000000000000000000000000000000000000000000000000000000000000000000000000000000000000000000000000000000000000000000000000000000000000000000000000000000000000000000000000000000000000000000000000000000000000000000000000000000000000000000000000000000000000000000000000000000000000000000000000000000000000000000000000000000000000000000000000000000000000000000000000000000000000000000000000000000000000000000000000000000000000000000000000000000000000000000000000000000000000000000000000000000000000000000000000000000000000000000000000000000000000000000000000000000000000000000000000000000000000000000000000000000000000000000000000000000000000000000000000000000000000000000000000000000000000000000000000000000000000000000000000000000000000000000000000000000000000000000000000000000000000000000000000000000000000000000000000000000000000000000000000000000000000000000000000000000000000000000000000000000000000000000000000000000000000000000000000000000000000000000000000000000000000000000000000000000000000000000000000000000000000000000000000000000000000000000000000000000000000000000000000000000000000000000000000000000000000000000000000000000000000000000000000000000000000000000000000000000000000000000000000000000000000000000000000000000000000000000000000000000000000000000000000000000000000000000000000000000000000000000000000000000000000000000000000000000000000000000000000000000000000000000000000000000000000000000000000000000000000000000000000000000000000000000000000000000000000000000000000000000000000000000000000000000000000000000000000000000000000000000000000000000000000000000000000000000000000000000000000000000000000000000000000000000000000000000000000000000000000000000000000000000000000000000000000000000000000000000000000000000000000000000000000000000000
#036921:0014000000000000
#036961:000000000000000000000000000000000000000000000000000000000000000000000000000000000000000000000000000000000000000000000000000000000000000000000000000000000000000000000000000000000000000000000000000000000000000000000000000000000000000000000000000000000000000000000000000000000000000000000000000000000000000000000000000000000000000000000000000000000000000000000000000000000000000000000000000000000000000000000000000000000000000000000000000000000000000000000000000000000000000000000000000000000000000000000000000000000000000000000000000000000000000000000000000000000000000000000000000000000000000000000000000000000000000000000000000000000000000000000000000000000000000000000000000000000000000000000000000000000000000000000000000000000000000000000000000000000000000000000000000000000000000000000000000000000000000000000000000000000000000000000000000000000000000000000000000000000000000000000000000000000000000000000000000000000000000000000000000000000000000000000054240000000000000000000000000000000000000000000000000000000000000000000000000000000000000000000000000000000000000000000000000000000000000000000000000000000000000000000000000000000000000000000000000000000000000000000000000000000000000000000000000000000000000000000000000000000000000000000000000000000000000000000000000000000000000000000000000000000000000000000000000000000000000000000000000000000000000000000000000000000000000000000000000000000000000000000000000000000000000000000000000000000000000000000000000000000000000000000000000000000000000000000000000000000000000000000000000000000000000000000000000000000000000000000000000000000000000000000000000000000000000000000000000000000000000000000000000000000000000000000000000000000000000000000000000000000000000000000000000000000000000000000000000000000000000000000000000000000000000000000000000000000000000000000000000000000000000000000000000000000000000000000000000000000000000000000000000000000000000000000000000000000000000000000000000000000000000000000000000000000000000000000000000000000000000000000000000000000000000000000000000000000000000000000000000000000000000000000000000000000000000000000000000000000000000000000000000000000000000000000000000000000000000000000000000000000000000000000000000000000000000000000000000000000000000000000000000000000000000000000000000000000000000000000000000000000000000000000000000000000000000000000000000000000000000000000000000000000000000000000000000000000000000000000000000000000000000000000000000000000000000000000000000000000000000000000000000000000000000000000000000000000000000000000000000000000000000000000000000000000000000000000000000000000000000000000000000000000000000000000000000000000000000000000000000000000000000000000000000000000000000000000000000000000000000000000000000000000000000000000000000000000000000000000000000000000000000000000000000000000000000000000000000000000000000000000000000000000000000000000000000000000000000000000000000000000000000000000000000000000000000000000000000000000000000000000000000000000000000000000000000000000000000000000000000000000000000000000000000000000000000000000000000000000000000000000000000000000000000000000000000000000000000000000000000000000000000000000000000000000000000000000000000000000000000000000000000000000000000000000000000000000000000000000000000000000000000000000000000000000000000000000000000000000000000000000000000000000000000000000000000000000000000000000000000000000000000000000000000000000000000000000000000000000000000000000000000000000000000000000000000000000000000000000000000000000000000000000000000000000000000000000000000000000000000000000000000000000000000000000000000000000000000000000000000000000000000000000000000000000000000000000000000000000000000000000000000000000000000000000000000000000000000000000000000000000000000000000000000000000000000000000000000000000000000000000000000000000000000000000000
