This file was generated by Ched 2.7.0.0.
#TITLE ""
#ARTIST ""
#DESIGNER ""
#DIFFICULTY 0
#PLAYLEVEL
#SONGID ""
#WAVE ""
#WAVEOFFSET 0
#JACKET ""
#REQUEST "ticks_per_beat 480"
#00002: 4
#BPM01: 114
#00008: 01
#TIL00: ""
#VOLUME: ""
#HISPEED 00
#MEASUREHS 00
#00412:0014001400000013
#00418:0000140000130000
#0041b:0013
#00415:00000013
#00410:41
#00517:14140000
#0051a:0014000000000000
#00512:0013
#00515:0000000000130000
#00518:00000013
#0051b:0000000000000013
#00614:14140000
#0061a:0014001400000000
#00612:0013
#00615:0000000000130000
#00618:00000013
#0061b:0000000000000013
#00715:14140013
#00712:0014000000000013
#0071b:0013
#00718:0000000000130000
#0081b:130000000000000033330033130000000000000000000000
#00818:000033330033130000000000000000000000000000000000
#00817:0000000000330000
#00912:130000000000000033330033130000000000000000000000
#00915:000033330033130000000000000000000000000000000000
#00916:0000000000330000
#0101b:130000000000000033330033130000000000000000000000
#01018:000033330033130000000000000000130000000000000000
#01012:130000000000000033330033130000000000000000000000
#01015:000033330033130000000000000000130000000000000000
#01112:1324
#01115:0013000000000000
#01118:00130000
#0111b:0000001300000000
#01110:41
#0121a:14
#01215:000013000000000000130000000000000000000000000000
#01218:000000130000000013000000000000000000000000000000
#01212:00130000
#01312:1414
#01318:000013000000000000130000000000000000000000000000
#01315:000000130000000013000000000000140000000000000000
#0131b:00130000
#01418:000000130000130000000000000013000013000000000000
#01415:000013000013000000000000000000130000130000000000
#0141b:13
#01412:0013
#01515:000000000000000034340034000000000000150000000000
#0151a:14
#01512:00140000
#01519:0025
#01517:000034340034000000000000000000000000000000000000
#01615:0013000000130000
#01618:00130013
#0161b:0000000000000013
#01610:41
#01712:1500000000000013
#01718:0013000000130000
#01715:00130013
#01819:15
#01815:0013000000130000
#01818:00130013
#0181b:0000000000000013
#02012:15
#02018:0013000000001300
#02015:0000130000000013
#0201b:0000000000130000
#02119:15
#02115:0013000000001300
#02118:0000130000000013
#02112:0000000000130000
#0221a:0000000014000034
#02217:00000014
#02418:000000130000130000000000000000000013000000130000
#02415:000000000013000000130000000000130000130000000000
#0241a:0014
#02412:24
#02410:41
#0261b:0013000000000000
#02615:000000000013000000130000000000000000130000000000
#02618:000000000000130000000000000000000013000000130000
#0261a:0014
#02612:2400000000130000
#02815:000000130000130000000000000000000013000000130000
#02818:000000000013000000130000000000130000130000000000
#02812:0014
#0281a:14
#02918:000000130000000013000000000000000000000000000000
#0291a:1424
#02915:000013000000000000130000000000000000000000000000
#02912:00140024
#02916:0000000000240000
#03015:0000131300000000
#03018:0000000000001313
#03317:00000034140034000000000000000000
#03315:00000000000000000000003414003400
#03312:00142400
#0331a:24000014
#03310:41
#03417:00000034140034000000000000000000
#03415:00000000000000000000003414003400
#03412:00142400
#0341a:24
#03612:14
#03616:0014000000000000
#0361a:00240000
#03715:0013000000000000
#03718:00130000
#03712:0000000000140000
#03716:00000014
#0371a:0000000000000014
#03812:1500000000000014
#03818:0013000000000000
#03815:00130000
#0381a:0000000000140000
#03816:00000014
#03919:15
#03915:0013000000000000
#03918:00130000
#03912:0000000000140000
#03916:00000014
#0391a:0000000000000014
#04112:1500000000000014
#04118:0013000000000000
#04115:00130000
#0411a:0000000000140000
#04116:00000014
#04219:15
#04215:0013000000000000
#04218:00130000
#04212:0000000000140000
#04216:00000014
#0421a:0000000000000014
#04014:0000001400000000000000000000000000000000000000000000000000000000
#04012:14000014000000000000000000000000
#04018:0000000000000000000000000000000000000014000000000000000000000000
#0401a:00000000000000001400001400000000
#04313:0000001400000000000000000000000000000000000000000000000000000000
#04315:14000014000000000000000000000000
#04317:0000000014000034
#0431a:00000014
#04417:14
#0441f:11
#0441a:0024
#04412:24
#04818:0014260000142600
#04814:0000001400000000
#04812:2626
#04918:000000130000130000000000000000000013000000130000
#04915:000000000013000000130000000000130000130000000000
#0491a:0014
#04912:14
#0491f:21
#04910:0041
#05015:000000130000000013000000000000000000000000000000
#05018:000013000000000000130000000000000000000000000000
#05012:2424
#05016:0000000000240000
#0501a:00240024
#05116:00140014
#05118:0000001400000000
#05114:0000000000000014
#05315:0000002414000000
#0531a:00000024000000001400000000000000
#05312:24
#05515:0000000000000000000000000000000000000000000000140000000000000000
#05512:2400000000240000
#05517:00000000000000000000000000240000
#0551a:24
#05617:0000000000000000000000000000000000000000000000140000000000000000
#0561a:0000000000240000
#05615:00000000000000000000000000240000
#05715:0000000000000000000000000000000000000000000000140000000000000000
#05712:0000000000240000
#05717:00000000000000000000000000240000
#0001a:24
#00012:24
#00014:0000000000240000
#00018:00000000000000000000000000240000
#00119:0000000000240000
#00113:00000000000000000000000000240000
#0271b:0023
#02718:0000000000230000
#02715:00000023
#02712:2300000000000023
#00212:0000000000240000
#0021a:00000000000000000000000000240000
#00313:00240000
#00319:00240000
#00314:0024
#00318:000000000000000000000000240000000000003434343434
#0031a:00000024
#00312:00000024
#0231a:24
#02319:0024
#02313:0024
#02512:2324
#02515:0023000000000000
#02518:00230000
#0251b:0000002300000000
#02516:0000000000240000
#0251a:00000024
#03112:24000000000000000000000000240000
#0311a:0000000000240000
#03219:00240000
#03213:00240000
#03218:0024
#03214:0024
#03212:00000024
#0321a:00000024
#03215:000000000000000000000000000000000000003434343434
#0351a:24000000000000000000006400000000
#03517:0000000064000064
#03518:00000000000000000064000000640000
#03519:0000000000646400
#05212:24
#0521a:0024
#05412:23
#05415:0023000023000023
#05418:00230023
#0541b:0000002300230000
#05815:00240000
#0581a:00240024
#05817:0024
#05812:0000000024000024
#05915:26
#01915:00000034000000000000000000000000
#01917:00000000000000000000003400000000
#04516:0033000000000000
#04512:0000000000330000
#04616:0033000000000000
#04612:0000000000330000
#04717:0033000000000000
#0471b:0000000000330000
#00158:14
#00154:14
#00259:14
#00253:14
#01152:0064
#01155:00000014
#05652:14
#05657:1400000000000000000000000000000000000000000000240000000000000000
#0565a:0000000000540000
#05655:00000000000000000000000000540000
#05552:1400000000640000
#05557:00000000000000000000000000640000
#0555a:14
#05555:0000000000000000000000000000000000000000000000240000000000000000
#00352:14
#0035a:14000064
#00359:00140000
#00353:00140000
#00354:0014
#00358:0014
#00458:14
#00557:64640000
#0055a:0064000000000000
#00755:54540000
#00752:0054000000000000
#0085b:6363
#00858:00630000
#00857:00000013
#00952:5353
#00955:00530000
#00956:00000013
#0105b:63006313
#01058:0000630000230000
#01052:53005313
#01055:0000530000230000
#0125a:00000014
#01252:00000014
#01352:00006414
#01355:0000000000640000
#01458:00630000
#01455:00000053
#01555:00000025
#01559:0055
#0155a:64
#01552:00540000
#01659:45
#0165b:00000000000000130000000000000000
#01658:00630000
#01752:35000000000000130000000000000000
#01755:00530000
#01859:45
#01858:00630000
#0185b:00000000000000130000000000000000
#02052:35000000000000130000000000000000
#02055:00530000
#02159:45
#02158:00630000
#0215b:00000000000000130000000000000000
#0225a:0064
#02257:00000064
#0235a:14
#02359:00000014
#02353:00000014
#02452:14
#0255a:00000014
#02652:14
#0285a:14
#03152:14
#03259:00140000
#03253:00140000
#03258:0014
#03254:0014
#03252:14000054
#0325a:14
#0335a:64
#03357:00240000
#03355:00000024
#03352:0054
#03457:00240000
#0345a:64
#03455:00000024
#03452:0054
#0355a:64
#03758:00630000
#0375b:00000000000000130000000000000000
#0375a:14
#03852:35000000000000130000000000000000
#03855:00530000
#03959:45
#03958:00630000
#0395b:00000000000000130000000000000000
#04152:35000000000000130000000000000000
#04155:00530000
#04259:45
#04258:00630000
#0425b:00000000000000130000000000000000
#04052:64000064000000000000000000000000
#04054:0000002400000000000000000000000000000000000000000000000000000000
#04058:0000000000000000000000000000000000000024000000000000000000000000
#0405a:00000000000000005400005400000000
#04353:0000002400000000000000000000000000000000000000000000000000000000
#04355:54000054000000000000000000000000
#04357:0054
#0435a:00000054
#0445a:0014
#04455:0014
#04457:64
#04452:64
#04852:1616
#04858:00160016
#04952:14
#05252:64
#0525a:0054
#05355:0064
#0535a:0064
#0575a:14
#05755:1400000000000000000000000000000000000000000000240000000000000000
#05752:0000000000640000
#05757:00000000000000000000000000640000
#05852:1414
#05857:1414
#05855:00140000
#0585a:00140000
#05956:0014
#05955:66
#02752:63
#000340:0000000000140000
#001340:24
#000381:00000000000000000000000000140000
#001381:24
#001391:0000000000140000
#002391:24
#001330:00000000000000000000000000140000
#002330:24
#002320:0000000000140000
#003320:24
#0023a1:00000000000000000000000000140000
#0033a1:24
#0033a1:00000014
#003381:000000000000000000000000000000000000003434343434
#004381:24
#005371:14340000
#0053a1:0034002400000000
#007351:14340000
#007321:0034002400000000
#0083b1:130000000000000033330033330000000000000000000000
#008381:000033330033330000000000000000000000000000000000
#008371:0000000000332300
#009321:130000000000000033330033330000000000000000000000
#009351:000033330033330000000000000000000000000000000000
#009361:0000000000332300
#0103b1:130000000000000033330033330000000000230000000000
#010381:000033330033330000000000000000330000000000000000
#010320:130000000000000033330033330000000000230000000000
#010350:000033330033330000000000000000330000000000000000
#011320:0014
#011350:00000024
#0123a0:000000000000143434240000
#012321:000000000000143434240000
#013321:00001424
#013351:0000000000340000
#014381:00130000
#0143b1:0000002300000000
#014351:00000013
#014321:0000000000000023
#0153a1:14
#015371:000034340034240000000000000000000000000000000000
#015320:00140000
#015350:000000000000000034340034240000000000000000000000
#015391:0015
#015351:00000055
#016391:25
#016381:00130000
#0163b1:00000000000000230000000000000000
#017351:00130000
#017321:00000000000000230000000000000000
#018381:00130000
#0183b1:00000000000000230000000000000000
#019321:14
#019351:00000034000024000000000000000000
#0193a1:0014
#019371:00000000000000000000003400002400
#020351:00130000
#020321:00000000000000230000000000000000
#021381:00130000
#0213b1:00000000000000230000000000000000
#022321:1400002400000000
#022351:00000034000000000000000000000000
#0223a1:0000000014000034
#022371:00000034
#0233a1:24
#023391:0000000000000000000000000000000014000034000034002400000000000000
#023330:0000000000000000000000000000000014000034000034002400000000000000
#027320:13
#027350:00230000
#029320:00000014
#030320:24
#0303a1:1424
#030320:0014
#031320:24
#0313a0:0000000000140000
#0323a0:24
#031321:00000000000000000000000000140000
#032321:24
#032321:00000014
#032351:000000000000000000000000000000000000003434343434
#033351:24
#0333a0:1424
#033370:00000034540034000000000000000000
#033321:0014
#033351:00000000000000000000003454003400
#034321:24
#0343a0:1424
#034370:00000034540034000000000000000000
#034321:0014
#034351:00000000000000000000003454003400
#035321:24
#0353a0:14
#035370:00540000000000002400000000000000
#0363a0:000000000000145454545454545454545454545454545454
#0363b0:000000000000000000000000005200520052005200520052005200520052005200520052005200520052005200520052
#0373a0:24
#037380:00130000
#0373b0:00000000000000230000000000000000
#038350:00130000
#038320:00000000000000230000000000000000
#039380:00130000
#0393b0:00000000000000230000000000000000
#040320:14000034000000000000000000000000
#040340:0000005400000000000000000000000000000000000000000000000000000000
#040350:0000002400000000
#0403a0:00000000000000001400003400000000
#040380:0000000000000000000000000000000000000054000000000000000000000000
#040370:0000000000000024
#041350:00130000
#041320:00000000000000230000000000000000
#042380:00130000
#0423b0:00000000000000230000000000000000
#043350:14000034000000000000000000000000
#043330:0000005400000000000000000000000000000000000000000000000000000000
#043320:0000002400000000
#043370:0000000014000034
#0433a0:00000034
#044370:34
#0443a0:0024
#044321:14
#044351:0024
#045321:1300000000330033
#045361:0033003300000000
#046361:0033003300000000
#046321:0000000000330023
#0473b1:1300000000330023
#047371:0033003300000000
#0503a1:00000014
#0513a1:24
#051320:1424
#0513a1:0014
#0523a1:24
#052320:14
#052360:0000002400000000
#0523a0:0014
#052360:0000000000000024
#0533a0:00000014000000003400000000000000
#053370:00000024
#053351:0000001434000000
#053321:00000024
#055321:00000000000000000000140000340000
#055351:0000000000000000000000000000000000000000000000540000000000000000
#056321:24
#055370:00000000000000000000000000140000
#056370:24
#0563a0:00000000000000000000140000340000
#056370:0000000000000000000000000000000000000000000000540000000000000000
#0573a0:24
#056351:00000000000000000000000000140000
#057351:24
#057321:00000000000000000000140000340000
#057351:0000000000000000000000000000000000000000000000540000000000000000
#058321:24
#057370:00000000000000000000000000140000
#058370:24
#059350:16
#059360:0024
#035970:000000000000000000000000000000000000000000000000000000000000000000000000000000000000000000000000000000000000000000000000000000000000000000000000000000000000000000000000000000000000000000000000000000000000000000000000000000000000000000000000000000000000000000000000000000000000000000000000000000000000000000000000000000000000000000000000000000000000000000000000000000000000000000000000000000000000000000000000000000000000000000000000000000000000000000000000000000000000000000000000000000000000000000000000000000000000000000000000000000000000000000000000000000000000000000000000000000000000000000000000000000000000000000000000000000000000000000000000000000000000000000000000000000000000000000000000000000000000000000000000000000000000000000000000000000000000000000000000000000000000000000000000000000000000000000000000000000000000000000000000000000000000000000000000000000000000000000000000000000000000000000000000000000000000000000000000000000000000000000000000000000000000000000000000000000000000000000000000000000000000000000000000000000000000000000000000000000000000000000000000000000000000000000000000000000000000000000000000000000000000000000000000000000000000000000000000000000000000000000000000000000000000000000000000000000000000000000000000000000000000000000000000000000000000000000000000000000000000000000000000000000000000000000000000000000000000000000000000000000000000000000000000000000000000000000000000000000000000000000000000000000000000000000000000000000000000000000000000000000000000000000000000000000000000000000000000000000000000000000000000000000000000000000000000000000000000000000000000000000000000000000000000000000000000000000000000000000000000000000000000000000000000000000000000000000000000000000000000000000000000000000000000000000000000000000000000000000000000000000000000000000000000000000000000000000000000000000000000000000000000000000000000000000000000000000000000000000000000000000000000140000000000000000000000000000000000000000000000000000000000000000000000000000000000000000000000000000000000000000000000000000000000000000000000000000000000000000000000000000000000000000000000000000000000000000000000000000000000000000000000000000000000000000000000000000000000000000000000000000000000000000000000000000000000000000000000000000000000000000000000000000000000000000000000000000000000000000000000000000000000000000000000000000000000000000000000000000000000000000000000000000000000000000000000000000000000000000000000000000000000000000000000000000000000000000000000000000000000000000000000000000000000000000000000000000000000000000000000000000000000000000000000000000000000000000000000000000000000000000000000000000000000000000000000000000000000000000000000000000000000000000000000000000000000000000000000000000000000000000000000000000000000000000000000000000000000000000000000000000000000000000000000000000000000000000000000000000000000000000000000000000000000000000000000000000000000000000000000000000000000000000000000000000000000000000000000000000000000000000000000000000000000000000000000000000000000000000000000000000000000000000000000000000000000000000000000000000000000000000000000000000000000000000000000000000000000000000000000000000000000000000000000000000000000000000000000000000000000000000000000000000000000000000000000000000000000000000000000000000000000000000000000000000000000000000000000000000000000000000545454240000000000000000000000000000000000000000000000000000000000000000000000000000000000000000000000000000000000000000000000000000000000000000000000000000000000000000000000000000000000000000000000000000000000000000000000000000000000000000000000000000000000000000000000000000000000000000000000000000000000000000000000000000000000000000000000000000000000000000000000000000000000000000000000000000000000000000000000000000000000000000000000000000000000000000000000000000000000000000000000
#0359a0:00000000000000000000005400000000
