This file was generated by Ched 2.7.0.0.
#TITLE ""
#ARTIST ""
#DESIGNER ""
#DIFFICULTY 0
#PLAYLEVEL
#SONGID ""
#WAVE ""
#WAVEOFFSET 0
#JACKET ""
#REQUEST "ticks_per_beat 480"
#00002: 4
#BPM01: 225
#BPM02: 230
#BPM03: 240
#BPM04: 250
#BPM05: 260
#BPM06: 270
#00008: 01
#11308: 04030201
#10708: 00000002
#10808: 00000003
#10908: 00000004
#11008: 00000005
#11108: 00000006
#TIL00: ""
#VOLUME: ""
#HISPEED 00
#MEASUREHS 00
#0051a:14
#00614:14
#00718:14
#00812:14
#00918:14
#01014:14
#0111a:14
#01418:0014
#01514:0014
#0161a:0014
#01712:0014
#01818:0014
#02214:0014
#02318:0014
#02412:0014
#0251a:0014
#02614:0014
#0211a:0014
#04512:00160000
#04518:00000016
#04612:00160000
#04818:00000016
#04912:00160000
#04918:00000016
#05012:00160000
#05018:00000016
#05118:00160000
#05112:00000026
#05618:00000016
#05712:00160000
#05718:00000016
#05812:00160000
#05818:00000026
#06712:00140000
#06718:00000014
#06812:00140000
#0691a:00140000
#06914:00000014
#0701a:00140000
#07112:00140000
#07118:00000014
#07212:00140000
#07218:00000014
#07312:00160000
#07318:00000016
#07412:00160000
#07418:00000016
#0811a:00140000
#08214:00140000
#08318:00140000
#08412:00140000
#08418:00000014
#08514:00140000
#0851a:00000014
#08612:00140000
#08812:00000016
#08818:00260000
#0881f:00210000
#08918:00160000
#08912:00000016
#08910:00410000
#09218:00160000
#09212:00000016
#09318:00160000
#09312:00000016
#09418:00160016
#10018:00160000
#10012:00000016
#10118:00160000
#10112:00000016
#1061a:00000014
#10714:00140000
#10812:00000014
#10918:00140000
#1101a:00000014
#11114:00140000
#11212:00000014
#11318:00140000
#11312:00000026
#0771f:00110000
#04219:0000000000000024
#04213:0000000000000024
#04418:00000026
#04410:00000041
#05218:26
#05212:00260000
#05918:00260026
#06012:26000026
#06018:00260000
#06112:00260026
#06218:26
#06212:00260000
#06210:00410000
#07513:0000002400000000
#07519:0000002400000000
#07510:0041
#09512:00260026
#09518:0026
#10218:00260026
#10318:00260026
#10312:0026
#10412:00260026
#10512:00260026
#10518:0026
#11418:26
#11412:00260000
#03812:0000000000340000
#01310:0041
#03010:00000041
#001390:14
#002390:24
#003330:14
#004330:24
#012320:14
#013320:0024
#019340:0014
#020340:0024
#027380:0014
#028380:00003434
#029390:34
#029380:00340034
#029370:0034
#030390:34
#030380:00240000
#030340:00000014
#031330:54
#031340:00340034
#031350:0054
#032330:54
#032340:00340034
#032350:0054
#033330:54
#033340:00240000
#033380:00000014
#034390:54
#034380:00340034
#034370:0054
#035390:54
#035380:00340024
#035370:0054
#036330:00140000
#036340:0000000000340034
#037340:34340000
#037330:0034
#037320:0000000000003434
#038320:0034340034340000
#038330:00000024
#043390:0000000000140034
#044390:3434240000000000
#043331:0000000000140034
#044331:3434240000000000
#046381:00000016
#047381:00260000
#047321:00000016
#048321:00260000
#052381:00000016
#053381:00260000
#053321:00000016
#054321:00260000
#054381:00000016
#055381:00260000
#055321:00000016
#056321:00260000
#0623a1:00000014
#063381:00000034
#0643a1:00000034
#065381:00000024
#075331:0000001400000000
#076331:0000002400000000
#075390:0000001400000000
#076390:0000002400000000
#077390:00140000
#078390:00240000
#079330:00140000
#080330:00240000
#090380:00160026
#091320:00160026
#096380:00160026
#097320:00160026
#098380:00160026
#099320:00160026
#1073a0:00000014
#1083a0:00240000
#109320:00000014
#110320:00240000
#1113a0:00000014
#1123a0:00240000
#114380:0016
#120390:00000024
