This file was generated by Ched 2.7.0.0.
#TITLE ""
#ARTIST ""
#DESIGNER ""
#DIFFICULTY 0
#PLAYLEVEL
#SONGID ""
#WAVE ""
#WAVEOFFSET 0
#JACKET ""
#REQUEST "ticks_per_beat 480"
#00002: 4
#BPM01: 225
#BPM02: 230
#BPM03: 240
#BPM04: 250
#BPM05: 260
#BPM06: 270
#00008: 01
#11308: 04030201
#10708: 00000002
#10808: 00000003
#10908: 00000004
#11008: 00000005
#11108: 00000006
#TIL00: ""
#VOLUME: ""
#HISPEED 00
#MEASUREHS 00
#0001b:00000013
#00012:00000013
#0011b:1313
#00119:0013001300130013
#00117:00130013
#00212:1313
#00214:0013001300130013
#00216:00130013
#00317:1313
#00319:0013001300130013
#0031b:00130013
#00515:13
#0081b:00001313
#00812:00000013
#00917:13
#0091b:0000001313000000
#00912:1300000000000013
#00916:0013
#01017:13
#01012:1313
#01018:00130013
#01116:1300000000000013
#01117:0000001313000000
#01112:0013
#01216:1400000000140000
#0121a:0014000000000000
#01214:00140000
#01218:0000001400000000
#01212:0014
#01315:00130013
#01318:00130000
#01310:0041
#01412:1300000000130000
#01418:0000131300000000
#01415:00000000001300000000000000001300
#0141b:2300000000130000
#01512:0013000013000013
#01515:00130013
#01518:2300001300130000
#0151b:0013
#01615:0013000000000000
#01618:2300000000000013
#01715:0000130000001313
#01712:2313
#01718:0000000013130000
#0171b:00000013
#01812:1300000000130000
#01815:0000130000000013
#01818:2313001300000000
#0181b:0000000000130000
#01912:0013000000001300
#0191b:00130013
#01915:0000001313000000
#01918:2313
#02015:13
#02012:00130013
#02018:0013
#0201b:00130013
#02115:13
#02112:00730013
#0211b:0013
#02116:0013
#0221b:0000131300130000
#02212:1300000000130000
#02218:0000000000000013
#02217:13
#02215:00000000000000000000000000000013
#02312:0013000000002300
#0231b:00130013
#02318:2300001300130000
#02315:0000000013000013
#02418:0013000000130000
#0241b:0000001300000000
#02412:2300001300000013
#02512:2300130000000013
#02518:00130000
#02515:0013
#0251b:0013
#02612:13000013
#02618:0000001313000000
#02615:0000000000130000
#0261b:0000000000000013
#02715:0013000000000000
#02718:23131300
#02712:0013
#0271b:0000000000000013
#0281b:13
#02815:0000001300000000
#02816:00000014
#02812:00000024
#02914:14240000
#02918:24140000
#02916:0014
#0291a:0024
#02912:00000024
#03013:00000012
#03017:00000012
#03016:24
#0301a:00240000
#03010:00000041
#03117:12121200
#0311b:1212
#03113:00000012
#03217:12001212
#0321b:12120000
#03213:0012
#03313:12
#0331b:00120013
#03312:0013
#03316:00000013
#03317:1213
#03417:13
#0341b:00130013
#03412:0013
#03416:00130013
#0351b:13
#03517:00130013
#03516:0013
#03512:00130013
#0361b:1300232300000023
#03615:0000232300000023
#03612:0000000000230000
#03618:0000000000230000
#03918:1313000013130000
#03912:00130013000000000013001300000000
#0391b:0000131300001313
#03915:00000000001300130000000000130013
#04018:13131300
#04012:00130000001300000013000000000000
#0401b:0013001300130000
#04015:00000013000000130000000000000000
#04016:00000000000000000000001400000000
#04212:0000000000000013
#04218:0000000000000023
#0431b:13130000
#04312:0000001300000000
#04315:2300230000230000
#04318:0000002300000026
#04518:00001300240000001300000000000013
#04515:13000013000000000000000013001300
#04512:0013
#0451b:00000023
#04612:13
#04618:0013000000000013
#04615:00000013000000001300000000000000
#0461b:00130023
#04715:1300000000130000
#04712:0013230000002300
#0471b:0000001300001300
#04718:00000000000000000000000013000000000000000000000000000000000000001300000000000000000000000000000000000053000000000000000000000000
#0471a:00000000000000000000000000000000000000000000000000000000000000000000000000000000000000000000000000530000000000000000000000000000
#04719:0000000000000000000000000000000000000000000000000053000000000000
#04815:1313
#0481b:00130023
#04814:00530000000000000000000000000000000000000000000000000000000000000053000000000000000000000000000000000000000000000000000000000000
#04813:0053000000000000000000000000000000530000000000000000000000000000
#04812:00000053000000000000000000000000000000000000000000000000000000000000005300000000000000000000000000000000000000000000000000000000
#0481a:00000000000000000000000000000000005300000000000000000000000000000000000000000000000000000000000000000000000000000000000000000000
#04819:0000000000000000005300000000000000000000000000000000000000000000
#04818:00000000000000000000000000000000000000530000000000000000000000000000000000000000000000000000000000000000000000000000000000000000
#04912:0013230000000000
#04918:00000013000000001300000000130000
#04915:0000001300002313
#0491b:0000000000130000
#05018:13000000001300130000000000000000
#05012:0000231300002400
#05014:0000000000000024
#05116:2400000024000014
#05118:0024002400000000
#0511a:00240024
#05114:0000000000240000
#05112:00000024
#05216:0014000000000000
#05212:2400240000001454
#05217:00000013
#0521a:24240000
#05616:0000230000000014
#05614:0013000000000000
#05612:23001424
#0561a:5454545454000000
#0571a:1414
#05716:0014001400140014
#05712:24242424
#0581a:1400000014002424
#05816:0014001400140000
#05812:2400240024002424
#06212:00000013
#06214:2400000000000013
#06218:24
#0621a:00240000
#06216:00240000
#06210:00410000
#06316:13
#06314:0013000000000000
#06317:00130000
#06319:0000001300130000
#0631b:0013
#06416:00000013
#06414:0000000000000013
#06512:13
#06514:0013000000000000
#0651b:00130000
#06519:0000001300130000
#06517:0013
#06516:0000000000002424
#0751a:0000001300000013
#07513:00001313
#07515:00260000000023000000000000002300
#07518:00002323
#07512:2626000000000000
#07510:0041
#0771b:00120000
#07716:0000000000121200
#0771f:00110000
#07818:0012000000120000
#07816:00120012
#07814:0000001200000000
#0781a:0012
#07918:12120000
#07913:00120000
#0791b:00000012
#07916:00000012
#0861a:00140000
#08617:13
#08612:2424000000000000
#08714:00131313
#08719:00131313
#10017:0000001400000014
#10012:54241424
#10015:0000000000140000
#1001a:24241424
#10112:14241424
#10115:0014000000140000
#10117:0000001400000014
#1011a:14241424
#10212:1400242400002424
#10215:0014000000000000
#1021a:1400242400002424
#1061b:0000131300000000
#10615:00000000001300130000000000000000
#10618:0000000013130000
#10612:00000000000000000013001300000000
#1081a:00140024
#10816:0000001400140000
#10812:0014
#1101a:00140024
#11012:0014
#11014:0000000000160000
#11016:0000002600000000
#1121a:00140014
#11216:2400002800280000
#11212:0028
#11219:00000000000000000000000000540000
#11218:0000000000000054
#11217:00000000000000000000000000000054
#11312:1414
#1131a:00140024
#11316:54545454
#11313:00540000000000000054000000000000
#11314:0054000000540000
#11315:00000054000000000000005400000000
#11319:00000000005400000000000000000000
#11318:0000005400000000
#11317:00000000000000540000000000000000
#11418:0013
#11415:0013
#11416:24
#11412:00240000
#08312:0000001400002400
#08314:0000000000140000
#0831a:0000240000000014
#08316:2424
#08418:0014000000000000
#08416:24131300
#08419:00000013
#0841a:0000242424240000
#08414:0000000000002424
#08519:13
#08512:0000130013002424
#08517:00000013
#08514:2424000000000000
#08518:0000242424240000
#00712:13
#0541a:0000000014001454
#05419:0013000000000000
#05416:00000013
#0541b:23
#05417:00230000
#05412:5454545454000000
#0531b:00130000
#05319:0000000000000013
#05317:00000023
#05312:5454545454545454
#05512:00130000
#05514:0000000000000013
#05516:00000023
#0551a:5454545454545454
#0661b:00130013
#06612:0013
#06616:2424000000005300
#0661a:00000000005300000000000000530000
#06619:0000005300000053
#06618:00000000000000530000000000000053
#06617:0053
#06613:00000000000000000053000000000000
#06614:0000000000530000
#06615:00000000000000000000005300000000
#06715:0000001300000013
#06712:00231323
#06718:0000000000130000
#0671b:00002313
#06717:53535353530000000000000000000000
#06812:13000013
#06818:00001300001300130000130000000000
#06815:0000231313000000
#0681b:23000013
#0691b:13
#06918:000000130000000000000000000026000000000000130000
#06912:00260000
#06915:000000000026000000230000
#07012:13000013
#0701b:1300000000130000
#07015:0000130013000013
#07018:00000000001300130000000000000000
#07118:1300002323000000
#0711b:0013000000001313
#07112:0000001313000000
#07115:0000000000002323
#07212:1313
#07215:00001300000000000000005300000000
#0721b:00130013
#07218:23000000000000530000000000000053
#0721a:00000000005300000000000000530000
#07219:0000005300000053
#07217:0053
#07213:00000000000000000053000000000000
#07214:0000000000530000
#07216:00000053
#07312:1300242400000000
#07316:00000000002400240000000000240024
#0731a:0000000000002424
#07317:53
#08815:0000000000130000
#08818:00000000000000002300001300000000
#08812:00240000
#0881a:00240000
#08814:00000024
#0881f:00210000
#08918:00000000130013000000001300000000
#08915:13000000000000130000130000000000
#08912:00230013
#0891b:2323
#08910:00410000
#09018:1323
#09015:00000000000013000000001300000000
#0901b:0000000000132300
#09012:0000230000000013
#09118:0013000023000000
#09115:23000000000000000000000000000000000000630000000000000000000000000000000000000000000000000000000000000063000000000000000000000000
#0911b:00000000000000000000000000000000230000000000000000000000000000000000006300000000000000000000000000000000000000000000000000000000
#09112:00230023
#0911a:0000000000000000000000000000000000630000000000000000000000000000
#09119:00000000000000000000000000000000000000000000000000000000000000000063000000000000000000000000000000000000000000000000000000000000
#09114:0000000000000000006300000000000000000000000000000063000000000000
#09113:00000000000000000000000000000000006300000000000000000000000000000000000000000000000000000000000000630000000000000000000000000000
#0921b:00000063000000000000000000000000000000000000000000000000000000000000000000000000130000000000000023000000000000000000000000000000
#09215:00000000000000000000001300000000
#09218:2300000000000013
#09212:00230000
#0921a:0063000000000000000000000000000000000000000000000000000000000000
#09219:00630000000000000000000000000000000000000000000000000000000000000000000000000000000000000000000000000000000000000000000000000000
#09312:0013000000000000
#09315:23000000001300002300000000130013
#09318:0000231300000000
#0931b:0000000000002313
#09516:2400001400140000
#09518:0024000000000000
#0951a:00242424
#09512:00242424
#00412:2424242400000000
#00616:0000000000002424
#0371b:23
#03715:23000023
#03712:00230000
#03718:0000230023000023
#03812:0023000000002400
#03815:00230000
#0381a:0024
#03816:0000000000240000
#03818:0023000000000000
#0381b:00230000
#04412:26260024
#04418:0026000000000000
#0441a:00000024
#04410:00000041
#05912:0000242400000000
#0591a:0000242400002400
#05916:00000024
#06016:24240000
#06012:2400000000002424
#0601a:0000240000002424
#06112:0000242400002400
#0611a:0000242400000000
#06116:00000024
#07413:0000262600000000
#07417:00000000002600260000000000000000
#07418:0000000000002626
#07415:00000000000000000000000000260000
#07614:0000002400240000
#07618:0023000024000000
#0801b:00230000
#08015:00230000
#08014:0023
#08013:00000023
#0801a:0023
#08019:00000023
#08112:23000023
#08118:23
#0811b:00230000
#08115:00230000
#08116:0024
#08216:2424
#0821b:00230000
#08212:00000023
#10316:00242424
#10312:00240024
#1031a:0024
#1041a:0000242400002424
#10412:0000242400002424
#10516:00240024
#1051a:00240000
#10518:0024
#10514:0024
#10512:00000024
#0961a:0000245454545454
#09616:00230000
#09612:00000023
#09812:2400245454545454
#09817:00230000
#0981b:00000023
#0981a:54
#0941a:00240000
#09418:0000002400000000
#09416:0024
#09414:0000000000240024
#09412:00000024
#09716:00230023
#09714:0000002300230000
#09712:0023
#0971a:5454545454545454
#09917:00230023
#09919:0000002300230000
#0991b:0023
#09912:5454545454545454
#10918:00240000
#10912:0024
#11114:24
#11112:0024
#1111a:00000024
#12012:00000073
#1201b:00000073
#0015b:2323
#00159:0053005300530053
#00157:00230023
#00252:2323
#00254:0063006300630063
#00256:00230023
#00357:2323
#00359:0063006300630063
#0035b:00230023
#00952:53
#0095b:0063
#01052:5353
#01058:00530053
#01156:63
#01157:0053
#01355:00530000
#01358:00530000
#0145b:0000000000130000
#01452:0000000000130000
#01655:0063000000000000
#01658:0000000000000053
#01755:00130000
#0175b:00130000
#01852:0000000000130000
#0185b:0000000000130000
#01958:0053
#0195b:00000023
#02055:63
#02052:00230000
#02058:0053
#0205b:00000023
#02155:53
#0215b:0053
#0225b:0000000000130000
#02252:5300000000130000
#02458:0000000000530000
#02452:0000005300000000
#0255b:1353
#02652:63
#02752:0063
#0285b:53
#02852:00000014
#03053:00000052
#03056:14
#0305a:00140000
#03157:52520000
#0315b:0052
#03153:00000052
#03257:52006262
#0325b:00620000
#03353:62
#03352:0053
#03356:00000053
#03457:53
#0345b:00530000
#03452:0053
#03456:00000053
#0355b:63
#03557:00630000
#03556:0063
#03552:00000063
#0465b:00530000
#04655:0053
#05058:13
#06252:00000023
#06254:0000000000000053
#06258:14
#06256:00140000
#06356:23
#06354:0053000000000000
#06357:00230000
#06359:0000005300530000
#0635b:0023
#06456:00000023
#06454:0000000000000063
#06552:23
#06554:0063000000000000
#0655b:00230000
#06559:0000006300630000
#06557:0023
#0775b:00520000
#07756:00000052
#07856:00000052
#07953:00520000
#07958:00520000
#0795b:00000062
#07956:00000062
#0865a:00140000
#11458:0053
#11455:0063
#11456:14
#11452:00140000
#05257:00000053
#05252:14
#0525a:00140000
#0535b:00230000
#05456:00000063
#05552:00230000
#07052:13
#0705b:13
#0715b:0013000000000000
#08952:00000063
#09058:63
#02958:14
#02954:00140000
#0295a:0014
#02952:00000014
#04355:13
#04358:0000001300000000
#04452:00160014
#0445a:00000014
#04558:00140000
#0515a:00000014
#05852:0000000000000014
#0585a:0000000000000014
#05952:0000001400000000
#0595a:0000001400001400
#06052:1400000000000014
#0605a:0000140000000014
#06152:0000001400001400
#0615a:0000001400000000
#07558:0013
#07555:0000000000000013
#08156:0014
#08256:1414
#08356:1414
#08456:14
#1025a:0000001400000014
#10252:0000001400000014
#10352:00140014
#1035a:0014
#1045a:0000001400000014
#10452:0000001400000014
#1055a:00140000
#10554:0014
#10556:00000014
#1135a:00000014
#08852:00140000
#0885a:00140000
#08854:00000014
#0955a:0014
#09552:00140014
#09656:00530000
#09652:00000023
#09857:00630000
#0985b:00000023
#04852:00000013
#0485b:00000013
#09252:00130000
#0925b:00130000
#09355:0013
#04056:00000000000000000000005400000000
#0013b0:1333
#001390:0033003300330033
#001370:00330033
#0023b0:23
#002321:1333
#002341:0033003300330033
#002361:00330033
#003321:23
#003370:1333
#003390:0033003300330033
#0033b0:00330033
#004370:23
#0053b0:13230000
#005351:00132300
#005380:00001323
#005321:00000013
#006321:23
#006380:13230000
#006351:00132300
#0063b0:00001323
#007380:13230000
#007351:00132300
#0073b0:00001323
#007321:00000013
#008321:23
#008380:13230000
#008351:00132300
#009321:13
#009361:0000002300000000
#0093b1:0013
#009371:0000000000000023
#010321:13
#010351:00230000
#010380:00130000
#0103b0:0023
#010321:0013
#010351:00000023
#010380:00000013
#0113b0:23
#011361:13
#011321:0000002300000000
#011371:0013
#0113b1:0000000000000023
#013381:00130000
#0133b1:0023
#013350:00130000
#013320:0023
#016350:0013000000000000
#016320:0000002300000000
#016381:0000001300230000
#016350:0000000000130023
#016381:0000000000000013
#0173b1:00230000
#019381:0013
#0193b1:00000053
#020381:23
#020350:1323
#020320:00530000
#020381:0013
#0203b1:00000053
#021381:23
#021350:13
#021320:00230000
#0213b0:0013
#021370:00000023
#022320:13
#022360:00230000
#024320:0000001300000000
#024350:0000000000230000
#024381:0000000000130000
#0253b1:23
#0253b1:0013
#025381:0000000000530000
#026381:23
#026320:13
#026350:0053002300000000
#027320:0013
#027350:0000000000530000
#028350:23
#0283b1:13
#028381:0053002300000000
#030331:00000012
#031371:32
#031331:00220000
#031370:00120022
#0313b0:0032
#031331:00000012
#032371:32
#032331:00220000
#0323b0:00120022
#032370:0032
#032371:00000012
#033331:32
#033371:00220000
#033321:0013
#033361:00000033
#034321:23
#034370:1323
#0343b0:00330000
#034321:0013
#034361:00000033
#035321:23
#0353b0:1323
#035370:00330000
#035361:0013
#035321:00000033
#036361:23
#037321:00130000
#037351:0023
#037380:0013
#0373b0:00000023
#040360:00000000000000000000001400000000
#042320:00230000
#043350:0000000000130023
#0463b0:00130000
#046380:0023
#046351:0013
#046321:00000023
#047381:00000000000000000000000000000000000000000000000000000000000000000000000000000000000000000000000000000013000000000000000000000000
#048381:23
#048321:00000013000000000000000000000000230000000000000000000000000000000000000000000000000000000000000000000000000000000000000000000000
#048381:00000000000000000000000000000000000000130000000000000000000000002300000000000000000000000000000000000000000000000000000000000000
#048321:00000000000000000000000000000000000000000000000000000000000000000000001300000000000000000000000023000000000000000000000000000000
#050321:0013
#050351:0000000000230000
#0503b0:0000000000130000
#050380:00000023
#052370:00000013
#0533b0:0023000000000000
#0533b0:00130000
#053370:0000000000230000
#054360:00000013
#055320:0023000000000000
#055320:00130000
#055360:0000000000230000
#062320:00000013
#062340:0000000000000053
#063360:33
#063340:0053000000000000
#063320:00230000
#063371:00130023
#063391:0000005300530000
#0633b1:0033
#063320:00000013
#064350:23
#064381:13
#0643b1:00230000
#064320:00130000
#064350:0023
#064381:0013
#0643b1:00000023
#064360:00000013
#064340:0000000000000053
#065320:33
#065340:0053000000000000
#065360:00230000
#0653b1:00130023
#065391:0000005300530000
#065371:0033
#076381:0013002300000000
#0773b1:00120000
#077381:0000000000220000
#077361:00000012
#078331:0022000000000000
#078361:00000012
#079331:22
#079381:00120000
#0793b1:0022
#079330:00120000
#079360:0022
#079360:00000012
#080330:22
#0793b1:00000012
#080381:22
#0813b1:00132300
#081321:00000013
#082321:23
#0823b1:00132300
#082321:00000013
#083321:23
#089321:00000013
#090351:23
#090380:13
#0903b0:00230000
#091350:00000000000000000000000000000000000000130000000000000000000000002300000000000000000000000000000000000000000000000000000000000000
#0913b0:00000000000000000000000000000000000000000000000000000000000000000000001300000000000000000000000023000000000000000000000000000000
#091350:00000000000000000000000000000000000000000000000000000000000000000000000000000000000000000000000000000013000000000000000000000000
#092350:23
#0923b0:00000013000000000000000000000000230000000000000000000000000000000000000000000000000000000000000000000000000000000000000000000000
#0943b0:13
#094380:0023000000000000
#094321:0013000000000000
#094351:00230000
#096361:00130000
#096321:0000000000230000
#096321:00000013
#097361:0023000000000000
#098371:00130000
#0983b1:0000000000230000
#0983b1:00000013
#099371:0023000000000000
#1063a1:00000014
#1073a1:24
#107340:14240000
#107381:00142400
#107320:00001424
#1073a1:00000014
#1083a1:24
#108360:14240000
#1083a0:00000014
#1093a0:24
#109341:1454545454545454240000000000000000000000000000000000000000000000
#109351:00540054005400540054005400540054000000000000000000000000000000000000000000000000000000000000000000000000000000000000000000000000
#109380:00142400
#109321:00001424
#1093a0:0000000000000000000000000000000000000000000000001454545454545454
#109390:00000000000000000000000000000000000000000000000000000000000000000000000000000000000000000000000000540054005400540054005400540054
#1103a0:24
#110361:14240000
#1103a1:0000000000000000000000000000000000000000000000001454545454545454
#110391:00000000000000000000000000000000000000000000000000000000000000000000000000000000000000000000000000540054005400540054005400540054
#1113a1:24
#111340:14240000
#111381:0000000000000000145454545454545424000000000000000000000000000000
#111391:00000000000000000000000000000000005400540054005400540054005400540000000000000000000000000000000000000000000000000000000000000000
#111320:0000000000000000000000000000000014545454545454542400000000000000
#111330:00000000000000000000000000000000000000000000000000000000000000000054005400540054005400540054005400000000000000000000000000000000
#1113a1:00000014
#1123a1:24
#112360:1454545454545454240000000000000000000000000000000000000000000000
#112350:00540054005400540054005400540054000000000000000000000000000000000000000000000000000000000000000000000000000000000000000000000000
#114380:0013
#1203b0:00000023
#114351:0013
#120321:00000023
#052920:00000014
#054920:000000000000000000000000000000000000000000000000000000000000000000000000000000000000000000000000000000000000000000000000000000000000000000000000000000000000000000000000000000000000000000000000000000000000000000000000000000000000000000000000000000000000000000000000000000000000000000000000000000000000000000000000000000000000000000000000000000000000000000000000000000000000000000000000000000000000000000000000000000000000000000000000000000000000000000000000000000000000000000545454240000000000000000000000000000000000000000000000000000000000000000000000000000000000000000000000000000000000000000000000000000000000000000000000000000000000000000000000000000000000000000000000000000000000000000000000000000000000000000000000000000000000000000000000000000000000000000000000000000000000000000000000000000000000000000000000000000000000000000000000000000000000000000000000000000000000000000000000000000000000000000000000000000000000000000000000000000000000000000000000
#0549a0:00000014
#0569a0:000000000000000000000000000000000000000000000000000000000000000000000000000000000000000000000000000000000000000000000000000000000000000000000000000000000000000000000000000000000000000000000000000000000000000000000000000000000000000000000000000000000000000000000000000000000000000000000000000000000000000000000000000000000000000000000000000000000000000000000000000000000000000000000000000000000000000000000000000000000000000000000000000000000000000000000000000000000000000000545454240000000000000000000000000000000000000000000000000000000000000000000000000000000000000000000000000000000000000000000000000000000000000000000000000000000000000000000000000000000000000000000000000000000000000000000000000000000000000000000000000000000000000000000000000000000000000000000000000000000000000000000000000000000000000000000000000000000000000000000000000000000000000000000000000000000000000000000000000000000000000000000000000000000000000000000000000000000000000000000000
#0669b0:00130000
#066970:0023
#066921:0013
#066961:00000023
#0669b0:00000013
#067970:53230000
#0729b0:00130000
#072970:0023
#072921:0013
#072961:00000023
#0729b0:00000013
#073970:23
#0969a0:00140000
#0979a0:000000000000000000000000000000000000000000000000000000000000000000000000000000000000000000000000000000000000000000000000000000000000000000000000000000000000000000000000000000000000000000000000000000000000000000000000000000000000000000000000000000000000000000000000000000000000000000000000000000000000000000000000000000000000000000000000000000000000000000000000000000000000000000000000000000000000000000000000000000000000000000000000000000000000000000000000000000000000000000000000000000000000000000000000000000000000000000000000000000000000000000000000000000000000000000000000000000000000000000000000000000000000000000000000000000000000000000000000000000000000000000000000000000000000000000000000000000000000000000000000000000000000000000000000000000000000000000000000000000000000000000000000000000000000000000000000000000000000000000000000000000000000000000000000000000000000000000000000000000000000000000000000000000000000000000000000000000000000000000545454
#0989a0:24
#098920:00140000
#099920:000000000000000000000000000000000000000000000000000000000000000000000000000000000000000000000000000000000000000000000000000000000000000000000000000000000000000000000000000000000000000000000000000000000000000000000000000000000000000000000000000000000000000000000000000000000000000000000000000000000000000000000000000000000000000000000000000000000000000000000000000000000000000000000000000000000000000000000000000000000000000000000000000000000000000000000000000000000000000000000000000000000000000000000000000000000000000000000000000000000000000000000000000000000000000000000000000000000000000000000000000000000000000000000000000000000000000000000000000000000000000000000000000000000000000000000000000000000000000000000000000000000000000000000000000000000000000000000000000000000000000000000000000000000000000000000000000000000000000000000000000000000000000000000000000000000000000000000000000000000000000000000000000000000000000000000000000000000000000000545454
#100920:24
#1129a0:00000014
#113960:24
#113921:14
#113961:00240000
#1139a0:00140000
#113960:0024
#113921:0014
#113961:00000024
#120971:0000000000000000000000000000000000000000000000001252000052000000
#120961:00000000000000000000000000520000
#120981:0000000000000000000000000000000000000000000000000000005200000000
#121971:0052000052000000000000000000000000000000000000520000520000000000
#121951:00520000000000000000000000000000
#121991:0000005200000000000000000000000000000000000000000000000000000000
#121961:00000052
#121981:0000000000000000000000000000000000000000000000000052000000000000
#122971:0000520000520000000000000000000000000000000000522200000000000000
#122951:0000005200000000000000000000000000000000000000000000000000000000
#122991:0052000000000000
