This file was generated by Ched 2.7.0.0.
#TITLE ""
#ARTIST ""
#DESIGNER ""
#DIFFICULTY 0
#PLAYLEVEL
#SONGID ""
#WAVE ""
#WAVEOFFSET 0
#JACKET ""
#REQUEST "ticks_per_beat 480"
#00002: 4
#BPM01: 225
#BPM02: 230
#BPM03: 240
#BPM04: 250
#BPM05: 260
#BPM06: 270
#00008: 01
#11308: 04030201
#10708: 00000002
#10808: 00000003
#10908: 00000004
#11008: 00000005
#11108: 00000006
#TIL00: ""
#VOLUME: ""
#HISPEED 00
#MEASUREHS 00
#00112:14000014
#00114:00140000
#00113:0014
#0021a:14000014
#00218:00140000
#00219:0014
#00312:14000014
#00314:00140000
#00313:0014
#0051a:14
#00514:00140000
#00518:0014
#00512:00000014
#00618:1400000000000024
#00614:00140024
#0061a:0014
#00712:14
#00718:00140000
#00714:0014
#0071a:00000014
#00814:14
#00818:00140000
#00812:0014
#0081a:00000014
#00915:13
#00912:0013
#01018:00130000
#01012:0013
#01015:00000013
#01118:13
#0111b:0013
#01212:1313
#01218:0013000000130000
#01215:00130000
#0121b:0000001300000000
#01315:00130000
#01318:00000013
#01310:0041
#01415:1300001300000000
#01418:00130000
#0141b:0000000000130000
#01412:0000000000000013
#01518:13001313
#01515:0013001300000013
#0151b:00130000
#01512:0000000000130000
#0161b:13
#01615:0013000000000013
#01618:0000000000130000
#0171b:00130000
#01712:00130000
#01715:00000013
#01718:0013
#01818:1300001300000000
#01815:00130000
#01812:0000000000130000
#0181b:0000000000000013
#01915:1313
#01918:0013001300000000
#01912:00130000
#02018:13
#02012:0013
#02118:13
#02112:0013
#0211b:0013
#02115:00000013
#0221b:1300000000130000
#02212:13
#02218:00130000
#02215:0000001300000013
#02318:1313
#02312:0013000000130000
#0231b:00130013
#02315:0000001300000013
#02418:1300000000130000
#02412:0013000000000013
#0251b:00130000
#02515:0013
#02612:13
#02618:0013
#02615:0000000000130000
#0261b:0000000000000013
#02712:0013
#02815:13
#0281a:00000024
#03012:24000014
#0301a:00240000
#03010:00000041
#03114:1414
#03116:00140000
#03112:00000014
#03214:1414
#03216:00140000
#03212:00000014
#03314:14
#03316:00140000
#0331a:00000014
#03418:1414
#03416:00140000
#0341a:00000014
#03518:1414
#03516:00140000
#0351a:00000014
#03618:14
#03612:0000242400000000
#03616:0000000000240000
#0361a:0000000000000024
#0381a:0000240000000014
#03812:00002424
#03816:0000000000240000
#04215:00130000
#04218:0000000000000024
#04415:00000013
#0441b:00000013
#04414:24240000
#04418:0024000000000000
#04410:00000041
#04518:00130013
#04512:00130000
#04515:0000000000000013
#04618:1300130000000013
#04615:0013000000000000
#04612:00000013
#04715:13130013
#0471b:0013000000000000
#04718:0000001300130000
#04712:0013
#04818:00130000
#04812:00000023
#0481b:00000023
#04915:0000130000000013
#04918:0000001300001300
#04912:0013
#0501b:13000013
#05015:0000130000000013
#05018:0000001300000000
#05012:0013
#0511a:13000024
#05114:0013000000000000
#05119:00130000
#05113:0000001300000000
#05118:0013
#05112:0000000000130000
#0521a:00000014
#05216:24
#05212:00240000
#05316:00140000
#0531a:00000024
#05412:00001414
#05414:24
#05418:00240000
#05516:00140000
#05512:00000024
#0561a:00001424
#05614:0000240000000014
#05618:24
#0571a:14241400
#05714:0014001400140000
#05712:0000000000000014
#05718:00000024
#05818:14241400
#05812:0014001400140000
#0581a:00000014
#05918:00140000
#05912:00140000
#05914:00000024
#0591a:00000024
#06114:00140000
#0611a:00140000
#06118:00000024
#06112:00000024
#06018:00240014
#06012:00240014
#06019:24
#06013:24
#06212:00000014
#06213:24
#06214:00240000
#06219:24
#0621a:00240000
#06210:00410000
#06314:1414
#06316:00140000
#06312:00000014
#06414:1414
#06416:00140000
#06412:00000014
#06514:1414
#06516:00140000
#0671b:00130013
#06715:00130013
#06712:0013
#06718:0013
#06812:13
#06818:13
#0681b:00000000135353535300530053000000
#06915:1300000000005454
#06918:0013000000000000
#06912:00140000
#06913:000000000054000000000000
#06914:000000000000005400000000
#07018:00135313
#07015:5400000000130000
#07012:0000000000000013
#0701a:00000000005300530000000000000000
#0711b:13
#07115:0013000013000013
#07118:0000001300001300
#0721b:13
#07212:00130053
#07213:00000000005300000000005300530000
#07214:0000005300530053
#07215:00000000000000530053000000000053
#07216:0053
#0731a:00000000145454540000000000000000
#07316:53000000000000000000000014545454
#07412:00000000145454540000000000000000
#07418:00000014
#07419:00000000000000000000000000540000
#0741a:0000000000000054
#07514:14
#07518:0000002300002300
#07515:0000000023000023
#07510:0041
#07513:00540000000000000000000000000000
#07512:0054000000000000
#07716:00120000
#07718:00000012
#0771f:00110000
#07814:00120000
#07818:0012
#07816:00000012
#0791a:12000012
#07914:00120000
#08015:00130013
#08018:0013
#08118:13000023
#08112:00130000
#0811b:00130000
#0841b:00131300
#08415:0000001300130000
#08418:00000013
#08412:2300000000000013
#08518:13000013
#08512:0013000000000013
#0851b:00131300
#08515:0000001300130000
#08618:13
#08612:0013000000000000
#0861b:00130000
#08818:00130000
#08812:00130000
#08815:00000013
#0881b:00000013
#0881f:00210000
#08915:00131313
#08918:0000001300130000
#08910:00410000
#0901b:00130000
#09015:0000001300000013
#09018:00001313
#09012:0000000000130000
#0911b:13
#09115:0013000000001300
#09118:00130000
#0921b:00130000
#09215:0000130000000013
#09218:00000013
#0931b:13
#09315:0000130000000013
#09318:0000001300001300
#09312:0013
#0941b:13
#09412:00130000
#09418:0000001300000000
#09413:0013
#09419:0000000000130000
#09414:00000013
#0941a:0000000000000013
#09515:13
#0951b:0013000000000000
#09512:00240000
#09516:0024
#0951a:00000024
#09616:00000014
#09612:00240000
#10018:0000001400140014
#10012:24242424
#10118:0014000000000000
#1011a:0000001400140014
#10112:24
#10114:00242424
#1021a:0014000000001400
#10212:00140000
#10214:24000014
#10418:00000014
#10412:00000014
#10414:00140000
#1041a:00140000
#09816:00000014
#0981a:24240000
#10818:00140000
#11014:00140000
#11218:00140000
#08714:00140014
#08718:0014
#02914:24
#02918:00240000
#02912:0024
#02916:00000024
#0371a:2424
#03712:0000240000000024
#04314:2400002400000000
#04318:0000240000000024
#0431a:0000000000240000
#04312:0000000000240000
#0761b:0023000000000000
#07612:0023000000000000
#07618:0000002300230000
#07615:0023
#08212:23
#0821b:00230000
#08215:0023
#08218:00000023
#08312:23
#0831b:00230000
#08315:0023
#08318:00000023
#10318:00240000
#10312:00240000
#10313:0024
#10314:00000024
#10319:0024
#1031a:00000024
#10514:00240000
#1051a:00240000
#10519:0024
#10518:00000024
#10513:0024
#10512:00000024
#09718:0024
#09714:00000024
#09914:0024
#09918:00000024
#11312:00000024
#11416:24
#1141a:00240000
#03918:5400000054000054
#03919:0054000000540000
#03916:00540000
#03917:0000005400000000
#0391a:00000054
#04019:5454
#04016:0054000000000000
#04017:00540000
#04018:0000005400005400
#0401a:0000000000540000
#12012:00000073
#00152:54000024
#00154:00240000
#00153:0054
#0025a:64000024
#00258:00240000
#00259:0064
#00352:54000024
#00354:00240000
#00353:0054
#00955:53
#00952:0053
#01158:63
#0115b:0063
#01355:00530000
#01352:0013
#0145b:0000000000130000
#01655:0053000000000013
#01658:0000000000130000
#01652:0000001300000000
#01852:0000000000130000
#01955:0053
#02058:63
#02052:0053
#0225b:0000000000130000
#02452:0053000000000013
#02458:0000000000130000
#02455:0000001300000000
#02555:0053
#02652:53
#02752:0063
#02855:63
#0285a:00000014
#03052:14000024
#0305a:00140000
#03154:5454
#03156:00240000
#03152:00000024
#03254:5454
#03256:00240000
#03252:00000024
#03354:54
#03356:00240000
#0335a:00000024
#03458:6464
#03456:00240000
#0345a:00000024
#03558:6464
#03556:00240000
#0355a:00000024
#03658:64
#04455:00000053
#0445b:00000053
#04454:00140000
#04558:00630000
#04552:00630000
#04658:00530000
#04755:00000053
#04858:00630000
#04852:13
#0485b:0013
#04952:0013
#0505b:13
#05052:0013
#0525a:00000054
#05252:00140000
#05356:00540000
#0535a:00000014
#05452:00000064
#05454:14
#05458:00140000
#05556:00640000
#05552:00000014
#0585a:00000054
#05958:00640000
#05952:00640000
#06154:00540000
#0615a:00540000
#06058:00000064
#06052:00000064
#06252:00000024
#06254:00140000
#0625a:00140000
#06354:5454
#06356:00240000
#06352:00000024
#06454:5454
#06456:00240000
#06452:00000024
#06554:5454
#06556:00240000
#07756:00520000
#07758:00000062
#07954:00620000
#0795a:00000052
#08152:00130000
#0815b:00130000
#08858:00630000
#08852:00630000
#08855:00000053
#0885b:00000053
#08955:00000063
#09158:00630000
#09155:00000053
#0915b:0013
#0935b:13
#09352:0013
#0945b:13
#09656:00000064
#09652:00540000
#10252:00640000
#10254:00000054
#1025a:00000054
#10458:00000064
#10452:00000064
#10454:00540000
#1045a:00540000
#09856:00000054
#0985a:00640000
#02954:14
#02952:0014
#02958:00140000
#02956:00000014
#0375a:0054
#03752:0000000000000064
#08252:13
#08255:0013
#08352:13
#08355:0013
#08452:13
#0955a:00000014
#10558:00000014
#10552:00000014
#09758:0014
#09754:00000014
#09752:00140000
#09954:0014
#09958:00000014
#0995a:00140000
#09252:13
#05658:14
#05654:00140000
#001320:14000034
#001340:00340000
#001330:0034
#002340:24
#0023a1:14000034
#002381:00340000
#002391:0034
#003381:24
#003320:14000034
#003340:00340000
#003330:0034
#004340:3434342400000000
#009350:1300000000000033
#009320:0000003333000000
#010350:23
#011380:1300000000000033
#0113b0:0000003333000000
#012380:23
#013350:00130000
#013320:0023
#016350:0013000000000000
#016320:0000002300000000
#019350:0013
#020320:23
#020381:13
#0203b1:0023
#020320:0013
#021350:23
#024320:0013000000000000
#024350:0000002300000000
#025350:0013
#025320:0000000000000033
#026320:33
#026350:0000002300000000
#027350:13230000
#027381:00132300
#027320:0013
#027350:0000000000000033
#028350:33
#028320:0000002300000000
#030320:00000014
#031340:3434
#031360:00340000
#031320:00000034
#032340:3434
#032360:00340000
#032320:00000034
#033340:3424
#033360:00340000
#0333a0:00000014
#034380:3434
#034360:00340000
#0343a0:00000034
#035380:3434
#035360:00340000
#0353a0:00000034
#036380:34
#036360:00240000
#0373a0:0014
#037360:00000024
#037320:0000000000000014
#038360:0024000000000000
#044350:00000013
#045320:23
#0443b1:00000013
#045381:23
#045381:00130000
#0453b1:0023
#045320:00130000
#045350:0023
#046380:00130000
#0463b0:0023
#047350:00000013
#048320:23
#048380:00130000
#0483b0:0023
#0523a0:00000014
#053360:0034340000000000
#0533a0:0000000000342400
#054320:00000014
#055360:0034340000000000
#055320:0000000000342400
#0583a0:00000014
#059380:24
#059380:00140000
#0593a0:0024
#059321:00140000
#059341:0024
#060381:00000014
#0613a1:24
#060320:00000014
#061340:24
#061340:00140000
#061320:0024
#0613a1:00140000
#061381:0024
#062321:00000014
#063341:3434
#063361:00340000
#063321:00000034
#064341:3434
#064361:00340000
#064321:00000034
#065341:3434
#065361:00340000
#065321:0000000000003434
#066321:3424000000000000
#077361:00120000
#077341:0022
#077381:00000012
#0783a1:22
#079341:00120000
#079361:0022
#0793a1:00000012
#080381:22
#088381:00130000
#0883b1:0023
#088320:00130000
#088350:0023
#088350:00000013
#089320:23
#0883b1:00000013
#089381:23
#089351:00000013
#090321:23
#091381:00130000
#0913b1:0023
#091351:00000013
#092321:23
#096321:00140000
#096361:0000000000343400
#097321:0034240000000000
#0983a1:00140000
#098361:0000000000343400
#0993a1:0034240000000000
#102321:00140000
#102341:0024
#102341:00000014
#103321:24
#1023a0:00000014
#103380:24
#104340:00140000
#104320:0024
#1043a1:00140000
#104381:0024
#104381:00000014
#1053a1:24
#104320:00000014
#105340:24
#106380:00000014
#107380:24
#107341:14240000
#1073a0:00142400
#107321:00001424
#107380:00000014
#108380:24
#108341:14240000
#108341:00000014
#109341:24
#109380:14240000
#109321:00142400
#1093a0:00001424
#109341:00000014
#110341:24
#110380:14240000
#110380:00000014
#111380:24
#111341:14240000
#1113a0:00142400
#111321:00001424
#111380:00000014
#112380:24
#112341:14240000
#112321:00000014
#113341:24
#1133a0:14
#113380:00240000
#113331:00140000
#113351:0024
#113390:0014
#113370:00000024
#114320:0018
#120320:00000023
#0389a0:0000000000000014
#039980:5400000000000054
#039990:0054000000000000
#039960:00540000
#0399a0:00000054
#040990:54
#040960:0054000000000000
#0409a0:0000000000540000
#040980:00000054
#042990:22
#0689b0:00130023
#069920:00140000
#069950:00000054
#070950:24
#070980:00132300
#0709a0:00000000005300530000000000000000
#072920:00130053
#072960:0053
#073960:23
#0739a0:00000000140000240000000000000000
#073960:00000000000000000000000014000024
#074920:00000000140000240000000000000000
#074980:00000014
#0749a0:0000000000000024
#075940:14
#075920:0024000000000000
#076980:0000000000130023
