This file was generated by Ched 2.7.0.0.
#TITLE ""
#ARTIST ""
#DESIGNER ""
#DIFFICULTY 0
#PLAYLEVEL
#SONGID ""
#WAVE ""
#WAVEOFFSET 0
#JACKET ""
#REQUEST "ticks_per_beat 480"
#00002: 4
#BPM01: 225
#BPM02: 230
#BPM03: 240
#BPM04: 250
#BPM05: 260
#BPM06: 270
#00008: 01
#11308: 04030201
#10708: 00000002
#10808: 00000003
#10908: 00000004
#11008: 00000005
#11108: 00000006
#TIL00: "40'1320:10000, 40'1325:1, 114'960:10000, 122'1440:1"
#VOLUME: ""
#HISPEED 00
#MEASUREHS 00
#00412:00002400240024000000000000000014
#0041c:0012
#00417:00000000000000000012000000001400
#0041b:0000000000120000
#00416:24000000000000000000001200000000
#00419:00000013
#00414:00000000000000000000000000130000
#0041a:0024242400000000
#01212:14000014
#0121a:1414000000000000
#01216:0000140000140054
#01218:00000000000014000000000000000054
#01214:00000000000000001400000000540000
#01316:0054000000001400
#01312:1414
#0131a:54541400
#01310:0041
#01314:00540000000000000000000000000000
#01318:00000054000000000000000000000000
#01412:1400000000140000
#01418:0000131300000012
#01415:00000000001300000000000000000000
#01416:24
#01512:00001400000000000000001400001300
#01516:24120014
#01518:0000001200140000
#0151a:0014000014000000
#01515:00000000000000000014000000000000
#0151b:0000000000000013
#01618:0000000013000013
#01612:0013001300001300
#0161b:0000001300000000
#01615:0000000000130000
#01616:24
#01716:24140013
#01712:0013
#01717:0013
#0171b:00000013
#01719:0000000000130000
#01714:0000000000000013
#01812:13001313
#0181b:00130000
#01816:2400130000140000
#01815:0000000000000013
#01819:0013000000000000
#01814:0000001300000000
#0191b:0013000000000000
#01912:13130014
#01915:0000001300000000
#01918:00130000
#01919:0000000015151500
#01916:24000000000000000013001300000000
#02218:00001300000000000000130000000012
#02216:2400000000000012
#02215:00130000
#02212:1400001300000000
#0221b:0000001300000000
#0231b:0013001300001313
#02312:0000130000130013
#02315:0013
#02316:2414140000002400
#02318:0000000000130000
#02116:2454000000001300
#0211a:14000014
#02117:0000005400000000000000000000000013000000000000000000000000000000
#02112:00541400
#02119:0054000000000000000000000000000000000000000000000000000000000000
#02118:00540000000000000000000000000000
#02115:0000000000540000000000000000000000000000000000000000000000000000
#02114:00000054000000000000000000000000
#02113:0000000000000054000000000000000000000000000000000000000000000000
#02412:0013001300001414
#0241b:0013001300000000
#02415:0000000013130000
#02416:24140000
#02512:2400130000131313
#02516:00140000
#02515:0013
#0251a:0014
#02612:13000013
#02618:0013131300000000
#02616:0013
#02614:0000000000130013
#02615:24
#02714:0013001300000000
#02717:24131300
#02712:0014
#0271b:0000000000131313
#02816:00000000000000000014001400001400
#0281b:13
#02815:0013131300000000
#02813:0000000013130000
#02812:00000024
#02817:24
#04212:0000001c00000014
#04216:0000540000000024
#0431a:14140000
#04312:0000001400230000
#04316:2400242400000000
#04315:0000000000000029
#0431b:0000000000230000
#04518:0012000000000000
#04516:14000012000014000000140000000014
#04512:1300000014002413
#04514:00120000
#0451a:00241424
#04612:13000000001300000000000000001300
#0461b:0013230000000000
#04616:00000014000000000000000000000000
#04618:0000001300132600
#04615:00000000000000130000001300000000
#0461a:0013
#04613:00000000000000000013000000000000
#04619:0000000000000013
#04716:1400000014000014
#04712:0013001300132400
#04718:0014001400140000
#0471b:13000000000000001300000000000013
#0471a:00240024
#04915:0013001300130013
#04918:00000013000000001300000000130000
#0491b:13000000130000000000130000000013
#04912:13240024
#05018:13000013000013000000000000002400
#05015:00000000001300000000000000000000
#05012:00000000000000130000000000000000
#0501b:0013000000000000
#05014:0000000000000013
#0501a:00240024
#05115:0000000000000013
#05119:00000000000000001300000000000000000000000000000000000000000000000000000000000000130000000000000000630000000000000000000000000000
#05114:0024001300240000
#05116:2424
#05118:0000002400000000
#05112:00240024
#0511a:00240024
#05117:0000000000000000000000000000000000000000000000000063000000000000
#06712:00130023
#06718:00000000000013000000000000000012
#0671a:0013
#06716:00000000000000120000130000000000
#0671b:00230013
#06715:00120012000000000000000000001300
#06719:1212000000000000
#06713:0023
#06817:0013000000000000
#06816:00000000001400140000140000000000
#06812:0000231313001300
#0681b:00000013
#06813:13
#0681a:23
#06916:12000000230000000000000000140014
#06918:0012000000000000
#0691b:0000230000002313
#06914:000000000023000000000000
#06912:000000000000002300000000
#06919:000000000023000000000000
#06917:000000000000002300000000
#0701b:13001313
#07017:0000130000130000
#07015:00000000001200000000000000001300
#07019:00000000000000120000000000000000
#07012:0000130000130000
#07016:00001313
#07118:13000000000000000000000000000000000000000000000000000000000000000063000000000000000000000000000000000000000000000000000000000000
#0711a:0014000000000000
#0711b:0000001300000000
#07112:0014000013001300
#07119:0000000000000000000000000000000000630000000000000000000013000000
#07116:0000002300000000
#07117:00002323
#07114:0000000000000000000000000063000000000000000000000000000023000000
#07115:00000000000000000000000000000000000000000000000000630000000000000000000000000000000000000000000000000000000000000000000000000000
#07216:1300000000160000
#07218:0013000000000000
#07212:00130000
#07217:00000000001300000000000000000013
#07214:0000001400000014
#07219:00000000000000140000000000130000
#07215:00001515
#0721a:00000000000000000014001400000000
#0721b:23
#0751a:0000001300000013
#07515:00001313
#07513:0000002300000023
#07518:26262600000000002300000023000000
#07510:0041
#07816:00121212
#07814:0000001200000000
#07818:0012000000120000
#0781a:00121212
#07913:00120000
#07918:0000120012000012
#07917:12
#07916:00000012
#1061c:00120000
#10618:00000000001200000000130000000000
#1061a:0000001200000000
#10616:00000000000000120000000000000000
#1061b:0013
#10615:00000000000000000013000000001300
#10612:00000000000000000000001300000000
#10816:00001400001400140014001400000000
#1081a:0000141414142400
#10815:0000000000000016
#00014:00000012
#0001a:00000012
#00512:0013000000000000
#0051b:0000001300000013
#00516:0000000000140000
#00612:0013000000132424
#00616:0000001400000000
#0061a:0000000000000024
#0071b:1313000000000000
#00712:0000001300000013
#00716:0000000000140000
#00912:1400000014001414
#0091a:14141400
#00916:00000000000014000000000000140014
#01012:14
#01016:00000000140000001400000000140014
#0101a:1400140000001414
#0111a:1400000014001414
#01112:14141400
#01116:00000000000014000000000000140014
#02917:00000000000000000000000000130000
#02915:0000000000000013
#02918:00000000140000000000000000000013
#02916:0014001400140000
#02914:1414
#0291a:2424
#02912:00240024
#03019:00130000000000000000000000000000
#03017:0013000000000000
#0301a:00000013000000000000000024000000
#03016:000000000000000000000000000000000000000000000000000000000000000000000000000000000000000000000000000000000000000000000000000000000000000000000000000000000000000000000000000000000000000000000000000000000000000000000000000000000000000000000000000000000000000000000000000000000000000000000000000000000000000000000000000000000000000000000000000000000000000000000000000000000000000000000000000000000000000000000000000000000000000000000000000000000000000000000000000000000000000000000000000000000000000000000000000000000000000000000000000000000000000000000000000000000000000000000000140000000000000000000000000000000000000000000000000000000000000000000000000000000000000000000000000000000000000000000000000000000000000000000000000000000000000000000000000000000000000000000074
#03012:28002c0000000014
#03010:00000041
#03617:0013
#03616:548400000000000000000000000000000000000000000000000000000000000000000000000000000000000000000000000000000000000000000000000000000000000000000000000000000000000000000000000000000000000000000000000000000000000000000000000000000000000000000000000000000000000000000000000000000000000000000000240000000000000000000000000000000000000000000000000000000000000000000000000000000000000000000000000000000000000000000000000000000000000000000000000000000000000000000000000000000000000000000000240000000000000000000000000000000000000000000000000000000000000000000000000000000000000000000000130000000000000000000000000000000000000000000000000000000000000000000000000000000000000000000000000000000000000000000000000000000000000000000000000000000000000000000000000000000000000000000000
#0361a:0014000000000000
#0361b:0000002300000000
#03612:0000230000230000
#03619:0000000000000023
#03614:0000000000000023
#04012:00000000000000000000001c00000000
#04019:1212000000000000
#04017:00120000000000000000000000000000
#04015:00000012000000000000000000000000
#0401b:00120000
#04018:00000000001200120000000000000000
#0401a:0000001200120000
#0401c:0012
#04016:00000000000000000012000000000000
#04418:0000000000002613
#04412:29290026
#04415:0029000000000000
#04410:00000041
#05218:0013000000000000
#05212:2400240000002424
#0521a:24000000240000000000000000730000
#05214:00630000000000000000000000000000000000000000000000000000000000000000000000000000000000000000000000000000000000000000000000000000
#05216:0063000000000000000000000000000000000000000000000000000000000000
#05219:00000000000000000000000000000000006300000000000000000000000000000000000000000000000000000000000000000000000000000000000000000000
#05217:0000000000000000006300000000000000000000000000000000000000000000
#05914:0000000000000014
#05916:0000242400002400
#05912:0000002400000000
#0591a:00240024
#06018:0014000000000000
#06014:0013
#06019:0013
#06016:2400240000002424
#06012:2400000000002424
#0601a:00240000
#07718:00120012
#0771b:00000000000000120000000000000000
#07716:0000120000121200
#07713:00000000000000000000000000000012
#0771f:00110000
#08014:12
#08018:12000000000000002300000016000016
#08016:0012000000000000
#0801b:00230000
#08015:00000023
#08112:230026002c131300
#08115:00000000000000000000001500001300
#08118:0016000000000000
#0811a:00240000
#0821b:00001300130000000000000000130013
#08216:00000015000000000000000000001600
#08218:0000001300000000
#08212:2c0000002c131300
#08214:00000000000000000000001600000000
#08318:0013001300001300
#08315:0000130000130013
#0831b:00130000
#08312:2c002c13
#0841b:0013000000000000
#08417:00151514
#08412:2c
#08415:00222200
#08419:0000002500250000
#08414:00000023
#0841a:0000000000000024
#08612:251c0000
#08617:12
#0861c:0022000000000000
#08816:0000000000120014
#08818:00000000260000000000001212000000
#0881b:0013
#08817:0000001300000000
#08815:00000000000000130000000000000000
#08812:00262424
#0881f:00210000
#08814:73
#08819:73
#0891a:14000000140000000000000000000012
#08916:0014000000000012
#08912:2400241300000000
#08915:00000000000000130000000000000000
#0891b:0000000000130000
#08918:00000000000000002400001300000000
#0891c:00000000000000000000000000120000
#08914:00000024
#08910:00410000
#09218:0000000000132600
#09215:00000000000000000000001300000000
#09216:00000014000000000000000000001400
#0921a:0014240000000000
#09212:25242300
#0921b:0023
#09312:00000013000000130000130023000000
#09315:00000000001300002300001300001300
#09318:00000000000013000000000000130000
#0931b:00000000230000000000000000000013
#09316:0014000000000000
#09314:23
#09519:00000000000000000000000000000000000000000000000013000000000000000063000000000000000000000000000000000000000000000000000000000000
#09514:00000000000000001300000000000000006300000000000000000000000000000000000000000000130000000000000000630000000000000000000000000000
#09516:2400000000000000006300000000000000000000000000000063000000000000
#09518:0000000000000000000000000000000024000000000000000000000000000000000000000000000000000000000000000000000000000000000000000000000000000063000000000000000000000000000000000000000000000000000000000000000000000000000000000000000000000000000000000000000000000000
#0951a:0000000000000000000000000000000000000000000000000000000000000000240000000000000000000000000000000000000000000000000000000000000024630000000000000000000000000000000000000000000000000000000000002400000000000000000000000000000000000000000000000000000000000000
#09512:00242424
#09517:0000000000000000000000000000000000630000000000000000000000000000
#09513:0000000000000000000000000000000000000000000000000000000000000000006300000000000000000000000000000000000000000000000000000000000000000000000000000000000000000000000000000000000000000000000000000063000000000000000000000000000000000000000000000000000000000000
#09515:0000000000000000000000000000000000000000000000000000000000000000000000630000000000000000000000000000000000000000000000000000000000000000000000000000000000000000000000000000000000000000000000000000006300000000000000000000000000000000000000000000000000000000
#10318:0000001400000000
#10314:0000000000140000
#10316:00242424
#10312:00240024
#1031a:0024
#10419:13
#10414:13
#1041a:0000242400000000
#10416:0000242400002424
#10412:0000000000002424
#1071a:0014230000000000
#10716:0000001400000000
#10718:0000000000130000
#10712:0000000024000014
#11017:00000000001300000012000000000000
#11016:00000000000000140000001400000000
#11015:0016000000000000
#1101a:00141324
#1101b:0000001200130000
#11014:0000000000000018
#11013:23
#10919:0015000000000000
#10915:0000001600000000
#10916:0000000000152300
#10912:0000000000000015
#10917:23
#11217:0000000000000000000014000000000000001200000000000000006400000000
#11216:00000000000000130000000000005400
#11214:00001800000000000000000000000064
#11219:0000000000000000150000000000000015000000000000000054000000000000
#1121b:0000001200130000
#11215:0000000000000000000000000000000000000000000015000000000000540000
#1121a:00000014
#11213:2300000000000000000000000000000000000000000000000000000000000054
#11218:00000000000000000000000000540000
#11118:0016000000000000
#11114:0000001800160000
#11112:0000000024000018
#11117:23
#1111a:00230000
#11116:00000023
#03112:0000140014000014
#0311a:0014000000140000
#03116:548400000000000000000000000000000000000000000000000000000000000000000000000000000000000000000000000000000000000000000000000000000000000000000000000000000000000000000000000000000000000000000000000000000000000000000000000000000000000000000000000000000000000000000000000000000000000000000000000000000000000000000000000000000000000000000000000000000000000000000000000000000000000000000000240000000000000000000000000000000000000000000000000000000000000000000000000000000000000000000000000000000000000000000000000000000000000000000000000000000000000000000000000000000000000000000074547400000000000000000000000000000000000000000000000000000000000000000000000000000000000000000000000000000000000000000000000000000000000000000000000000000000000000000000000000000000000000000000
#0661a:2424140014000000
#0661b:0000000000001212
#06617:00000000000000000000000000120012
#06612:2424000054005400
#06618:00000000005400000054000000000000
#06616:0000005400540000
#06614:00000000000000540000005400000000
#08517:14131312
#08513:00242400
#0851b:0000002300230000
#08514:23
#0851a:0024000000000000
#08512:00000025
#0851c:0000000000000022
#09419:0000001300000013
#09414:0000002400130024
#09412:00240024
#09416:0024
#09418:2300000000240000
#0941a:00000024
#05416:00000000000000000012001200000000
#05418:0000000000120000
#0541a:2424242424002424
#05413:00730000000000000000000000000000
#05412:00000000007300000000000000000000
#03216:000000000000000000000000000000000000000000000000000000000000000000000000000000000000000000000000000000000000000000000000000000000000000000000000000000000000000000000000000000000000000000000000140000000000000000000000000000000000000000000000000000000000000000000000000000000000000000000000000000000000000000000000000000000000000000000000000000000000000000000000000000000000000000000074548400000000000000000000000000000000000000000000000000000000000000000000000000000000000000000000000000000000000000000000000000000000000000000000000000000000000000000000000000000000000000000000000000000000000000000000000000000000000000000000000000000000000000000000000000000000000000000000000000000000000000000000000000000000000000000000000000000000000000000000000000000000000000000000
#03212:0000001400001400
#0321a:2400240000140000
#03312:1400001400000014
#0331a:0014000000140000
#03316:240000000000000000000000000000000000000000000000000000000000000000000000000000000000000000000000000000000000000000000000000000000000000000000000000000000000000000000000000000000000000000000074547400000000000000000000000000000000000000000000000000000000000000000000000000000000000000000000000000000000000000000000000000000000000000000000000000000000000000000000000000000000000000000074548400000000000000000000000000000000000000000000000000000000000000000000000000000000000000000000000000000000000000000000000000000000000000000000000000000000000000000000000000000000000000000074547400000000000000000000000000000000000000000000000000000000000000000000000000000000000000000000000000000000000000000000000000000000000000000000000000000000000000000000000000000000000000000000
#03416:000000000000000000000000000000000000000000000000000000000000000000000000000000000000000000000000000000000000000000000000000000000000000000000000000000000000000000000000000000000000000000000000140000000000000000000000000000000000000000000000000000000000000000000000000000000000000000000000000000000000000000000000000000000000000000000000000000000000000000000000000000000000000000000074548400000000000000000000000000000000000000000000000000000000000000000000000000000000000000000000000000000000000000000000000000000000000000000000000000000000000000000000000000000000000000000000000000000000000000000000000000000000000000000000000000000000000000000000000000000000000000000000000000000000000000000000000000000000000000000000000000000000000000000000000000000000000000000000
#03412:0000001400001400
#0341a:2400240000140000
#03512:1400001400000014
#0351a:0014000024002400
#03516:240000000000000000000000000000000000000000000000000000000000000000000000000000000000000000000000000000000000000000000000000000000000000000000000000000000000000000000000000000000000000000000074547400000000000000000000000000000000000000000000000000000000000000000000000000000000000000000000000000000000000000000000000000000000000000000000000000000000000000000000000000000000000000000000000000000000000000000000000000000000000000000000000000000000000000000000000000000000000000000000000000000000000000000000000000000000000000000000000000000000000000000000000000000000000000000000140000000000000000000000000000000000000000000000000000000000000000000000000000000000000000000000000000000000000000000000000000000000000000000000000000000000000000000000000000000000000000000074
#1131a:14141400
#11316:0054006400542800
#11312:54646464
#11319:0054000000000000005400000000000000640000000000000000000000000000
#11318:00540000006400000064000000000000
#11314:00000054000000540000006400000000
#11313:0000000000000054000000000000006400000000000000640000000000000000
#11317:0000006400000000000000540000000000000064000000000000000000000000
#11315:0000000000640000000000000064000000000000006400000000000000000000
#04812:0000001424002400
#04817:00000000000000130000000000000000
#0481a:0000000000142400
#04816:24000000000000000000001400000000
#04818:0014240000000000
#04814:00000013000000000000000000000000
#09018:00120000000013000000000000000000
#09014:0012000000000000
#0901a:00000012000000002400000024000000
#09017:0000000000130000
#09019:0000000000000013
#09016:00000000240000000000000000130000
#09012:2400000013130000
#09015:00000000000000130000000000000000
#09013:00000000000000000000000000000013
#09119:0013250000002500
#09113:00130000000000000000001300000000
#09116:24000013000000000000130000000000
#09114:0000001300000000
#09117:00000000000000130000000000001300
#0911a:00000000000000000000000000000013
#09112:0025
#00818:00140000000000000000001200000000
#00814:0014000000000000
#00816:00000014000000000000120000000000
#00819:00000000001300000000000000000000
#00815:0000001300000000
#00817:00000000000000130000000000000000
#0081a:00000000000000000012000000000000
#00812:24242424
#02017:00130013000000000000000000000000
#02012:2515150000001400
#02019:0000000015151500
#02016:00000000000000000013001300000000
#0201a:00140000
#03917:12
#03912:00120000000000000000000000000000
#03919:0012001200000000
#03914:00000012000000000000001200000012
#03918:0000120012120000
#03915:00000000001200000000000000000000
#03913:00000000000000120000000000000000
#03916:00000000000000000012000000120000
#0391a:0000000000001212
#05616:00000000000000000000000000000014
#05614:00000000000000000000000000140000
#05612:2424242424002122
#05619:00730000000000000000000000000000
#05618:00000000007300000073000000000000
#05718:00140000000000000000000000000014
#0571a:00000014000000000000000000000000
#05717:00000000000000140000230000000000
#05719:00000000000000000014000000000000
#0571b:00000000000000000000001300000000
#05715:00002400001300000000000000000000
#05716:00000000000000000000000000130000
#05712:00220023
#05713:2300002300000024
#05714:0024
#0581a:00130000000000130000000000002400
#0581c:00000012000000000012000000000000
#0581d:00000000000000000000001100000000
#05817:00000000001400000000000000000000
#05812:0000240000000024
#05816:00002424
#05815:24
#05818:0023000000240000
#05814:0000002400000000
#06218:24000012
#06214:24000012
#06216:00240000
#0621a:00240000
#06210:00410000
#06318:0012120000000000
#06316:0000120000120000
#06518:0012000000000000
#06516:0000120000120000
#0651a:0000120000002424
#06512:0000000000002424
#06416:00000012
#07312:13000000240024260000000000000000
#07314:00000000002400000000000000000000
#07315:00000000000000000000000024002426
#07317:00000000000000000000000000240000
#10016:00000000001400142800000000140014
#1001b:0000000000130000
#10018:2600001600000000
#10012:1600000000132816
#1001a:00240000
#1011b:0013000000000000
#10116:00000000001400002800140000140000
#10112:24001300000000180016001400000018
#10118:0000001600000016
#1011a:00240024
#10212:00160014000024000000000024000000
#10216:2814240000002424
#1021a:0000002400000024
#09818:1600262626262626
#09812:260000000000000000000000000000000000000000000000000000000000000000000000000000000000000000000000000000000000000000000000000000000000000000000000000000000000000000000000000000000000000000000000007600000000000000000000000000000000000000000000000000000000000000000000000000000000000000000000000000000000000000000000000000000000000000000000000000000000000000000000000000000000000000000000007600000000000000000000000000000000000000000000000000000000000000000000000000000000000000000000000000000000000000000000000000000000000000000000000000000000000000000000000000000000000000000000007600000000000000000000000000000000000000000000000000000000000000000000000000000000000000000000000000000000000000000000000000000000000000000000000000000000000000000000000000000000000000000000
#0371b:23000000230000000063000000002300
#03712:23000000006300002300000023000000
#03715:00000000000000000000000000000000006300000000000000000000000000000000000000000000000000000000000000000000000000002300000000000000
#03716:00230000
#03717:0023
#03718:00000000000000000000000000000000000000000000000000000000000000000063000000000000000000000000000023000000000000000000000000000000
#03714:0000000000000000006300000000000000000000000000000000000000000000
#03713:00000000000000000000000000000000000000630000000000000000000000000000000000000000000000000000000000000000000000000000000000000000
#03719:0000000000000000000000000000000000630000000000000000000000000000
#0371a:00000000000000000000000000000000000000000000000000000000000000000000006300000000000000000000000000000000000000000000000000000000
#03812:00000000230000000000000023000073
#0381b:00232300
#03819:0000000000000000006300000000000000000000230000000000000000000000
#03818:00000000000000002300000000000000000000630000000000000000000000000000000000000000000000000000000000000000000000000000000000000000
#03816:0023
#03817:00000000006300000000000023000000
#03814:0000000000230000
#0381a:00000000000000000000000000000000006300000000000000000000000000000000000000000000000000000000000000000000000000000000000000000000
#07613:0000002424240000
#07618:0023000000000000
#07619:0000002424240000
#11412:280000000000000000000000000000000000000000000000000000000000000000000000000000000000000000000000000000000000000000000000000000000000000000000000000000000000000000000000000000000000000000000000000000000000000000000000000000000000000000000000000000000000000000000000000000000000000000000000000000000000000000000000000000000000000000000000000000000000000000000000000000000000000000000000000000000000000000000000000000000000000000000000000000000000000000000000000000000000000000000000000000000000000000000000000000000000000000000000000000000000000000000000000000000000000000000000000000000000000000000000000000000000000000000000000000000000000000000000000000000000000000000000000000000000000000000000000000000000000000000000000000000000000000000000000000000000000000000000000000000000000000000000000000000000000000000000000000000000000000000000000000000000000000000000000000000000000000000000000000000000000000000000000000000000000000000000000000000000000000000000260000000000000000000000000000000000000000000000000000000000000000000000000000000000000000000000000000000000000000000000000000000000000000000000000000000000000000000000000000000000000000000000000000000000000000000000000000000000000000000000000000000000000000000000000000000000000000000000000000000000000000000000000000000000000000000000000000000000000000000000000000000000000000000000000000000000000000000000000000000000000000000000000000000000000000000000000000000000000000000000000000000000000000000000000000000000000000000000000000000000000000000000000000000000000000000000000000000000000000000000000000000000000000000000000000000000000000000000000000000000000000000000000000000000000000000000000000000000000000000000000000000000000000000000000000000000000000000000000000000000000000000000000000000000000000000000000000000000000000000000000000000000000000000000000000000000000000000000000000000000000000000000000000000000000000000000000000000000000000000000007c7c7c0000000000000000000000000000000000000000000000000000000000000000000000000000000000000000000000000000000000000000000000000000000000000000000000000000000000000000000000000000000000000000000000000000000000000000000000000000000000000000000000000000000000000000000000000000000000000000000000000000000000000000000000000000000000000000000000000000000000000000000000000000000000000000000000000000000000000000000000000000000000000000000000000000000000000000000000000000000000000000000000000000000000000000000000000000000000000000000000000000000000000000000000000000000000000000000000000000000000000000000000000000000000000000000000000000000000000000000000000000000000000000000000000000000000000000000000000000000000000000000000000000000000000000000000000000000000000000000000000000000000000000000000000000000000000000000000000000000000000000000000000000000000000000000000000000000000000000000000000000000000000000000000000000000000000000000000000000000000000000000000000000000000000000000000000000000000000000000000000000000000000000000000000000000000000000000000000000000000000000000000000000000000000000000000000000000000000000000000000000000000000000000000000000000000000000000000000000000000000000000000000000000000000000000000000000000000000000000000000000000000000000000000000000000000000000000000000000000000000000000000000000000000000000000000000000000000000000000000000000000000000000000000000000000000000000000000000000000000000000000000000000000000000000000000000000000000000000000000000000000000000000000000000000000000000000000000000000000000000000000000000000000000000000000000000000000000000000000000000000000000000000000000000000000000000000000000000000000000000000000000000000000000000000000000000000000000000000000000000000000000000000000000000000000000000000000000000000000000000000000000000000000000000000000000000000000000000000000000000000000000000000000000000000000000000000000000000000000000000000
#11418:00260000
#07418:00000000240024260000000000000000
#0741a:00000000002400000000000000000000
#07412:00000000000000000000000026262600
#09612:0000262626262626
#09618:000000000000000000000000000000000000000000000000000000000000000000000000000000000000000000000000000000000000000000000000000000000000000000000000000000000000000000000000000000000000000000000000007600000000000000000000000000000000000000000000000000000000000000000000000000000000000000000000000000000000000000000000000000000000000000000000000000000000000000000000000000000000000000000000007600000000000000000000000000000000000000000000000000000000000000000000000000000000000000000000000000000000000000000000000000000000000000000000000000000000000000000000000000000000000000000000007600000000000000000000000000000000000000000000000000000000000000000000000000000000000000000000000000000000000000000000000000000000000000000000000000000000000000000000000000000000000000000000
#05312:2424242424240000
#0531a:00730000000000000000000024002400
#0531b:00000000007300000073000000000000
#05313:00000000000000000000000000730000
#0551a:2424242424240000
#05512:0000000000002424
#05514:00730000000000000000000000000000
#05515:00000000007300000073000000000000
#05519:00000000000000000000000000730000
#0611a:0000242400000000
#06116:0000242400002400
#06112:00000024
#1051a:00240000
#10516:00240024
#10518:0024
#10514:0024
#10512:00000024
#00113:00000000000000002200000000000072000000000000000000000000000000000000000000000000000000000000000000000000000000000000000000000000
#00115:00000000000000000000000000000000000000000000000022000000000000720000000000000000000000000000000000000000000000000000000000000072
#00119:00000000000000000000000000000000000000000000007200000000000000000000000000000000000000000000000022000000000000720000000000000000
#00116:00000000000000000000000000000000000000000000000000000000000000000000000000000000000000000000007200000000000000000000000000000000
#00118:00000000000000000000000000000000000000000000000000000000000000000000000000000072000000000000000000000000000000000000000000000000
#0011a:00000000000000720000000000000000000000000000000000000000000000000000000000000000000000000000000000000000000000000000000000000000
#0021b:22000000000000720000000000000000000000000000000000000000000000000000000000000000000000000000000000000000000000000000000000000000
#0021a:00000000000000000000000000000000220000000000007200000000000000000000000000000000000000000000000000000000000000000000000000000000
#00218:00000000000000000000000000000000000000000000000000000000000000002200000000000072000000000000000000000000000000000000000000000000
#00216:00000000000000000000000000000000000000000000000000000000000000000000000000000000220000000000007200000000000000000000000000000000
#00214:00000000000000000000000000000072000000000000000000000000000000000000000000000000000000000000000000000000000000002200000000000072
#00219:00000000000000000000000000000000000000000000000000000000000000000000000000000000000000000000000000000000000000720000000000000000
#00215:00000000000000000000000000000000000000000000000000000000000000720000000000000000000000000000000000000000000000000000000000000000
#00313:00000000000000002200000000000072000000000000000000000000000000000000000000000000000000000000000000000000000000000000000000000000
#00315:00000000000000000000000000000000000000000000000022000000000000720000000000000000000000000000000000000000000000000000000000000072
#00319:00000000000000000000000000000000000000000000007200000000000000000000000000000000000000000000000022000000000000720000000000000000
#00316:00000000000000000000000000000000000000000000000000000000000000000000000000000000000000000000007200000000000000000000000000000000
#00318:00000000000000000000000000000000000000000000000000000000000000000000000000000072000000000000000000000000000000000000000000000000
#0031a:00000000000000720000000000000000000000000000000000000000000000000000000000000000000000000000000000000000000000000000000000000000
#09712:2626262626262626
#09718:007600000000000000000000000000000000000000000000000000000000000000000000000000000000000000000000000000000000000000000000000000000000000000000000000000000000000000000000000000000000000000000000007600000000000000000000000000000000000000000000000000000000000000000000000000000000000000000000000000000000000000000000000000000000000000000000000000000000000000000000000000000000000000000000007600000000000000000000000000000000000000000000000000000000000000000000000000000000000000000000000000000000000000000000000000000000000000000000000000000000000000000000000000000000000000000000007600000000000000000000000000000000000000000000000000000000000000000000000000000000000000000000000000000000000000000000000000000000000000000000000000000000000000000000000000000000000000000000
#09918:2626262626262626
#09912:007600000000000000000000000000000000000000000000000000000000000000000000000000000000000000000000000000000000000000000000000000000000000000000000000000000000000000000000000000000000000000000000007600000000000000000000000000000000000000000000000000000000000000000000000000000000000000000000000000000000000000000000000000000000000000000000000000000000000000000000000000000000000000000000007600000000000000000000000000000000000000000000000000000000000000000000000000000000000000000000000000000000000000000000000000000000000000000000000000000000000000000000000000000000000000000000007600000000000000000000000000000000000000000000000000000000000000000000000000000000000000000000000000000000000000000000000000000000000000000000000000000000000000000000000000000000000000000000
#08714:000000000000000000000000000000000073000000000000000000000073000000000000000000000000000000000000
#08719:000000000000000000000000000000000073000000000000000000000073000000000000000000000000000000000000
#1201c:00000072
#12012:00000072
#01452:1400000000140000
#01458:0000005300000000
#0145a:0000000000140000
#01658:0000000023000053
#0165b:0000005300000000
#01655:0000000000530000
#01652:00000023
#01756:00140000
#0175b:00130000
#01856:0000000000140000
#02258:0000000000130000
#02252:3400005300000000
#02255:0000000000130000
#02452:0000005300000000
#02455:0000000023530000
#0255a:1454
#02652:63
#04252:0000000000000014
#05058:13
#06852:00000013
#0685b:00000013
#0705b:13
#0715a:0014000000000000
#07152:0014000000000000
#07953:12520000
#07958:0052
#00952:54
#0095a:0064
#01052:5414
#01056:00541400
#0115a:64
#01152:0054
#02152:0034
#0215a:00000044
#02752:0064
#0285b:53
#02852:00000014
#03056:00000054
#03052:18001c0000000024
#04052:00000000000000000000005c00000000
#0435a:00140000
#04356:1400001400000000
#04355:0000000000000049
#07758:00520000
#0775b:00000000000000220000000000000000
#07756:00000062
#07753:00000000000000000000000000000022
#07856:00000052
#08058:00000000000000000000000016000016
#08055:00000013
#08158:0016000000000000
#08152:13161c00
#08652:001c0000
#0315a:0024000000240000
#03152:0000000000000024
#03156:005400000000000000000000000000000000000000000000000000000000000000000000000000000000000000000000000000000000000000000000000000000000000000000000000000000000000000000000000000000000000000000000000000000000000000000000000000000000000000000000000000000000000000000000000000000000000000000000000000000000000000000000000000000000000000000000000000000000000000000000000000000000000000000000540000000000000000000000000000000000000000000000000000000000000000000000000000000000000000000000000000000000000000000000000000000000000000000000000000000000000000000000000000000000000000000000005400000000000000000000000000000000000000000000000000000000000000000000000000000000000000000000000000000000000000000000000000000000000000000000000000000000000000000000000000000000000000000000
#03256:000000000000000000000000000000000000000000000000000000000000000000000000000000000000000000000000000000000000000000000000000000000000000000000000000000000000000000000000000000000000000000000000540000000000000000000000000000000000000000000000000000000000000000000000000000000000000000000000000000000000000000000000000000000000000000000000000000000000000000000000000000000000000000000000005400000000000000000000000000000000000000000000000000000000000000000000000000000000000000000000000000000000000000000000000000000000000000000000000000000000000000000000000000000000000000000000000000000000000000000000000000000000000000000000000000000000000000000000000000000000000000000000000000000000000000000000000000000000000000000000000000000000000000000000000000000000000000000000
#03252:0000002400000000
#0325a:0000000000240000
#0335a:0024000000240000
#03352:0000002400000024
#03356:540000000000000000000000000000000000000000000000000000000000000000000000000000000000000000000000000000000000000000000000000000000000000000000000000000000000000000000000000000000000000000000000005400000000000000000000000000000000000000000000000000000000000000000000000000000000000000000000000000000000000000000000000000000000000000000000000000000000000000000000000000000000000000000000005400000000000000000000000000000000000000000000000000000000000000000000000000000000000000000000000000000000000000000000000000000000000000000000000000000000000000000000000000000000000000000000005400000000000000000000000000000000000000000000000000000000000000000000000000000000000000000000000000000000000000000000000000000000000000000000000000000000000000000000000000000000000000000000
#03456:000000000000000000000000000000000000000000000000000000000000000000000000000000000000000000000000000000000000000000000000000000000000000000000000000000000000000000000000000000000000000000000000540000000000000000000000000000000000000000000000000000000000000000000000000000000000000000000000000000000000000000000000000000000000000000000000000000000000000000000000000000000000000000000000005400000000000000000000000000000000000000000000000000000000000000000000000000000000000000000000000000000000000000000000000000000000000000000000000000000000000000000000000000000000000000000000000000000000000000000000000000000000000000000000000000000000000000000000000000000000000000000000000000000000000000000000000000000000000000000000000000000000000000000000000000000000000000000000
#03452:0000002400000000
#0345a:0000000000240000
#0355a:0024000000000000
#03552:0000002400000024
#03556:540000000000000000000000000000000000000000000000000000000000000000000000000000000000000000000000000000000000000000000000000000000000000000000000000000000000000000000000000000000000000000000000005400000000000000000000000000000000000000000000000000000000000000000000000000000000000000000000000000000000000000000000000000000000000000000000000000000000000000000000000000000000000000000000000000000000000000000000000000000000000000000000000000000000000000000000000000000000000000000000000000000000000000000000000000000000000000000000000000000000000000000000000000000000000000000000540000000000000000000000000000000000000000000000000000000000000000000000000000000000000000000000000000000000000000000000000000000000000000000000000000000000000000000000000000000000000000000000
#0365a:0024000000000000
#03656:005400000000000000000000000000000000000000000000000000000000000000000000000000000000000000000000000000000000000000000000000000000000000000000000000000000000000000000000000000000000000000000000000000000000000000000000000000000000000000000000000000000000000000000000000000000000000000000000000000000000000000000000000000000000000000000000000000000000000000000000000000000000000000000000000000000000000000000000000000000000000000000000000000000000000000000000000000000000000000000000000000000000000000000000000000000000000000000000000000000000000000000000000000000000000000000000000000000000000000000000000000000000000000000000000000000000000000000000000000000000000000000000000000000000000000000000000000000000000000000000000000000000000000000000000000000000000000000000
#0295a:1414
#02952:00140014
#0375b:13
#03752:13
#04452:39390036
#04455:0049000000000000
#04458:00000046
#0455a:00140000
#0585a:0000000000000014
#05856:00000014
#05952:0000001400000000
#0595a:00140014
#06052:1400000000000034
#0605a:00140000
#06056:0000000000000044
#07352:00000000000000160000000000000000
#07355:00000000000000000000000000001416
#07553:0000001300000013
#07558:46364600000000001300000013000000
#08352:1c1c
#08452:1c
#11452:18000000000000000000000000000000000000000000000000000000000000000000000000000000000000000000000000000000000000000000000000000000000000000000000000000000000000000000000000000000000000000000000000000000000000000000000000000000000000000000000000000000000000000000000000000000000000000000000000000000000000000000000000000000000000000000000000000000000000000000000000000000000000000000000000000000000000000000000000000000000000000000000000000000000000000000000000000000000000000000000000000000000000000000000000000000000000000000000000000000000000000000000000000000000000000000000000000000000000000000000000000000000000000000000000000000000000000000000000000000000000000000000000000000000000000000000000000000000000000000000000000000000000000000000000000000000000000000000000000000000000000000000000000000000000000000000000000000000000000000000000000000000000000000000000000000000000000000000000000000000000000000000000000000000000000000000000000000000000000000000036000000000000000000000000000000000000000000000000000000000000000000000000000000000000000000000000000000000000000000000000000000000000000000000000000000000000000000000000000000000000000000000000000000000000000000000000000000000000000000000000000000000000000000000000000000000000000000000000000000000000000000000000000000000000000000000000000000000000000000000000000000000000000000000000000000000000000000000000000000000000000000000000000000000000000000000000000000000000000000000000000000000000000000000000000000000000000000000000000000000000000000000000000000000000000000000000000000000000000000000000000000000000000000000000000000000000000000000000000000000000000000000000000000000000000000000000000000000000000000000000000000000000000000000000000000000000000000000000000000000000000000000000000000000000000000000000000000000000000000000000000000000000000000000000000000000000000000000000000000000000000000000000000000000000000000000000000000000000000000000000005c5c0000000000000000000000000000000000000000000000000000000000000000000000000000000000000000000000000000000000000000000000000000000000000000000000000000000000000000000000000000000000000000000000000000000000000000000000000000000000000000000000000000000000000000000000000000000000000000000000000000000000000000000000000000000000000000000000000000000000000000000000000000000000000000000000000000000000000000000000000000000000000000000000000000000000000000000000000000000000000000000000000000000000000000000000000000000000000000000000000000000000000000000000000000000000000000000000000000000000000000000000000000000000000000000000000000000000000000000000000000000000000000000000000000000000000000000000000000000000000000000000000000000000000000000000000000000000000000000000000000000000000000000000000000000000000000000000000000000000000000000000000000000000000000000000000000000000000000000000000000000000000000000000000000000000000000000000000000000000000000000000000000000000000000000000000000000000000000000000000000000000000000000000000000000000000000000000000000000000000000000000000000000000000000000000000000000000000000000000000000000000000000000000000000000000000000000000000000000000000000000000000000000000000000000000000000000000000000000000000000000000000000000000000000000000000000000000000000000000000000000000000000000000000000000000000000000000000000000000000000000000000000000000000000000000000000000000000000000000000000000000000000000000000000000000000000000000000000000000000000000000000000000000000000000000000000000000000000000000000000000000000000000000000000000000000000000000000000000000000000000000000000000000000000000000000000000000000000000000000000000000000000000000000000000000000000000000000000000000000000000000000000000000000000000000000000000000000000000000000000000000000000000000000000000000000000000000000000000000000000000000000000000000000000000000000000000000000000000000000000
#11458:00460000
#07458:00000000000014160000000000000000
#0745a:00000000001400000000000000000000
#07452:00000000000000000000000036463600
#08852:00360014
#08858:00460000
#10252:0000001400001400
#1025a:0000000000000014
#10256:00140000
#10352:00140014
#1035a:0014
#0615a:0000004400000000
#06156:0000003400004400
#06152:00000034
#06254:34000052
#06258:44
#06256:00340000
#0625a:00440000
#1045a:0000004400000000
#10456:0000003400000044
#10452:0000000000000034
#1055a:00440000
#10556:00340044
#10558:0044
#10554:0034
#10552:00000034
#08252:1c1c
#11356:00000018
#01959:00000015
#02052:00150000
#02059:00000015
#06358:00520000
#06456:00000052
#0655a:00520000
#04858:00140000
#04856:14
#04852:0014
#0485a:00000014
#09159:00150015
#09152:0015
#09252:15140000
#09355:0013
#09852:16
#09858:16
#10052:16
#10058:16
#0475a:00000014
#0013a0:12000000000000220000000000000000000000000000000000000000000000000000000000000000000000000000000000000000000000000000000000000000
#001330:00000000000000001200000000000022000000000000000000000000000000000000000000000000000000000000000000000000000000000000000000000000
#001390:00000000000000000000000000000000120000000000002200000000000000000000000000000000000000000000000000000000000000000000000000000000
#001350:00000000000000000000000000000000000000000000000012000000000000220000000000000000000000000000000000000000000000000000000000000000
#001380:00000000000000000000000000000000000000000000000000000000000000001200000000000022000000000000000000000000000000000000000000000000
#001360:00000000000000000000000000000000000000000000000000000000000000000000000000000000120000000000002200000000000000000000000000000000
#001390:00000000000000000000000000000000000000000000000000000000000000000000000000000000000000000000000012000000000000220000000000000000
#001350:00000000000000000000000000000000000000000000000000000000000000000000000000000000000000000000000000000000000000001200000000000022
#0023b0:12000000000000220000000000000000000000000000000000000000000000000000000000000000000000000000000000000000000000000000000000000000
#002340:00000000000000001200000000000022000000000000000000000000000000000000000000000000000000000000000000000000000000000000000000000000
#0023a0:00000000000000000000000000000000120000000000002200000000000000000000000000000000000000000000000000000000000000000000000000000000
#002350:00000000000000000000000000000000000000000000000012000000000000220000000000000000000000000000000000000000000000000000000000000000
#002380:00000000000000000000000000000000000000000000000000000000000000001200000000000022000000000000000000000000000000000000000000000000
#002360:00000000000000000000000000000000000000000000000000000000000000000000000000000000120000000000002200000000000000000000000000000000
#002390:00000000000000000000000000000000000000000000000000000000000000000000000000000000000000000000000012000000000000220000000000000000
#002340:00000000000000000000000000000000000000000000000000000000000000000000000000000000000000000000000000000000000000001200000000000022
#0033a0:12000000000000220000000000000000000000000000000000000000000000000000000000000000000000000000000000000000000000000000000000000000
#003330:00000000000000001200000000000022000000000000000000000000000000000000000000000000000000000000000000000000000000000000000000000000
#003390:00000000000000000000000000000000120000000000002200000000000000000000000000000000000000000000000000000000000000000000000000000000
#003350:00000000000000000000000000000000000000000000000012000000000000220000000000000000000000000000000000000000000000000000000000000000
#003380:00000000000000000000000000000000000000000000000000000000000000001200000000000022000000000000000000000000000000000000000000000000
#003360:00000000000000000000000000000000000000000000000000000000000000000000000000000000120000000000002200000000000000000000000000000000
#003390:00000000000000000000000000000000000000000000000000000000000000000000000000000000000000000000000012000000000000220000000000000000
#003350:00000000000000000000000000000000000000000000000000000000000000000000000000000000000000000000000000000000000000001200000000000022
#005360:14240000
#005321:00132300
#0053b0:00001323
#005361:00000014
#006361:24
#0063b0:13230000
#006321:00132300
#006360:00001424
#007360:14240000
#0073b1:00132300
#007320:00001323
#007361:00000014
#008361:24
#009321:14
#009361:00240000
#0093a1:0014
#009361:00000024
#010321:1400005424000000
#010361:0054340000000000
#0113a1:14
#011361:00240000
#011321:0014
#011361:00000024
#014381:0000001300000000
#0143a1:0000000000240000
#0163b1:0000001300230000
#016381:0053
#016350:0000000000130023
#016320:00000053
#016381:0000000000000013
#0173b1:00230000
#022321:0000001300000000
#022351:0000000000230000
#024321:0000001300230000
#024351:0053
#024350:0000000000130000
#0253a0:24
#0253a0:0014
#025350:0000000000540024
#026320:13
#026350:0053002300000000
#0263b0:0013
#0273b0:23
#027320:0014
#027370:0000000000540024
#0283b0:13
#028380:0053002300000000
#030360:000000000000000000000000000000000000000000000000000000000000000000000000000000000000000000000000000000000000000000000000000000000000000000000000000000000000000000000000000000000000000000000000000000000000000000000000000000000000000000000000000000000000000000000000000000000000000000000000000000000000000000000000000000000000000000000000000000000000000000000000000000000000000000000000000000000000000000000000000000000000000000000000000000000000000000000000000000000000000000000000000000000000000000000000000000000000000000000000000000000000000000000000000000000000000000000000140000000000000000000000000000000000000000000000000000000000000000000000000000000000000000000000000000000000000000000000000000000000000000000000000000000000000000000000000000000000000000000024
#030320:0000000000000054
#031360:001400000000000000000000000000000000000000000000000000000000000000000000000000000000000000000000000000000000000000000000000000000000000000000000000000000000000000000000000000000000000000000000240000000000000000000000000000000000000000000000000000000000000000000000000000000000000000000000000000000000000000000000000000000000000000000000000000000000000000000000000000000000000000000000000000000000000000000000000000000000000000000000000000000000000000000000000000000000000000000000000000000000000000000000000000000000000000000000000000000000000000000000000000000000000000000000000000000000000000000000000000000000000000000000000000000000000000000000000000000000000000000000000000000000000000000000000000000000000000000000000000000000000000000000000000000000000000000000
#0313a0:0054000000000000
#031360:000000000000000000000000000000000000000000000000000000000000000000000000000000000000000000000000000000000000000000000000000000000000000000000000000000000000000000000000000000000000000000000000000000000000000000000000000000000000000000000000000000000000000000000000000000000000000000000000000000000000000000000000000000000000000000000000000000000000000000000000000000000000000000000000140000000000000000000000000000000000000000000000000000000000000000000000000000000000000000000000000000000000000000000000000000000000000000000000000000000000000000000000000000000000000000000024000000000000000000000000000000000000000000000000000000000000000000000000000000000000000000000000000000000000000000000000000000000000000000000000000000000000000000000000000000000000000000000000
#0313a0:0000000000540000
#031360:000000000000000000000000000000000000000000000000000000000000000000000000000000000000000000000000000000000000000000000000000000000000000000000000000000000000000000000000000000000000000000000000000000000000000000000000000000000000000000000000000000000000000000000000000000000000000000000000000000000000000000000000000000000000000000000000000000000000000000000000000000000000000000000000000000000000000000000000000000000000000000000000000000000000000000000000000000000000000000000000000000000000000000000000000000000000000000000000000000000000000000000000000000000000000000000000001400000000000000000000000000000000000000000000000000000000000000000000000000000000000000000000000000000000000000000000000000000000000000000000000000000000000000000000000000000000000000000000
#031320:0000000000000054
#032360:24
#032360:000000000000000000000000000000000000000000000000000000000000000000000000000000000000000000000000000000000000000000000000000000000000000000000000000000000000000000000000000000000000000000000000140000000000000000000000000000000000000000000000000000000000000000000000000000000000000000000000000000000000000000000000000000000000000000000000000000000000000000000000000000000000000000000024000000000000000000000000000000000000000000000000000000000000000000000000000000000000000000000000000000000000000000000000000000000000000000000000000000000000000000000000000000000000000000000000000000000000000000000000000000000000000000000000000000000000000000000000000000000000000000000000000000000000000000000000000000000000000000000000000000000000000000000000000000000000000000000000
#032320:0000005400000000
#032360:000000000000000000000000000000000000000000000000000000000000000000000000000000000000000000000000000000000000000000000000000000000000000000000000000000000000000000000000000000000000000000000000000000000000000000000000000000000000000000000000000000000000000000000000000000000000000000000000000000000000000000000000000000000000000000000000000000000000000000000000000000000000000000000000001400000000000000000000000000000000000000000000000000000000000000000000000000000000000000000000000000000000000000000000000000000000000000000000000000000000000000000000000000000000000000000000240000000000000000000000000000000000000000000000000000000000000000000000000000000000000000000000000000000000000000000000000000000000000000000000000000000000000000000000000000000000000000000000
#0323a0:0000000000540000
#033360:140000000000000000000000000000000000000000000000000000000000000000000000000000000000000000000000000000000000000000000000000000000000000000000000000000000000000000000000000000000000000000000024000000000000000000000000000000000000000000000000000000000000000000000000000000000000000000000000000000000000000000000000000000000000000000000000000000000000000000000000000000000000000000000000000000000000000000000000000000000000000000000000000000000000000000000000000000000000000000000000000000000000000000000000000000000000000000000000000000000000000000000000000000000000000000000000000000000000000000000000000000000000000000000000000000000000000000000000000000000000000000000000000000000000000000000000000000000000000000000000000000000000000000000000000000000000000000000000
#0333a0:0054000000000000
#033360:000000000000000000000000000000000000000000000000000000000000000000000000000000000000000000000000000000000000000000000000000000000000000000000000000000000000000000000000000000000000000000000000001400000000000000000000000000000000000000000000000000000000000000000000000000000000000000000000000000000000000000000000000000000000000000000000000000000000000000000000000000000000000000000024000000000000000000000000000000000000000000000000000000000000000000000000000000000000000000000000000000000000000000000000000000000000000000000000000000000000000000000000000000000000000000000000000000000000000000000000000000000000000000000000000000000000000000000000000000000000000000000000000000000000000000000000000000000000000000000000000000000000000000000000000000000000000000000000
#033320:0000005400000000
#033360:000000000000000000000000000000000000000000000000000000000000000000000000000000000000000000000000000000000000000000000000000000000000000000000000000000000000000000000000000000000000000000000000000000000000000000000000000000000000000000000000000000000000000000000000000000000000000000000000000000000000000000000000000000000000000000000000000000000000000000000000000000000000000000000000001400000000000000000000000000000000000000000000000000000000000000000000000000000000000000000000000000000000000000000000000000000000000000000000000000000000000000000000000000000000000000000024000000000000000000000000000000000000000000000000000000000000000000000000000000000000000000000000000000000000000000000000000000000000000000000000000000000000000000000000000000000000000000000000
#0333a0:0000000000540000
#033360:000000000000000000000000000000000000000000000000000000000000000000000000000000000000000000000000000000000000000000000000000000000000000000000000000000000000000000000000000000000000000000000000000000000000000000000000000000000000000000000000000000000000000000000000000000000000000000000000000000000000000000000000000000000000000000000000000000000000000000000000000000000000000000000000000000000000000000000000000000000000000000000000000000000000000000000000000000000000000000000000000000000000000000000000000000000000000000000000000000000000000000000000000000000000000000000000001400000000000000000000000000000000000000000000000000000000000000000000000000000000000000000000000000000000000000000000000000000000000000000000000000000000000000000000000000000000000000000000
#033320:0000000000000054
#034360:24
#034360:000000000000000000000000000000000000000000000000000000000000000000000000000000000000000000000000000000000000000000000000000000000000000000000000000000000000000000000000000000000000000000000000140000000000000000000000000000000000000000000000000000000000000000000000000000000000000000000000000000000000000000000000000000000000000000000000000000000000000000000000000000000000000000000024000000000000000000000000000000000000000000000000000000000000000000000000000000000000000000000000000000000000000000000000000000000000000000000000000000000000000000000000000000000000000000000000000000000000000000000000000000000000000000000000000000000000000000000000000000000000000000000000000000000000000000000000000000000000000000000000000000000000000000000000000000000000000000000000
#034320:0000005400000000
#034360:000000000000000000000000000000000000000000000000000000000000000000000000000000000000000000000000000000000000000000000000000000000000000000000000000000000000000000000000000000000000000000000000000000000000000000000000000000000000000000000000000000000000000000000000000000000000000000000000000000000000000000000000000000000000000000000000000000000000000000000000000000000000000000000000001400000000000000000000000000000000000000000000000000000000000000000000000000000000000000000000000000000000000000000000000000000000000000000000000000000000000000000000000000000000000000000000240000000000000000000000000000000000000000000000000000000000000000000000000000000000000000000000000000000000000000000000000000000000000000000000000000000000000000000000000000000000000000000000
#0343a0:0000000000540000
#035360:140000000000000000000000000000000000000000000000000000000000000000000000000000000000000000000000000000000000000000000000000000000000000000000000000000000000000000000000000000000000000000000024000000000000000000000000000000000000000000000000000000000000000000000000000000000000000000000000000000000000000000000000000000000000000000000000000000000000000000000000000000000000000000000000000000000000000000000000000000000000000000000000000000000000000000000000000000000000000000000000000000000000000000000000000000000000000000000000000000000000000000000000000000000000000000000000000000000000000000000000000000000000000000000000000000000000000000000000000000000000000000000000000000000000000000000000000000000000000000000000000000000000000000000000000000000000000000000000
#0353a0:0054000000000000
#035360:000000000000000000000000000000000000000000000000000000000000000000000000000000000000000000000000000000000000000000000000000000000000000000000000000000000000000000000000000000000000000000000000001400000000000000000000000000000000000000000000000000000000000000000000000000000000000000000000000000000000000000000000000000000000000000000000000000000000000000000000000000000000000000000000240000000000000000000000000000000000000000000000000000000000000000000000000000000000000000000000000000000000000000000000000000000000000000000000000000000000000000000000000000000000000000000000000000000000000000000000000000000000000000000000000000000000000000000000000000000000000000000000000000000000000000000000000000000000000000000000000000000000000000000000000000000000000000000000
#035320:0000005400000000
#035360:000000000000000000000000000000000000000000000000000000000000000000000000000000000000000000000000000000000000000000000000000000000000000000000000000000000000000000000000000000000000000000000000000000000000000000000000000000000000000000000000000000000000000000000000000000000000000000000000000000000000000000000000000000000000000000000000000000000000000000000000000000000000000000000000000000000000000000000000000000000000000000000000000000000000000000000000000000000000000000000000000000000000000000000000000000000000000000000000000000000000000000000000000000000000000000000000140000000000000000000000000000000000000000000000000000000000000000000000000000000000000000000000000000000000000000000000000000000000000000000000000000000000000000000000000000000000000000000024
#035320:0000000000000054
#036360:001400000000000000000000000000000000000000000000000000000000000000000000000000000000000000000000000000000000000000000000000000000000000000000000000000000000000000000000000000000000000000000000240000000000000000000000000000000000000000000000000000000000000000000000000000000000000000000000000000000000000000000000000000000000000000000000000000000000000000000000000000000000000000000000000000000000000000000000000000000000000000000000000000000000000000000000000000000000000000000000000000000000000000000000000000000000000000000000000000000000000000000000000000000000000000000000000000000000000000000000000000000000000000000000000000000000000000000000000000000000000000000000000000000000000000000000000000000000000000000000000000000000000000000000000000000000000000000000
#0363a0:0054000000000000
#037350:0000000000000013
#038350:0023000000000000
#038320:00000000000000000000000013000023
#040320:00000000000000000000001c00000000
#042360:00240000
#043320:0000000000130023
#050350:00000000000000001333230000000000
#050321:00000000000000000000133323000000
#052381:00000013
#0523a1:00000000000000000000000000230000
#053381:13
#0533a1:00230000000000000000000000000000
#053381:00130000
#0533b1:00000000002300000000000000000000
#053381:0013
#0533b1:00000000000000000023000000000000
#053351:00000013
#053331:00000000000000000000000000230000
#054351:13
#054331:00230000000000000000000000000000
#054351:00130000
#054321:00000000002300000000000000000000
#055321:13
#055341:00230000000000000000000000000000
#055321:00130000
#055351:00000000002300000000000000000000
#055321:0013
#055351:00000000000000000023000000000000
#0553b1:00000013
#055391:00000000000000000000000000230000
#0563b1:13
#056391:00230000000000000000000000000000
#0563b1:00130000
#056381:00000000002300000000000000000000
#0563b1:0013
#056381:00000000000000000023000000000000
#062341:00000012
#063361:0022000000000000
#063381:00120000
#0633a1:0000000000220000
#063341:00000012
#063351:0000000000000032
#064361:22
#064380:12
#064390:0032000000000000
#0643a0:00220000
#064381:00120000
#064371:0000003200000000
#064361:0022
#0643a0:0012
#064390:0000000000320000
#064380:00000022
#064361:00000012
#065341:0022000000000000
#0653a1:00120000
#065381:0000000000220000
#077381:0000120000220000
#0773b1:00000000000000520000000000000000
#077361:00000012
#077331:00000000000000000000000000000052
#078361:0022000000000000
#078361:00000012
#079331:22
#079331:00120000
#079361:0022
#079380:0012
#0793b0:00000022
#084350:00120000
#084370:0000002200000000
#084350:0012
#084370:0000000000220000
#084340:00000013
#084370:0000000000000023
#085340:13
#085370:0023000000000000
#085330:00140000
#085370:0000002400000000
#085330:0014
#085370:0000000000240000
#085320:00000015
#085370:0000000000000025
#086320:15
#086370:0025000000000000
#087340:000000000000000000000000130000000023000000000000000000000000000000000000000000000000000000000000
#087391:000000000000000000000000130000000023000000000000000000000000000000000000000000000000000000000000
#087341:000000000000000000000000000000000000000000000000130000000023000000000000000000000000000000000000
#087390:000000000000000000000000000000000000000000000000130000000023000000000000000000000000000000000000
#087340:00000013
#088340:23
#087391:00000013
#088391:23
#094381:13332300000000000000000000000000
#0943b0:00001333230000000000000000000000
#096380:000000000000000000000000000000000000000000000000000000000000000000000000000000000000000000000000000000000000000000000000000000000000000000000000000000000000000000000000000000000000000000000000162600000000000000000000000000000000000000000000000000000000000000000000000000000000000000000000000000000000000000000000000000000000000000000000000000000000000000000000000000000000000000000000000000000000000000000000000000000000000000000000000000000000000000000000000000000000000000000000000000000000000000000000000000000000000000000000000000000000000000000000000000000000000000000000000000000000000000000000000000000000000000000000000000000000000000000000000000000000000000000000000000000000000000000000000000000000000000000000000000000000000000000000000000000000000000000000
#096380:000000000000000000000000000000000000000000000000000000000000000000000000000000000000000000000000000000000000000000000000000000000000000000000000000000000000000000000000000000000000000000000000000000000000000000000000000000000000000000000000000000000000000000000000000000000000000000000000000000000000000000000000000000000000000000000000000000000000000000000000000000000000000000000000162600000000000000000000000000000000000000000000000000000000000000000000000000000000000000000000000000000000000000000000000000000000000000000000000000000000000000000000000000000000000000000000000000000000000000000000000000000000000000000000000000000000000000000000000000000000000000000000000000000000000000000000000000000000000000000000000000000000000000000000000000000000000000000000
#096380:000000000000000000000000000000000000000000000000000000000000000000000000000000000000000000000000000000000000000000000000000000000000000000000000000000000000000000000000000000000000000000000000000000000000000000000000000000000000000000000000000000000000000000000000000000000000000000000000000000000000000000000000000000000000000000000000000000000000000000000000000000000000000000000000000000000000000000000000000000000000000000000000000000000000000000000000000000000000000000000000000000000000000000000000000000000000000000000000000000000000000000000000000000000000000000000000162600000000000000000000000000000000000000000000000000000000000000000000000000000000000000000000000000000000000000000000000000000000000000000000000000000000000000000000000000000000000000000000
#097380:162600000000000000000000000000000000000000000000000000000000000000000000000000000000000000000000000000000000000000000000000000000000000000000000000000000000000000000000000000000000000000000000000000000000000000000000000000000000000000000000000000000000000000000000000000000000000000000000000000000000000000000000000000000000000000000000000000000000000000000000000000000000000000000000000000000000000000000000000000000000000000000000000000000000000000000000000000000000000000000000000000000000000000000000000000000000000000000000000000000000000000000000000000000000000000000000000000000000000000000000000000000000000000000000000000000000000000000000000000000000000000000000000000000000000000000000000000000000000000000000000000000000000000000000000000000000000000000000
#097380:000000000000000000000000000000000000000000000000000000000000000000000000000000000000000000000000000000000000000000000000000000000000000000000000000000000000000000000000000000000000000000000000162600000000000000000000000000000000000000000000000000000000000000000000000000000000000000000000000000000000000000000000000000000000000000000000000000000000000000000000000000000000000000000000000000000000000000000000000000000000000000000000000000000000000000000000000000000000000000000000000000000000000000000000000000000000000000000000000000000000000000000000000000000000000000000000000000000000000000000000000000000000000000000000000000000000000000000000000000000000000000000000000000000000000000000000000000000000000000000000000000000000000000000000000000000000000000000000
#097380:000000000000000000000000000000000000000000000000000000000000000000000000000000000000000000000000000000000000000000000000000000000000000000000000000000000000000000000000000000000000000000000000000000000000000000000000000000000000000000000000000000000000000000000000000000000000000000000000000000000000000000000000000000000000000000000000000000000000000000000000000000000000000000000000162600000000000000000000000000000000000000000000000000000000000000000000000000000000000000000000000000000000000000000000000000000000000000000000000000000000000000000000000000000000000000000000000000000000000000000000000000000000000000000000000000000000000000000000000000000000000000000000000000000000000000000000000000000000000000000000000000000000000000000000000000000000000000000000
#097380:000000000000000000000000000000000000000000000000000000000000000000000000000000000000000000000000000000000000000000000000000000000000000000000000000000000000000000000000000000000000000000000000000000000000000000000000000000000000000000000000000000000000000000000000000000000000000000000000000000000000000000000000000000000000000000000000000000000000000000000000000000000000000000000000000000000000000000000000000000000000000000000000000000000000000000000000000000000000000000000000000000000000000000000000000000000000000000000000000000000000000000000000000000000000000000000000162600000000000000000000000000000000000000000000000000000000000000000000000000000000000000000000000000000000000000000000000000000000000000000000000000000000000000000000000000000000000000000000
#098320:000000000000000000000000000000000000000000000000000000000000000000000000000000000000000000000000000000000000000000000000000000000000000000000000000000000000000000000000000000000000000000000000162600000000000000000000000000000000000000000000000000000000000000000000000000000000000000000000000000000000000000000000000000000000000000000000000000000000000000000000000000000000000000000000000000000000000000000000000000000000000000000000000000000000000000000000000000000000000000000000000000000000000000000000000000000000000000000000000000000000000000000000000000000000000000000000000000000000000000000000000000000000000000000000000000000000000000000000000000000000000000000000000000000000000000000000000000000000000000000000000000000000000000000000000000000000000000000000
#098320:000000000000000000000000000000000000000000000000000000000000000000000000000000000000000000000000000000000000000000000000000000000000000000000000000000000000000000000000000000000000000000000000000000000000000000000000000000000000000000000000000000000000000000000000000000000000000000000000000000000000000000000000000000000000000000000000000000000000000000000000000000000000000000000000162600000000000000000000000000000000000000000000000000000000000000000000000000000000000000000000000000000000000000000000000000000000000000000000000000000000000000000000000000000000000000000000000000000000000000000000000000000000000000000000000000000000000000000000000000000000000000000000000000000000000000000000000000000000000000000000000000000000000000000000000000000000000000000000
#098320:000000000000000000000000000000000000000000000000000000000000000000000000000000000000000000000000000000000000000000000000000000000000000000000000000000000000000000000000000000000000000000000000000000000000000000000000000000000000000000000000000000000000000000000000000000000000000000000000000000000000000000000000000000000000000000000000000000000000000000000000000000000000000000000000000000000000000000000000000000000000000000000000000000000000000000000000000000000000000000000000000000000000000000000000000000000000000000000000000000000000000000000000000000000000000000000000162600000000000000000000000000000000000000000000000000000000000000000000000000000000000000000000000000000000000000000000000000000000000000000000000000000000000000000000000000000000000000000000
#099320:162600000000000000000000000000000000000000000000000000000000000000000000000000000000000000000000000000000000000000000000000000000000000000000000000000000000000000000000000000000000000000000000000000000000000000000000000000000000000000000000000000000000000000000000000000000000000000000000000000000000000000000000000000000000000000000000000000000000000000000000000000000000000000000000000000000000000000000000000000000000000000000000000000000000000000000000000000000000000000000000000000000000000000000000000000000000000000000000000000000000000000000000000000000000000000000000000000000000000000000000000000000000000000000000000000000000000000000000000000000000000000000000000000000000000000000000000000000000000000000000000000000000000000000000000000000000000000000000
#099320:000000000000000000000000000000000000000000000000000000000000000000000000000000000000000000000000000000000000000000000000000000000000000000000000000000000000000000000000000000000000000000000000162600000000000000000000000000000000000000000000000000000000000000000000000000000000000000000000000000000000000000000000000000000000000000000000000000000000000000000000000000000000000000000000000000000000000000000000000000000000000000000000000000000000000000000000000000000000000000000000000000000000000000000000000000000000000000000000000000000000000000000000000000000000000000000000000000000000000000000000000000000000000000000000000000000000000000000000000000000000000000000000000000000000000000000000000000000000000000000000000000000000000000000000000000000000000000000000
#099320:000000000000000000000000000000000000000000000000000000000000000000000000000000000000000000000000000000000000000000000000000000000000000000000000000000000000000000000000000000000000000000000000000000000000000000000000000000000000000000000000000000000000000000000000000000000000000000000000000000000000000000000000000000000000000000000000000000000000000000000000000000000000000000000000162600000000000000000000000000000000000000000000000000000000000000000000000000000000000000000000000000000000000000000000000000000000000000000000000000000000000000000000000000000000000000000000000000000000000000000000000000000000000000000000000000000000000000000000000000000000000000000000000000000000000000000000000000000000000000000000000000000000000000000000000000000000000000000000
#099320:000000000000000000000000000000000000000000000000000000000000000000000000000000000000000000000000000000000000000000000000000000000000000000000000000000000000000000000000000000000000000000000000000000000000000000000000000000000000000000000000000000000000000000000000000000000000000000000000000000000000000000000000000000000000000000000000000000000000000000000000000000000000000000000000000000000000000000000000000000000000000000000000000000000000000000000000000000000000000000000000000000000000000000000000000000000000000000000000000000000000000000000000000000000000000000000000162600000000000000000000000000000000000000000000000000000000000000000000000000000000000000000000000000000000000000000000000000000000000000000000000000000000000000000000000000000000000000000000
#1063a0:00000014
#1073a0:24
#107371:13230000
#1073a0:00132300
#107321:00001424
#107360:00000013
#108360:23
#108331:13230000
#1083a1:000000000000000000000000000000000000000000000000000000000000000000000000000000000000000000000000000000000000000000000000000000000000000000000000000000000000000000000000000000000000000000000000000000000000000000000000000000000000000000000000000000000000000000000000000000000000000000000000000000000000000000000000000000000000000000000000000000000000000000000000000000000000000000000000000000000000000000000000000000000000000000000000000000000000000000000000000000000000000000000000000000000000000000000000000000000000000000000000000000000000000000000000000000000000000000000000000000000000000000000000000000000000000000000000000000000000000000000000000000000000000000000000000000000000000000000000000000000000000000000000000000000000000000000000000000000000000000000000000000000000000000000000000000000000000000000000000000000000000000000000000000000000000000000000000000000000000000000000000000000000000000000000000000000000000000000000000000000000000000000000000000000000000000000000000000000000000000000000000000000000000000000000000000000000000000000000000000000000000000000000000000000000000000000000000000000000000000000000000000000000000000000000000000000000000000000000000000000000000000000000000000000000000000000000000000000000000000000000000000000000000000000000000000000000000000000000000000000000000000000000000000000000000000000000000000000000000000000000000000000000000000000000000000000000000000000000000000000000000000000000140000000000000000000000000000000000000000000000000000000000000000000000000000000000000000000000000000000000000000000000540000000000000000000000000000000000000000000000000000000000000000000000000000000000000000000000000000000000000000000000005400000000000000000000000000000000000000000000000000000000000000000000000000000000000000000000000000000000000000000000540000000000000000000000000000000000000000000000000000000000000000000000000000000000000000000000000000000000000000000000
#108391:0000000000000000000000000000000000000000000000000054005400540054
#1093a1:24
#109370:13230000
#1093a1:00132300
#109320:00000000000000001454545424000000
#109330:0000000000000000000000000000000000540054005400540000000000000000
#109361:00000013
#110361:23
#110330:13230000
#1103a0:000000000000000000000000000000000000000000000000000000000000000000000000000000000000000000000000000000000000000000000000000000000000000000000000000000000000000000000000000000000000000000000000000000000000000000000000000000000000000000000000000000000000000000000000000000000000000000000000000000000000000000000000000000000000000000000000000000000000000000000000000000000000000000000000000000000000000000000000000000000000000000000000000000000000000000000000000000000000000000000000000000000000000000000000000000000000000000000000000000000000000000000000000000000000000000000000000000000000000000000000000000000000000000000000000000000000000000000000000000000000000000000000000000000000000000000000000000000000000000000000000000000000000000000000000000000000000000000000000000000000000000000000000000000000000000000000000000000000000000000000000000000000000000000000000000000000000000000000000000000000000000000000000000000000000000000000000000000000000000000000000000000000000000000000000000000000000000000000000000000000000000000000000000000000000000000000000000000000000000000000000000000000000000000000000000000000000000000000000000000000000000000000000000000000000000000000000000000000000000000000000000000000000000000000000000000000000000000000000000000000000000000000000000000000000000000000000000000000000000000000000000000000000000000000000000000000000000000000000000000000000000000000000000000000000000000000000000000000000000000000140000000000000000000000000000000000000000000000000000000000000000000000000000000000000000000000000000000000000000000000540000000000000000000000000000000000000000000000000000000000000000000000000000000000000000000000000000000000000000000000005400000000000000000000000000000000000000000000000000000000000000000000000000000000000000000000000000000000000000000000540000000000000000000000000000000000000000000000000000000000000000000000000000000000000000000000000000000000000000000000
#110390:0000000000000000000000000000000000000000000000000054005400540054
#1113a0:24
#111371:130000000000000000000000000000000000000000000000000000000000530000000000000000000000000000000000000000000000000000000000005300000000000000000000000000000000000000000000000000000000530000000000000000000000000000000000000000000000000000000000230000000000000000000000000000000000000000000000000000000000000000000000000000000000000000000000000000000000000000000000000000000000000000000000000000000000000000000000000000000000000000000000000000000000000000000000000000000000000000000000000000000000000000000000000000000000000000000000000000000000000000000000000000000000000000000000000000000000000000000000000000000000000000000000000000000000000000000000000000000000000000000000000000000000000000000000000000000000000000000000000000000000000000000000000000000000000000000000000000000000000000000000000000000000000000000000000000000000000000000000000000000000000000000000000000000000000000000000000000000000000000000000000000000000000000000000000000000000000000000000
#111361:0053005300530053000000000000000000000000000000000000000000000000
#1113a0:000000000000000000000000000000000000000000000000000000000000000000000000000000000000000000000000000000000000000000000000000000000000000000000000000000000000000000000000000000000000000000000000000000000000000000000000000000000000000000000000000000000000000000000000000000000000000000000000000000000000000000000000000000000000000000000000000000000000000000000000000000000000000000000000000000000000000000000000000000000000000000000000000000000000000000000000000000000000000000000000130000000000000000000000000000000000000000000000000000000000000000000000000000000000000000000000000000000000000000000000530000000000000000000000000000000000000000000000000000000000000000000000000000000000000000000000000000000000000000000000005300000000000000000000000000000000000000000000000000000000000000000000000000000000000000000000000000000000000000000000530000000000000000000000000000000000000000000000000000000000000000000000000000000000000000000000000000000000000000000000230000000000000000000000000000000000000000000000000000000000000000000000000000000000000000000000000000000000000000000000000000000000000000000000000000000000000000000000000000000000000000000000000000000000000000000000000000000000000000000000000000000000000000000000000000000000000000000000000000000000000000000000000000000000000000000000000000000000000000000000000000000000000000000000000000000000000000000000000000000000000000000000000000000000000000000000000000000000000000000000000000000000000000000000000000000000000000000000000000000000000000000000000000000000000000000000000000000000000000000000000000000000000000000000000000000000000000000000000000000000000000000000000000000000000000000000000000000000000000000000000000000000000000000000000000000000000000000000000000000000000000000000000000000000000000000000000000000000000000000000000000000000000000000000000000000000000000000000000000000000000000000000000000000000000000000000000000000000000000000000
#1113b0:0000000000000000005300530053005300000000000000000000000000000000
#111321:000000000000000000000000000000000000000000000000000000000000000000000000000000000000000000000000000000000000000000000000000000000000000000000000000000000000000000000000000000000000000000000000000000000000000000000000000000000000000000000000000000000000000000000000000000000000000000000000000000000000000000000000000000000000000000000000000000000000000000000000000000000000000000000000000000000000000000000000000000000000000000000000000000000000000000000000000000000000000000000000000000000000000000000000000000000000000000000000000000000000000000000000000000000000000000000000000000000000000000000000000000000000000000000000000000000000000000000000000000000000000000000000000000000000000000000000000000000000000000000000000000000000000000000000000000000000000000000000000000000000000000000000000000000000000000000000000000000000000000000000000000000000000000000000000000000000000000000000000000000000000000000000000000000000000000000000000000000000000000000000140000000000000000000000000000000000000000000000000000000000000000000000000000000000000000000000000000000000000000000000540000000000000000000000000000000000000000000000000000000000000000000000000000000000000000000000000000000000000000000000005400000000000000000000000000000000000000000000000000000000000000000000000000000000000000000000000000000000000000000000540000000000000000000000000000000000000000000000000000000000000000000000000000000000000000000000000000000000000000000000240000000000000000000000000000000000000000000000000000000000000000000000000000000000000000000000000000000000000000000000000000000000000000000000000000000000000000000000000000000000000000000000000000000000000000000000000000000000000000000000000000000000000000000000000000000000000000000000000000000000000000000000000000000000000000000000000000000000000000000000000000000000000000000000000000000000000000000000000000000000000000000000000000000000000000000000000000000000000000000000
#111331:0000000000000000000000000000000000540054005400540000000000000000
#111360:000000000000000000000000000000000000000000000000000000000000000000000000000000000000000000000000000000000000000000000000000000000000000000000000000000000000000000000000000000000000000000000000000000000000000000000000000000000000000000000000000000000000000000000000000000000000000000000000000000000000000000000000000000000000000000000000000000000000000000000000000000000000000000000000000000000000000000000000000000000000000000000000000000000000000000000000000000000000000000000000000000000000000000000000000000000000000000000000000000000000000000000000000000000000000000000000000000000000000000000000000000000000000000000000000000000000000000000000000000000000000000000000000000000000000000000000000000000000000000000000000000000000000000000000000000000000000000000000000000000000000000000000000000000000000000000000000000000000000000000000000000000000000000000000000000000000000000000000000000000000000000000000000000000000000000000000000000000000000000000000000000000000000000000000000000000000000000000000000000000000000000000000000000000000000000000000000000000000000000000000000000000000000000000000000000000000000000000000000000000000000000000000000000000000000000000000000000000000000000000000000000000000000000000000000000000000000000000000000000000000000000000000000000000000000000000000000000000000000000000000000000000000000000000000000000000000000000000000000000000000000000000000000000000000000000000000000000000000000000000000130000000000000000000000000000000000000000000000000000000000000000000000000000000000000000000000000000000000000000000000530000000000000000000000000000000000000000000000000000000000000000000000000000000000000000000000000000000000000000000000005300000000000000000000000000000000000000000000000000000000000000000000000000000000000000000000000000000000000000000000530000000000000000000000000000000000000000000000000000000000000000000000000000000000000000000000000000000000000000000000
#111370:0000000000000000000000000000000000000000000000000053005300530053
#112360:23
#112331:130000000000000000000000000000000000000000000000000000000000000000000000000000000000000000000000000000000000000000000000530000000000000000000000000000000000000000000000000000000000000000000000000000000000000000000000000000000000000000000000005300000000000000000000000000000000000000000000000000000000000000000000000000000000000000000000000000000000000000000000530000000000000000000000000000000000000000000000000000000000000000000000000000000000000000000000000000000000000000000000230000000000000000000000000000000000000000000000000000000000000000000000000000000000000000000000000000000000000000000000000000000000000000000000000000000000000000000000000000000000000000000000000000000000000000000000000000000000000000000000000000000000000000000000000000000000000000000000000000000000000000000000000000000000000000000000000000000000000000000000000000000000000000000000000000000000000000000000000000000000000000000000000000000000000000000000000000000000000000000000000000000000000000000000000000000000000000000000000000000000000000000000000000000000000000000000000000000000000000000000000000000000000000000000000000000000000000000000000000000000000000000000000000000000000000000000000000000000000000000000000000000000000000000000000000000000000000000000000000000000000000000000000000000000000000000000000000000000000000000000000000000000000000000000000000000000000000000000000000000000000000000000000000000000000000000000000000000000000000000000000000000000000000000000000000000000000000000000000000000000000000000000000000000000000000000000000000000000000000000000000000000000000000000000000000000000000000000000000000000000000000000000000000000000000000000000000000000000000000000000000000000000000000000000000000000000000000000000000000000000000000000000000000000000000000000000000000000000000000000000000000000000000000000000000000000000000000000000000000000000000000000000000000000000000000000000000000000000000000000000
#112321:0053005300530053000000000000000000000000000000000000000000000000
#114321:0000000000000000000000000000000000000000000000000000000000000000000000000000000000000000000000000000000000000000000000000000000000000000000000000000000000000000000000000000000000000000000000000000000000000000000000000000000000000000000000000000000000000000000000000000000000000000000000000000000000000000000000000000000000000000000000000000000000000000000000000000000000000000000000000000000000000000000000000000000000000000000000000000000000000000000000000000000000000000000000000000000000000000000000000000000000000000000000000000000000000000000000000000000000000000000000000000000000000000000000000000000000000000000000000000000000000000000000000000000000000000000000000000000000000000000000000000000000000000000000000000000000000000000000000000000000000000000000000000000000000000000000000000000000000000000000000000000000000000000000000000000000000000000000000000000000000000000000000000000000000000000000000000000000000000000000000000000000000000000000000000000000000000000000000000000000000000000000000000000000000000000000000000000000000000000000000000000000000000000000000000000000000000000000000000000000000000000000000000000000000000000000000000000000000000000000000000000000000000000000000000000000000000000000000000000000000000000000000000000000000000000000000000000000000000000000000000000000000000000000000000000000000000000000000000000000000000000000000000000000000000000000000000000000000000000000000000000000000000000000000000000000000000000000000000000000000000000000000000000000000000000000000000000000000000000000000000000000000000000000000000000000000000000000000000000000000000000000000000000000000000000000000000000000000000000000000000000000000000000000000000000000000000000000000000000000000000000000000000000000000000000000000000000000000000000000000000000000000000000000000000000000000000000000000000000000000000000000000000000000000000000000000000000000000000000000000000000000000000000000001c2c00000000000000000000000000000000000000000000000000000000000000000000000000000000000000000000000000000000000000000000000000000000000000000000000000000000000000000000000000000000000000000000000000000000000000000000000000000000000000000000000000000000000000000000000000000000000000000000000000000000000000000000000000000000000000000000000000000000000000000000000000000000000000000000000000000000000000000000000000000000000000000000000000000000000000000000000000000000000000000000000000000000000000000000000000000000000000000000000000000000000000000000000000000000000000000000000000000000000000000000000000000000000000000000000000000000000000000000000000000000000000000000000000000000000000000000000000000000000000000000000000000000000000000000000000000000000000000000000000000000000000000000000000000000000000000000000000000000000000000000000000000000000000000000000000000000000000000000000000000000000000000000000000000000000000000000000000000000000000000000000000000000000000000000000000000000000000000000000000000000000000000000000000000000000000000000000000000000000000000000000000000000000000000000000000000000000000000000000000000000000000000000000000000000000000000000000000000000000000000000000000000000000000000000000000000000000000000000000000000000000000000000000000000000000000000000000000000000000000000000000000000000000000000000000000000000000000000000000000000000000000000000000000000000000000000000000000000000000000000000000000000000000000000000000000000000000000000000000000000000000000000000000000000000000000000000000000000000000000000000000000000000000000000000000000000000000000000000000000000000000000000000000000000000000000000000000000000000000000000000000000000000000000000000000000000000000000000000000000000000000000000000000000000000000000000000000000000000000000000000000000000000000000000000000000000000000000000000000000000000000000000000000000000000000000000000000000000000000000000000
#114321:000000000000000000000000000000000000000000000000000000000000000000000000000000000000000000000000000000000000000000000000000000000000000000000000000000000000000000000000000000000000000000000000000000000000000000000000000000000000000000000000000000000000000000000000000000000000000000000000000000000000000000000000000000000000000000000000000000000000000000000000000000000000000000000000000000000000000000000000000000000000000000000000000000000000000000000000000000000000000000000000000000000000000000000000000000000000000000000000000000000000000000000000000000000000000000000000000000000000000000000000000000000000000000000000000000000000000000000000000000000000000000000000000000000000000000000000000000000000000000000000000000000000000000000000000000000000000000000000000000000000000000000000000000000000000000000000000000000000000000000000000000000000000000000000000000000000000000000000000000000000000000000000000000000000000000000000000000000000000000000000001c00000000000000000000000000000000000000000000000000000000000000000000000000000000000000000000000000000000000000000000000000000000000000000000000000000000000000000000000000000000000000000000000000000000000000000000000000000000000000000000000000000000000000000000000000000000000000000000000000000000000000000000000000000000000000000000000000000000000000000000000000000000000000000000000000000000000000000000000000000000000000000000000000000000000000000000000000000000000000000000000000000000000000000000000000000000000000000000000000000000000000000000000000000000000000000000000000000000000000000000000000000000000000000000000000000000000000000000000000000000000000000000000000000000000000000000000000000000000000000000000000000000000000000000000000000000000000000000000000000000000000000000000000000000000000000000000000000000000000000000000000000000000000000000000000000000000000000000000000000000000000000000000000000000000000000000000000000000000000000000
#1203c1:00000022
#114320:0000000000000000000000000000000000000000000000000000000000000000000000000000000000000000000000000000000000000000000000000000000000000000000000000000000000000000000000000000000000000000000000000000000000000000000000000000000000000000000000000000000000000000000000000000000000000000000000000000000000000000000000000000000000000000000000000000000000000000000000000000000000000000000000000000000000000000000000000000000000000000000000000000000000000000000000000000000000000000000000000000000000000000000000000000000000000000000000000000000000000000000000000000000000000000000000000000000000000000000000000000000000000000000000000000000000000000001c000000000000000000000000000000000000000000000000000000000000000000000000000000000000000000000000000000000000000000000000000000000000000000000000000000000000000000000000000000000000000000000000000000000000000000000000000000000000000000000000000000000000000000000000000000000000000000000000000000000000000000000000000000000000000000000000000000000000000000000000000000000000000000000000000000000000000000000000000000000000000000000000000000000000000000000000000000000000000000000000000000000000000000000000000000000000000000000000000000000000000000000000000000000000000000000000000000000000000000000000000000000000000000000000000000000000
#120320:00000022
#012920:00000014
#0139a0:24
#013921:14
#0139a1:00240000
#0219a1:14
#021921:00240000
#0669a1:00140000
#066921:0024
#0669a0:0014
#066920:00000024
#1129a0:00000014
#113920:24
#1139a1:14
#113921:00240000
#1139a0:00140000
#113920:0024
#1139a1:0014
#113921:00000024
#1209c1:00000012
#1209a1:0000000000000000000000000000000000000000000000000054000000000000
#1219c1:00520000000000000000000052000000
#121991:0000005500000000000000000000000000000000000000000000000000000000
#1219a1:0000000000000000000000000000000000000000000000000054000000000000
#1229c1:000000000000000000000000000000000000000000000000000000000000000000000000000000000000000000000000000000000000000000000000520000000000000000000000000000000000000000000000000000000000000000000000000000000000000000000000000000000000000000000000000000000000000000000000000000000000000000000000000000000000000000000000000000000000000000000000000000000000000000000000000000000000000000000000000000000000000000000000000000000000000000000000000000000000000000000000000000000000000000000000000000000000000000000000000000000000000000000000000000000000000000000000000000000000000000000000000000000000000000000000000000000000000000000000000000000000000000000000000000000000000000000000000000000000000000000000000000000000000000000000000000000000000000000000000000000000000000000000000000000000000000000000000000000000000000000000000000000000000000000000000000000000000000000000000000000000000000000000000000000000000000000000000000000000000000000000000000000000000000000000000000000000000000000000000000000000000000000000000000000000000000000000000000000000000000000000000000000000000000000000000000000000000000000000000000000000000000000000000000000000000000000000000000000000000000000000000000000000000000000000000000000000000000000000000000000000000000000000000000000000000000000000000000000000000000000000000000000000000000000000000000000000000000000000000000000000000000000000000000000000000000000000000000000000000000000000000000000000000000000000000000000000000000000000000000000000000000000000000000000000000000000000000000000000000000000000000000000000000000000000000000000000000000000000000000000000000000000000000000000000000000000000000000000000000000000000000000000000000000000000000000000000000000000000000000000000000000000000000000000000000000000000000000000000000000000000000000000000000000000000000000000000000000000000000000000000000000000000000000000000000000000000000000000000000000000000000000000000000000000000000000000000000000000000000000000000000000000000000000000000000000000000000000000000000000000000000000000000000000000000000000000000000000000000000000000000000000000000000000000000000000000000000000000000000000000000000000000000000000000000000000000000000000000000000000000000000000000000000000000000000000000000000000000000000000000000000000000000000000000000000000000000000000000000000000000000000000000000000000000000000000000000000000000000000000000000000000000000000000000000000000000000000000000000000000000000000000000000000000000000000000000000000000000000000000000000000000000000000000000000000000000000000000000000000000000000000000000000000000000000000000000000000000000000000000000000000000000000000000000000000000000000000000000000000000000000000000000000000000000000000000000000000000000000000000000000000000000000000000000000000000000000000000000000000000000000000000000000000000000000000000000000000000000000000000005200525252525252525200525200220000000000000000000000000000000000000000000000000000000000000000000000000000000000000000000000000000000000000000000000000000000000000000000000000000000000000000000000000000000000000000000000000000000000000000000000000000000000000000000000000000000000000000000000000000000000000000000000000000000000000000000000000000000000000000000000000000000000000000000000000000000000000000000000000000000000000000000000000000000000000000000000000000000000000000000000000000000000000000000000000000000000000000000000000000000000000000000000000000000000000000000000000000000000000000000000000000000000000000000000000000000000000000000000000000000000000000000000000000000000000000000000000000000000000000000000000000000000000000000000000000000000000000000000000000000000000000000000000000000000000000000000000000000000000000000000000000000000000000000000000000000000000000000000000000000000000000000000000000000000000000000000000000000000000000000000000000000000000000000000
#122991:00550000000000000000000000000000
#120920:0000000000000000000000000000000000000000000000001254000000000000
#121920:0000525500000000000000000000000000000000000000005254000000000000
#122920:000000000000000000000000000000000000000000000000000000000000000000000000000000000000000000000000000000000000000000000000520000000000000000000000000000000000000000000000000000000000000000000000000000000000000000000000000000000000000000000000550000000000000000000000000000000000000000000000000000000000000000000000000000000000000000000000000000000000000000000000000000000000000000000000000000000000000000000000000000000000000000000000000000000000000000000000000000000000000000000000000000000000000000000000000000000000000000000000000000000000000000000000000000000000000000000000000000000000000000000000000000000000000000000000000000000000000000000000000000000000000000000000000000000000000000000000000000000000000000000000000000000000000000000000000000000000000000000000000000000000000000000000000000000000000000000000000000000000000000000000000000000000000000000000000000000000000000000000000000000000000000000000000000000000000000000000000000000000000000000000000000000000000000000000000000000000000000000000000000000000000000000000000000000000000000000000000000000000000000000000000000000000000000000000000000000000000000000000000000000000000000000000000000000000000000000000000000000000000000000000000000000000000000000000000000000000000000000000000000000000000000000000000000000000000000000000000000000000000000000000000000000000000000000000000000000000000000000000000000000000000000000000000000000000000000000000000000000000000000000000000000000000000000000000000000000000000000000000000000000000000000000000000000000000000000000000000000000000000000000000000000000000000000000000000000000000000000000000000000000000000000000000000000000000000000000000000000000000000000000000000000000000000000000000000000000000000000000000000000000000000000000000000000000000000000000000000000000000000000000000000000000000000000000000000000000000000000000000000000000000000000000000000000000000000000000000000000000000000000000000000000000000000000000000000000000000000000000000000000000000000000000000000000000000000000000000000000000000000000000000000000000000000000000000000000000000000000000000000000000000000000000000000000000000000000000000000000000000000000000000000000000000000000000000000000000000000000000000000000000000000000000000000000000000000000000000000000000000000000000000000000000000000000000000000000000000000000000000000000000000000000000000000000000000000000000000000000000000000000000000000000000000000000000000000000000000000000000000000000000000000000000000000000000000000000000000000000000000000000000000000000000000000000000000000000000000000000000000000000000000000000000000000000000000000000000000000000000000000000000000000000000000000000000000000000000000000000000000000000000000000000000000000000000000000000000000000000000000000000000000000000000000000000000000000000000000000000000000000000000000000000000000000000000000000000005200525252525252525200525200220000000000000000000000000000000000000000000000000000000000000000000000000000000000000000000000000000000000000000000000000000000000000000000000000000000000000000000000000000000000000000000000000000000000000000000000000000000000000000000000000000000000000000000000000000000000000000000000000000000000000000000000000000000000000000000000000000000000000000000000000000000000000000000000000000000000000000000000000000000000000000000000000000000000000000000000000000000000000000000000000000000000000000000000000000000000000000000000000000000000000000000000000000000000000000000000000000000000000000000000000000000000000000000000000000000000000000000000000000000000000000000000000000000000000000000000000000000000000000000000000000000000000000000000000000000000000000000000000000000000000000000000000000000000000000000000000000000000000000000000000000000000000000000000000000000000000000000000000000000000000000000000000000000000000000000000000000000000000000000000
