This file was generated by Ched 2.7.0.0.
#TITLE ""
#ARTIST ""
#DESIGNER ""
#DIFFICULTY 0
#PLAYLEVEL
#SONGID ""
#WAVE ""
#WAVEOFFSET 0
#JACKET ""
#REQUEST "ticks_per_beat 480"
#00002: 4
#BPM01: 170
#00008: 01
#TIL00: ""
#VOLUME: ""
#HISPEED 00
#MEASUREHS 00
#0561a:00141400
#05615:1313000000000000
#05618:00130000000000000000000000000000
#05612:00000014
#05616:0000001323000000
#05617:0000000000000013
#0081b:00130000
#00815:0000001300000000
#00812:2600000000130000
#00818:00001313
#0091b:0013000000000000
#00918:0013
#00915:1300000000130000
#00912:0000001300002400
#0091a:00000024
#01018:1300001313001300
#01015:1300000000130000
#01012:00000013
#02112:0013000000001300
#0211b:1300000000130000
#02118:00000013000013000000000000000000
#02115:0000000000000013
#02418:00000000000013002300130000130000
#02412:14131300
#0241a:14
#0241b:00230000
#02415:00000023
#02410:00410000
#02518:0013000000002300
#0251b:00131300
#02515:00000000000013002300130000130000
#02512:00230000
#02618:0000001300002300
#02612:0000130000130000
#0261b:0000230000000013
#02615:0013000023001300
#02718:0013000000001300
#02715:0000001313000000
#0271b:0013
#02712:2300000000000024
#02818:00001300000000000000000000130000
#02817:0000001300000000
#02816:0000000000130000
#02812:24230023
#0281b:0023
#0361b:00130000
#03615:0013
#03612:00000014
#0361a:0000000000000024
#03618:26
#05912:0000001300001300
#05915:0013
#05918:0000000000130000
#0591a:13
#05913:00130000000000000000000000000000
#0591b:0013000000001300
#06815:1300000000002323
#06818:00001300000000000000000000130013
#0681b:00130000
#06816:0013
#06812:0000242400000000
#0681a:0000000024240000
#07318:0013000000000013
#07312:00130000
#07315:00000013
#0731b:0013
#07612:00000013
#07615:0000000000000013
#07618:0000001300000000
#0761b:0000000000130000
#0761a:145454545454540000000000000000000000000000000000
#07718:13
#07712:0024000000002400
#0771a:0024000000002400
#07716:0000002424000000
#00015:00130000
#00018:00260013
#00012:00000026
#00115:00130000
#00118:00260013
#00112:00000026
#00212:0000141400000000
#0021a:0000000014140000
#00214:0000000000001414
#00218:00000000260000000000000000140014
#00312:1426000000002500
#0031a:00140000000000000000000000000000
#00319:0000002424002500
#00313:0000002424000000
#01115:1300000000130000
#0111b:0013000000000000
#01112:0000001300000000
#01118:00000013
#01218:0013001300000000
#0121b:0000130000130000
#01215:00001313
#01212:145454545454540000000000000000000000000000000000
#01312:0013000000002400
#01318:1300000000130000
#0131b:0000001300000000
#0131a:00000024
#0141b:0000001300130000
#01412:0000001300130000
#01418:13000013
#01415:1300000000000013
#01518:1313
#01512:0013000000001300
#0151b:0013001300001300
#01515:0000000000130000
#01618:0000001300130000
#01615:00000053000000001300000013000000
#0161b:00130000
#01612:13
#0161a:00000024
#01610:00410000
#01613:00530000000000000000000000000000
#01614:0053000000000000
#01616:00530000
#01712:0013000000002400
#0171b:13000013
#01718:0000001300130000
#01715:0013
#01818:0000131313001300
#01812:0000130000132400
#01817:24
#01915:1300001300000000
#01918:0013000013000000
#01912:00130026
#0191b:0000130000130000
#0191a:00000024
#02012:0000140000131300
#02018:26000000000013001300001300000000
#02015:00000000000000130000000000000013
#0201b:0000000000000013
#0201a:00140000
#02212:2400141400001300
#0221a:2400000014140000
#02218:00000000000000000000000000130000
#02213:0000000000000013
#02219:00000000000000000000000000000013
#02314:13
#0231a:00130000000000000000000000000000
#02315:0013000000002600
#0231b:00000013000000000000000000000000
#02312:00260000
#02318:0026
#02918:0013000000000000
#02916:0000001300000000
#02917:0000000000130000
#02915:00000000000000000000000000130000
#0291b:00230023
#02912:0023
#03015:0013001300002300
#0301b:0000130000130000
#03012:0000230000000013
#03018:00002313
#03712:00130000
#0371a:2400002424001400
#03816:00130000
#0381b:00130000
#03817:00000013
#03812:14000013
#04012:00130000
#04018:0013
#0401a:00000014
#04015:0000001300000000
#04019:25
#04014:0000000000000024
#04112:00000014
#0411b:00130000
#04118:0000001300000000
#04114:2400002424000000
#04218:00130013
#0421b:0013
#0421a:1400000000000024
#04812:1400140000000013
#0481a:24140000
#04815:00000000000013001300001300000000
#04818:00000000000000130000000000000013
#0481b:0000000000131300
#0501a:2400141400001400
#05012:2400000014140000
#05015:00000000000000000000000000140000
#05019:0000000000000014
#05014:00000000000000000000000000000014
#05212:14000014
#0521c:00120000
#0521a:14
#0521f:00110000
#0531a:00000014
#05312:00120000
#05712:14000014
#0571a:00141400
#05716:0000001323000000
#05717:2300000000000013
#05812:1400000024240000
#05818:00000013
#05815:00000000000000000000000000130000
#05819:0000000000000013
#05814:00000000000000000000000000000013
#05817:23
#0581a:0000242400000000
#05118:14260000
#05113:00140000000000000000000000000000
#05117:0014000000000000
#05112:00000014000000002600000000000000
#05115:00000026
#06015:00000013
#06018:24000000000000000000000000000013
#06012:00000000240000000000000000000024
#0601a:00240024
#06014:24
#0601f:00210000
#06115:00001300000000000000000000130000
#06118:00000013
#0611b:0000000000000013
#0611a:0024000024000000
#06112:0024
#06110:0041
#06315:1300001313000000
#06318:0013000000001300
#0631b:0013
#06312:0000000000000024
#06212:0013000000130013
#06215:0000001300000000
#0621b:00230000
#06218:0023
#06614:0000001300000000
#06619:0000000000130000
#06612:0000230000002313
#06615:0013000000000000
#06617:00000013
#06616:0013
#0661b:00132300
#06418:00530000000013000000000000130000
#0641b:0000530000130000
#06415:0000000023000013
#06417:13
#06412:24230023
#06419:0053000000000000
#0641a:00000053000000000000000000000000
#06518:0013000023000013
#06515:00000000000013000000000000130000
#06512:0000000000130000
#0651b:00230023
#07112:0013000000130000
#07118:0000001300001300
#07115:0013
#0711b:0000000000000013
#0701b:00001313
#07016:0013
#07018:00000000130013000000000000000013
#07015:00000000001300000000000000000000
#07012:24
#0701a:24
#0721b:00131300
#07215:00000000130000000000000000000013
#07212:2300001300001300
#07218:0000000000130000
#07418:0013000000000000
#07412:13000000000000000000000000000013
#07417:0013
#07416:00130000
#0741b:00130000
#07415:00000013
#07518:0013
#0751b:0013000000130000
#07515:0000001300001300
#07512:0000000000000013
#03318:00000000000000250000000000000014
#03315:0000001313000000
#0331a:00000024
#03312:0025000000002400
#03319:0000250000250000
#03314:0000000000000024
#0341a:0014240000000000
#03416:0013
#03412:00000000240000000000000063000025
#03419:00000025
#03414:2424000000530000
#03415:00000000000000000053000000000000
#03413:00000000000000000000005300000000
#05418:00120000
#05416:00000014
#05516:00120014
#07915:0000000000000013
#07918:00000000260000260000260000000013
#07914:0000001414000000
#07912:0026000000002400
#0791a:00000024
#08012:13001400240000000000001300000026
#0801a:0014240000000000
#08018:00001326
#08015:00000000000000000013000000000000
#0801b:0000000000130000
#07818:13000000260000000013000000000026
#07815:00130000000000001300000000000000
#0781b:00001300000000000000001300000000
#07812:00000013000000000000130026000000
#00416:1414
#00412:13000000240000000000000064000024
#0041b:0013
#0041a:00640024
#00410:00410000
#00417:00540000000000000000000000000000
#00418:0054000000000000
#00419:00000054000000000000000000000000
#00415:00000000000000000054000000000000
#00414:0000000000540000
#00413:00000000000000000000005400000000
#00616:0014
#00612:00241324
#00614:14
#0061a:00000000240000000000000064000024
#00618:0024000000540000
#00617:00000000000000000054000000000000
#00619:00000000000000000000005400000000
#03216:13
#03217:0013
#03219:00000000250000000000530000000025
#03212:00630025
#03210:00410000
#03215:00530000000000000000000000000000
#03214:0053000000000000
#03213:00000053000000000000000000000000
#03218:00000000000000000053000000000000
#0321a:00000000000000000000005300000000
#0321b:00000063
#04615:0000000000130000
#04612:24230013
#0461a:14
#0461b:00230000
#04618:00000023
#0471a:0014000000002400
#04716:0013001400000000
#04712:0000001300140000
#0471b:0000000000130000
#08216:14
#08217:0052000000000000
#00514:00000000240000240000240000001400
#00518:00000000000014001400000000000014
#0051a:0024000000002400
#04418:0000000000130000
#0441b:00000013
#04412:00230000
#04415:00000023
#04410:00410000
#04512:0014000000132400
#04516:0000001400000000
#0451a:0000000000140000
#04517:0013000000000000
#0451b:0000001300000000
#0491b:0013000000001300
#04912:1300000000130000
#04915:00000013000013000000000000000000
#04918:0000000000000013
#03114:0000002323000000
#03112:0026000000002500
#03119:0000002323002500
#0311b:23
#0431a:24240000
#04318:0000002600000000
#04312:0000000000002426
#0691a:0024000000002424
#06912:0024002300002424
#06915:2323
#06918:0000000000230000
#0691b:0000002300000000
#00718:00260000
#00716:0026
#00714:00000026
#00712:0024000000000000
#03912:0023230000002300
#03918:0000002300000000
#03915:0023
#0391b:0000000000230000
#06714:0000002323000000
#06712:0026000000002500
#06719:0000002323002500
#0671b:23
#08118:0026000000000000
#08112:002c2824
#03519:0025000000000000
#03512:00260000
#03514:0026
#03516:00000026
#06052:00000000140000000000000000000014
#0605a:00140014
#06054:14
#06058:14
#00858:00000053
#00852:16
#0095b:0053000000000000
#0095a:00000014
#00952:00000014
#02152:00000063
#02155:0000000000000023
#02352:00160000
#02358:0016
#02355:00000016
#02758:0053000000001300
#0365b:00530000
#03652:00000014
#03658:16
#06152:0014
#0615a:0014000014000000
#0615b:0000000000000053
#0695a:0014000000000000
#06952:0014000000000000
#07352:00530000
#07355:00000053
#0735b:0063
#07752:0014000000001400
#0775a:0014000000001400
#00055:00530000
#00058:00460063
#00052:00000036
#00155:00530000
#00158:00460063
#00152:00000036
#0045a:00440044
#00452:00000000340000000000000034000034
#01055:53
#01058:63000063
#0115b:0053000000000000
#01158:00000053
#01255:00000063
#01352:0063000000001400
#0135a:00000014
#01552:0053000000000000
#01655:00000053
#01752:0063000000000000
#0175b:00000053
#01857:14
#01858:00000063
#02058:16
#01952:00000016
#02252:34
#0225a:44
#03152:0016000000003500
#03159:00000045
#03259:00000000450000000000000000000045
#03252:00330035
#0325b:00000043
#03452:00000000000000000000000033000035
#03459:00000045
#00758:00160000
#00756:0016
#00754:00000016
#00752:0034000000000000
#03752:00630000
#0375a:00000014
#03856:00530000
#0385b:00530000
#03857:00000063
#03852:14000063
#03952:00000063
#04056:13
#04059:15
#04052:00630000
#0405a:00000014
#04055:0000002300000000
#04152:00000014
#0415b:00530000
#04158:0000002300000000
#04358:0000001600000000
#04352:0000000000000016
#0485a:14
#05152:0016
#05155:00000016
#05158:00160000
#05252:14000014
#05258:00000012
#0525c:00520000
#0525a:14
#0535a:00000014
#05352:00620000
#05356:00000012
#05952:00000053
#0595b:00000063
#06358:0053000000001300
#06752:0016000000003500
#06759:00000045
#06455:0000000000000053
#06558:0000000000000063
#07056:0053
#07058:00000000000000000000000000000023
#0705b:00000053
#07052:34
#0705a:44
#07152:0053000000230000
#07155:0053
#07158:00000063
#0715b:0000000000000023
#07452:63000000000000000000000000000023
#07457:0063
#07456:00630000
#07455:00000053
#07558:0063
#0755b:0063000000230000
#07555:00000053
#07552:0000000000000023
#07858:00000000460000000000000000000046
#07852:00000036
#07952:0036000000000000
#08052:00000000000000000000000000000036
#08058:00000046
#08158:0046000000000000
#08152:001c1814
#00258:00460000
#00352:0036000000003500
#00359:00000045
#0065a:00000000000000000000000044000044
#00652:00000034
#05458:00620000
#0545c:00000012
#05456:00000014
#05556:00520014
#05552:00000012
#04652:14000013
#0475a:0014000000001400
#04756:0000001400000000
#04752:0000000000140000
#07255:00000000530000000000000000000023
#0725b:0053
#07252:0000002300006300
#07258:0000000000230000
#0055a:0044000000000000
#03352:0035000000000000
#03559:0045000000000000
#03552:00160000
#03554:0016
#03556:00000016
#0425a:14
#01455:53
#01458:63
#0445b:00000013
#04552:0014000000001400
#04556:0000001400000000
#0455a:0000000000140000
#0245a:14
#02452:14
#0495b:00000053
#04958:0000000000000023
#0505a:44
#05052:34
#000350:00130000
#000320:00000026
#000381:00000013
#001381:00260000
#001350:00130000
#001320:00000026
#001381:00000013
#002381:00260000
#0053a1:00000014
#005381:0000000000000024
#008381:00000013
#0093b1:23
#0093b1:0013000000000000
#009381:0000002300000000
#010351:13
#010321:00230000
#010380:13
#0103b0:00230000
#010380:00000013
#0113b0:23
#0113b0:0013000000000000
#011380:0000002300000000
#0113b0:0000000013230000
#011380:00000013
#0123b0:23
#012350:00000013
#013320:23
#013320:0013000000000000
#013350:0000002300000000
#013350:0000000013230000
#014380:13
#0143b0:00230000
#014351:13
#014321:00230000
#015321:0013000000000000
#015361:0000002300000000
#016351:00000013
#017321:23
#017321:0013000000000000
#017351:0000002300000000
#0173b1:00000013
#018371:24
#018381:00000013
#0193b1:23
#021321:0000132300000000
#021351:0000000013230000
#021321:00000013
#021351:0000000000000053
#022321:24
#024321:0000000000000013
#025321:0023000000000000
#0253b1:0000000000000013
#0263b1:0023000000000000
#027381:0013000000000000
#0273b1:0000002300000000
#028321:0000132300000000
#0283b1:0000000013230000
#028351:0000000000000013
#029351:0023000000000000
#0293b1:0000132300000000
#029321:0000000013230000
#029381:0000000000000013
#030381:0023000000000000
#0333a1:00000014
#033381:0000000000000024
#0363b1:00130000
#036381:0000003333002300
#037321:00130000
#037351:0000003333002300
#038361:00130000
#038321:0000005323000000
#0383b0:00130000
#038370:0000005323000000
#038370:00000013
#0383b0:0000000000000053
#0393b0:23
#038321:00000013
#038361:0000000000000053
#039361:23
#039321:0000132300000000
#039351:0000000013230000
#039321:00000013
#039361:0000000000000053
#040361:23
#040321:00133323
#040351:0000003300000000
#0413b1:00133323
#041381:0000003300000000
#042321:00130000
#043321:00280000
#044381:1656565636000000000000000000000000000000000000000000000000000000
#044371:00560056005600560000000000000000000000000000000000000000000000000000000000000000000000000000000000000000000000000000000000000000
#0443b1:00230000
#0493b1:0000132300000000
#049381:0000000013230000
#0493b1:00000013
#049381:0000000000000053
#0503a1:24
#0523c1:00120000
#052381:00000022
#053321:00120000
#053361:00000022
#054381:00120000
#0543c1:00000022
#055361:00120000
#055321:00000022
#059321:00000013
#060341:24
#0593b0:00000013
#060380:24
#0613b0:0000000000000013
#062370:0023000000000000
#0623b0:0000132300000000
#062380:0000000013230000
#0623b0:00000013
#062380:0000000000000033
#0633b0:23
#063380:0013000000000000
#0633b0:0000002300000000
#064320:0000132300000000
#064350:0000000013230000
#064350:0000000000000013
#065320:0023000000000000
#0653b0:0000132300000000
#065380:0000000013230000
#065380:0000000000000013
#0663b0:0023000000000000
#070360:0013
#070320:00000023
#0703b1:00000013
#070381:00000000000000000000000000000053
#0713b1:0023000000000000
#071320:0013000000000000
#071350:0000002300000000
#071350:00001323
#071320:0000000000530000
#071381:00000013
#0713b1:0000000000000053
#072381:23
#072351:00132300
#072321:0000005300000000
#0723b0:00001323
#072380:0000000000530000
#072321:00000013
#072351:00000000000000000000000000000053
#073321:0023000000000000
#073321:00130000
#073361:0023
#0733b0:0013
#073380:00000023
#073351:00000013
#073321:0000000000000023
#074321:13
#074351:0023000000000000
#074361:00130000
#074321:0023
#074370:0013
#0743b0:00000023
#074351:00000013
#074321:00000000000000000000000000000053
#075351:0023000000000000
#0753b0:0013000000000000
#075380:0000002300000000
#075380:00001323
#0753b0:0000000000530000
#075351:00000013
#075321:0000000000000053
#076351:23
#076321:0000132300000000
#076351:0000000013230000
#004960:14
#0049a0:00240000
#004960:0014
#004920:00000024
#006960:0014
#0069a0:00000024
#012920:14240000
#016920:13
#016960:00230000
#032960:13
#032920:00230000
#032970:0013
#0329b0:00000023
#034960:0013
#034920:00000023
#064970:13
#0649b0:00230000
#0769a0:14240000
#082960:14
#082970:0022000000000000
