This file was generated by Ched 2.7.0.0.
#TITLE ""
#ARTIST ""
#DESIGNER ""
#DIFFICULTY 0
#PLAYLEVEL
#SONGID ""
#WAVE ""
#WAVEOFFSET 0
#JACKET ""
#REQUEST "ticks_per_beat 480"
#00002: 4
#BPM01: 170
#00008: 01
#TIL00: ""
#VOLUME: ""
#HISPEED 00
#MEASUREHS 00
#0521b:00130000
#05212:14
#0521a:14
#0521f:00110000
#05618:00141400
#05614:00000014
#05612:00140000
#0561a:00000014
#05714:14
#0571a:00141400
#05712:00140014
#05718:00000014
#05812:14
#05818:00240000
#0581a:00000000000034003400340034343434
#0081b:00130000
#00815:0000001300130000
#00818:00001313
#00812:24
#00915:0013000000130000
#00918:0013
#0091a:00000024
#01018:0000001300130000
#01015:0013
#01012:00000013
#0101b:00000013
#02115:13001313
#0211b:0013000000130000
#02118:0000001300000000
#02112:00130000
#02415:0000001300130000
#02418:00001313
#02412:14
#0241a:1400000000000053
#0241b:00230000
#02410:00410000
#02419:00000000000000000000000000530000
#02518:0000001300130000
#02515:00001313
#02512:0013230000000000
#02514:00000000000000000000000000530000
#02513:0000000000000053
#02615:0000001300130000
#02618:0013
#0261b:0013230000001300
#02612:0000000000000013
#02718:13
#02712:00000014
#0271a:00000014
#02715:0013000000000000
#0281b:0000001300000000
#02815:00001313
#02818:0000000000130000
#02812:0013230000000000
#02814:00000000000000000000000000530000
#02813:0000000000000053
#02912:0000001300000000
#02918:00001313
#02915:0000000000130000
#0291b:0013230000000000
#02919:00000000000000000000000000530000
#0291a:0000000000000053
#03015:0000001300130013
#03018:0013
#0301b:00230013
#03012:0013000000000000
#03118:1300002400000000
#03112:0024000000002400
#03114:0024
#0311a:00000024
#03812:00130013
#03818:0000001300000013
#03815:0013
#0381b:0000000000130000
#03915:1300131300000000
#0391b:0013000000000000
#03918:0000000013130000
#03912:00000013
#04018:00130000
#0401b:0013
#04115:00130000
#04112:0013
#0421b:00130013
#04215:0000001300130000
#04218:0013
#04212:0000000000000013
#04318:13
#04315:0013000000000000
#0431a:0000242400000000
#04312:0000000000002424
#04812:00130013
#04818:0000001300130000
#0481b:0000000000000013
#04815:0013
#0481a:24
#0441b:0000130000130000
#04415:00130000
#04414:00000024
#04410:00410000
#04518:0013001300130000
#04512:0013000000002400
#04612:0000130000130000
#04618:00130024
#0461a:24
#04715:0013001300130000
#04712:13
#0471a:00000024
#04915:13001313
#0491b:0013000000130000
#04912:00130000
#04918:0000001300000000
#05312:00130000
#05418:00130000
#05515:00130000
#06212:0013000000000000
#0621b:00130013
#06215:0000001300130000
#06218:1300000013000013
#06315:13
#06312:0013000000001400
#0631a:00000014
#06415:0000001300001300
#06418:0013000013000000
#0641b:0000000000130000
#06412:00230000
#06414:00000000000000000000000000530000
#06413:0000000000000053
#06615:0000231300000013
#06618:0000000013130000
#06612:00000013
#0661b:0013000000000000
#06718:1324
#0671a:0024000000002400
#06714:0000002400000000
#06712:00000024
#06815:13
#06818:0013000000000000
#06812:0000131300000000
#0681b:0000000013130000
#07012:00130013
#07018:00130013
#07015:0013
#0701b:0013
#0701a:24
#07115:1300001300000000
#07118:0013000013000000
#07112:00000013
#0711b:00000013
#07318:0013000000000000
#07312:00130000
#0731b:00000013
#07315:0000000000000013
#07418:1313
#07415:0013000000001300
#0741b:00130013
#07412:0013
#07515:0013000013000000
#07518:1300001300000000
#0751b:00000013
#07512:00000013
#07618:0013000000000000
#07612:0000131300001300
#0761b:0000000013130000
#07615:0000000000000013
#07718:13
#0771a:0024000000002400
#07714:0000002424000000
#07712:00000024
#07814:13
#07819:13
#07812:00240024
#0781a:00000000240000000000000000000024
#02015:0013
#0201b:0000000000000013
#02012:00130013
#02018:0000001300130000
#0201a:24
#01915:0013001300130000
#01912:13
#0191a:00000024
#01812:0000130000130000
#0181a:24
#01818:00000024
#01718:0013001300130000
#01712:00000024
#0161b:0000000000130000
#01612:14
#01614:0054000000002400
#01610:00410000
#01613:00540000000000000000000000000000
#01615:00000054000000000000000000000000
#01616:00540000
#0141b:0000000000130000
#01418:0000001300000013
#01412:0000001300001300
#01515:1300001300130000
#01518:0013000013001300
#01318:0000000000130000
#01315:0013
#0131b:0013000000000000
#01312:00000024
#01212:00130013
#0121b:0000000000130000
#01215:0013
#01218:0013001300000000
#01214:14
#0111b:0000001300000000
#01118:0013000033330000
#01115:13
#00512:0000001400000000
#00516:0014
#0051a:0000000000140000
#00518:00240000
#00514:0024000000002400
#0331a:0000001400000000
#03316:0014
#03312:0000000000140000
#03314:00240000
#03318:0024000000002400
#03612:00130000
#03615:0013
#0361a:24
#0371b:00130000
#03718:0013
#0611b:00000013
#06115:0000000000000013
#06118:0024000000000000
#06112:0024
#0611a:0024
#06110:0041
#06518:0000001300001300
#06515:0013000013000000
#06512:0000000000130000
#0651b:00230000
#06519:00000000000000000000000000530000
#0651a:0000000000000053
#07912:0000001400000000
#07916:0014
#0791a:0000000000140000
#07918:00240000
#07914:0024000000002400
#00018:00260000
#00012:00000026
#06012:00240000
#0601a:00240000
#06016:24
#06018:00000024
#06014:00000000000000000000000000000024
#0601f:00210000
#00312:00000024
#0031a:34340000000000000000000024000000
#00314:0000002400000000
#00318:0024
#0041a:00000000000000000000000000000024
#00412:00000024
#00419:00240000
#00413:00240000
#00410:00410000
#0071a:00240000
#00714:0024000024000000
#00718:00000024
#02212:23
#02218:00240000
#0221a:00000000000034003400340034343434
#02316:0024
#02312:00000024
#0231a:34343434000000000000000000000000
#03213:00240000
#03219:00240000
#03212:00000000000000000000000000000024
#0321a:00000024
#03210:00410000
#05012:23000000000034003400340034343434
#05018:00240000
#05014:00240000
#0501a:00000000000034003400340034343434
#05116:0024
#05112:34343434000000000000000024000000
#0511a:34343434000000000000000000000000
#0691a:0024000000002424
#06912:0000002400000000
#06918:0024
#06914:0000000000240000
#07218:23
#07215:0023000000000000
#00618:00000000000000000000000000000024
#00614:00000024
#0061a:00242400
#00612:00242400
#00218:00240000
#0021a:00000000000034003400340034343434
#00112:00000026
#00118:00260000
#03512:00240000
#03518:0024000024000000
#03514:00000024
#03414:00000000000000000000000000000024
#03418:00000024
#03412:00242400
#0341a:00242400
#0811a:00240000
#08114:0024000024000000
#08118:00000024
#08018:00000000000000000000000000000024
#08014:00000024
#0801a:00242400
#08012:00242400
#0591a:34340000000000000000000000000000
#08212:0054000000000000
#0525b:00530000
#05258:00000013
#06052:00140000
#0605a:00140000
#06056:14
#00352:00000014
#0035a:00000014
#0075a:00140000
#00754:0014
#00758:00000014
#00852:14
#00858:00000053
#00955:0053000000000000
#02155:00000053
#02258:00540000
#02252:13
#0235a:00140000
#02356:0014
#02352:00000014
#02752:00000014
#0275a:00000014
#02755:0063000000000000
#03152:00000014
#0315a:00000014
#03253:00140000
#03259:00140000
#03952:00000053
#04058:00630013
#0405b:0023
#04155:00530013
#04152:0023
#04955:00000053
#0465a:14
#0485a:14
#05052:13
#05058:00540000
#05054:00640000
#05156:0014
#05152:00140014
#0515a:00140000
#05352:00630000
#05355:00000013
#05458:00630000
#0545b:00000013
#05555:00530000
#05552:00000013
#05858:00540000
#06152:0014
#0615a:0014
#06352:0053000000001400
#0635a:00000014
#06752:00000014
#0675a:00000014
#0695a:0014000000000000
#0705a:14
#07255:0053000000000000
#07352:00530000
#07752:00000014
#0775a:00000014
#07852:00140000
#0785a:00140000
#0205a:14
#0185a:14
#01558:0053000000000000
#0135b:0053000000000000
#01252:00000053
#01254:14
#01158:0053000000001400
#0115b:0000005300000000
#00554:00000054
#00058:00160000
#00052:00000016
#00459:00140000
#00453:00140000
#00258:00540000
#00152:00000016
#00158:00160000
#03552:00140000
#03558:0014
#03554:00000014
#0365a:14
#03652:00630013
#03655:0023
#03358:00000064
#0375b:00530013
#03758:0023
#0815a:00140000
#08154:0014
#08158:00000014
#07954:00000054
#002380:00140000
#0023a0:00000000000034003400340034343434
#0033a0:34342400000000000000000000000000
#005340:00000014
#006320:24
#008380:00000013
#0093b0:23
#009350:0013000000000000
#009320:0000002300000000
#010320:13230000
#011380:0013000033332400
#0113b0:0000003300000000
#012320:00000013
#013350:23
#0133b0:0013000000000000
#013380:0000002300000000
#0143b0:13230000
#015380:0013000000000000
#0153b0:0000002300000000
#021350:00000013
#022320:23
#022380:00140000
#0223a0:00000000000034003400340034343434
#0233a0:34343434240000000000000000000000
#027350:0013000000000000
#027320:0000003323000000
#033380:00000014
#0343a0:24
#036320:00130023
#036350:0053
#0373b0:00130023
#037380:0053
#039320:00000013
#040350:23
#040380:00130023
#0403b0:0053
#041350:00130023
#041320:0053
#049350:00000013
#050320:23
#050380:00140000
#0503a0:00000000000034003400340034343434
#0513a0:34343434240000000000000000000000
#050341:00140000
#050321:00000000000034003400340034343434
#051321:34343434240000000000000000000000
#0523b1:00130000
#052381:00000023
#053321:00130000
#053351:00000023
#054381:00130000
#0543b1:00000023
#055351:00130000
#055321:00000023
#058381:00140000
#0583a1:00000000000034003400340034343434
#0593a1:34342400000000000000000000000000
#063321:0013000000000000
#063351:0000003323000000
#068351:00000013
#069351:23
#072351:0013000000000000
#073321:23
#073321:00130000
#073351:0023
#079341:00000014
#080321:24
#082321:1424000000000000
#016920:14
#016960:00240000
#024980:00000013
#0249a0:0000000000000023
#025950:00000013
#025930:0000000000000023
#028950:00000013
#028930:0000000000000023
#029980:00000013
#0299a0:0000000000000023
#064950:00000013
#064930:0000000000000023
#065980:00000013
#0659a0:0000000000000023
