This file was generated by Ched 2.7.0.0.
#TITLE ""
#ARTIST ""
#DESIGNER ""
#DIFFICULTY 0
#PLAYLEVEL
#SONGID ""
#WAVE ""
#WAVEOFFSET 0
#JACKET ""
#REQUEST "ticks_per_beat 480"
#00002: 4
#BPM01: 170
#00008: 01
#TIL00: ""
#VOLUME: ""
#HISPEED 00
#MEASUREHS 00
#0521c:00120000
#05212:54000012
#0521a:14
#0521f:00110000
#00912:2413000024002400
#00916:0000000000120000
#0091b:1300001300000000
#00919:00130000
#00918:0012
#0091a:00000024
#0211b:00000013
#02117:0000000000000013
#02112:15
#02118:0013000000000000
#02115:00000013000000000000000000000000
#02116:0000001400140000
#0361c:00120000
#03616:0012
#03612:26120014
#0361a:0000000000000024
#03619:0053000000000000
#03618:00000052
#0021b:0000131313130000
#00212:00260014
#00218:16000000000000000000000000140000
#00215:0000000013130014
#0021a:00000000000000000000000000000014
#00313:14
#00318:00140000000000000000000000000000
#00312:002c000000002500
#00319:0000002222002500
#00315:0000002222000000
#01716:0012
#01718:1212000000222200
#01712:00000013
#01715:0000000000000013
#01714:0022002200000000
#02018:00000000000013000000130000000013
#02015:00000000000000130000001300001300
#02019:00001515
#02012:00000000000000000013000000000000
#0201a:24
#02016:24
#02212:24131614
#0221a:24000000000000000000000000140000
#02213:0000000000000014
#02219:00000000000000000000000000000014
#02218:0000160000130000
#02215:0000001300000000
#0221b:0013
#02314:14000000005400000054000000540000
#02318:00140000000000540000005400000054
#02315:0000000014000000000000540000000000000054000000000000005400000000
#02317:0000000000001400000000000054000000000000005400000000000000540000
#0231a:00245454
#02313:0000000000000000005400000000000000540000000000000054000000000000
#02316:0000005400540054
#02319:0000000000000000000000000000005400000000000000540000000000000054
#02312:00545454
#0371a:24000014
#03712:00120000
#0371c:00120000
#03718:0000002424000000
#03716:00000052
#00018:00160026
#00014:0016
#00012:00260016
#00116:16
#00118:00160026
#00112:00261616
#00412:13000000290000000000001300000028
#00415:00130000000000000000130029000000
#00418:00001300000000000013000000000000
#0041b:00000013000000001300000000000013
#00410:00410000
#00512:00001300280000140000280000002400
#0051b:00130000
#0051a:0000000000142400
#00516:00002800000000280000000000000024
#00716:0000001426140014
#00712:0013
#0071b:00000013
#00714:00000026
#00718:00260000
#00719:0025000000000000
#0081b:13130013
#00816:0014000000130000
#00817:0000001300000000
#00812:26002413
#00818:0000000000000013
#0111b:00000013
#01112:13130013
#01117:0013000000000000
#01118:0000000000130000
#01115:0000001300000000
#0111a:2424
#01516:0013000000000000
#01515:0000000000131300
#0151b:13130013
#01518:0000001300000000
#01517:0000000000000013
#01512:2400000024000013
#01612:1300221212000000
#01616:00000012
#01618:0013000012000000
#0161a:00000053000000000000220022000000
#01610:00410000
#01613:0053000000000000000000000000000000000000000000000000000000000000
#01614:00530000000000000000000000000000
#01615:0000005300000000000000000000000000000000000000000000000000000000
#01619:0000000000530000000000000000000000000000000000000000000000000000
#0161b:0000000000000053000000000000000000000000000000000000000000000000
#01919:0022000012000000
#01916:1200002200002400
#01913:00120000
#0191c:0000120000220000
#01912:00000024
#0181a:0000221212000000
#01818:26000012
#01814:0000120000222200
#01816:0012
#02417:0000001300000000
#02416:0000000000130000
#02412:1400000024000023
#0241a:54240000
#02418:00000023
#02415:00000000000000000000000000230000
#0241b:0000000000000023
#02410:00410000
#02512:0013240000000023
#02516:0000001300000000
#02517:0000000000130000
#02515:12000023
#02518:00000000000000000000000000230000
#0251b:0000000000000023
#0251a:0024
#0261b:0013000000000013
#02619:1200001300000000
#02616:0000240024130000
#02612:0000000000002413
#0261a:00140000
#02717:00130000
#0271b:0013000000130023
#02714:00130000
#02712:0013001300130023
#02718:0012
#02716:2412
#02816:0000001300000000
#02817:0063000000130000
#0281a:0063000000000063000000000000000014000000000000000000000000000000
#02812:2300240024000023
#0281b:2300630000000023
#02815:00000023
#02818:0000006300630000000000000000000000000000000000000000230000000000
#02819:00630063000000000000000000000000
#02918:0013000000002300
#02916:1300000000130000
#02917:0000001300000000
#02912:0000130014000023
#02915:00000000000000000000000000230000
#0291b:0000000000000023
#0291a:24242400
#03015:00001300000000000000130000130000
#03017:13
#03012:14230000
#03013:0000001300000000
#0301a:0000001300000000
#03018:0000000000132314
#03014:00000000000000002300000000000014
#0301b:00230000
#03019:0023
#03113:00150000000000000000000000000000
#03112:002c000000002500
#03119:0000002222002500
#03115:0000002222000000
#03118:25
#03212:13000000290000000000001300000028
#03215:00130000000000000000130029000000
#03218:00001300000000000013000000000000
#0321b:00000013000000001300000000000013
#03210:00410000
#03312:0013280000282400
#0331a:00000000001400000000000000002400
#03314:0000001414000000
#03318:00000000000000000014001400000000
#03316:00002800000000280000000000000024
#03412:24000000640000001300000029000013
#03415:00006400000000000013000000000000
#03418:0000000000130000
#0341b:00000000000000000000001300000000
#0341a:2424240000000000
#03416:00000000000000000000000000000028
#03413:006400000064000000000000000000000000000000000000
#03414:006464000000000000000000
#0351b:0013000000000053
#03518:00260000
#03516:0026
#03514:0000005300002600
#03512:0028000000530000
#0421a:14121414
#04218:0000001200000012
#04216:12001212
#04214:0000000000120000
#04212:0000140000000024
#04518:0000000012000013
#04515:0000000000120000
#04516:0012000000000000
#04514:12
#0451a:0012000000000000
#0451b:0000001200001300
#04512:00000012
#04416:00120012
#04414:0000000000120000
#04418:0000001200001200
#04412:005c000012000000
#04410:00410000
#04618:00120000
#0461a:0000000000120000
#04616:0000001200000000
#0461c:0012
#04612:26000012
#04614:0000000000000012
#0471a:1212000000000000
#04712:0012000000001616
#04712:00000026
#0471b:0000001200000000
#04718:0012
#04715:0000000000120000
#04912:00260000000000000000000013000000
#04916:0000001400140013
#04918:26000013000000000000000000000000
#04815:00000000000013000000130000000013
#04818:26001600000000130000001300260000
#04812:00001326
#0481b:00000000000000000013000000000000
#0501a:2400000000001414
#05016:00000000000000000000000000140000
#05012:240000001c001c000000000000000014
#05014:0000000000130000
#05019:0000000000130000
#05116:14000014000054000000540000005400
#05112:00140000240000005400000054000000
#0511a:0014540054005400
#05119:0000000000000000005400000000000000540000000000000054000000000000
#05118:00000000005400000054000000540000
#05117:0000000000000000000000540000000000000054000000000000005400000000
#05115:0000000000000000000000000054000000000000005400000000000000540000
#05114:00000000000000540000005400000054
#05113:0000000000000000000000000000005400000000000000540000000000000054
#0541c:00120000
#05412:00520012
#05514:0000001200000000
#0551a:0000001200000000
#05516:00120000
#05518:00120000
#05513:0000000000120000
#0551b:0000000000120000
#05517:000000000000000000000000000000000000000000000000000000000000000000000000000000000000000000000000000000000000000000000000000000000000000000000000000000000000000000000000000000000000000000000000000000000000000000000000000000000000000000000000000000000000000000000000000000000000000000000000000000000000000000000000000000000000000000000000000000000000000000000000000000000000000000000012120000000000000000000000000000000000000000000000000000000000000000000000000000000000000000000000000000000000000000000000000000000000000000000000000000000000000000000000000000000000000000000012120000000000000000000000000000000000000000000000000000000000000000000000000000000000000000000000000000000000000000000000000000000000000000000000000000000000000000000000000000000000000000000000
#05512:0000000000000052
#0551c:0000000000000052
#05316:00120000
#05318:00000012
#0531c:00000052
#05618:1313000000000000
#05615:00130000000013000000000000000000
#05612:00131313
#05616:0000000000130000
#05617:0000000000000013
#0561a:00242424
#05712:13242424
#05718:0013001300000000
#0571b:00131313
#05717:0000000000130000
#05716:0000000000000013
#0571a:24
#0581b:13
#05816:00001300000000000000000000120000
#05814:00000000000000000000000000000012
#0581a:0000240014140012
#05818:00000012
#05812:2400141400240000
#05817:0000002400000000
#05815:0024
#05912:0012000000000000000000001c000000
#0591c:12
#05917:0012001200000000
#05915:0016
#05913:00000000001a0000
#0601a:00640014
#06012:64000000000000000000000028000014
#06016:00006400000000000000000000000028
#0601f:00210000
#06013:0064000000000000000000000000000000000000000000000000000000000000
#06014:00640000000000000000000000000000
#06015:0000006400000000000000000000000000000000000000000000000000000000
#06017:0000000000640000000000000000000000000000000000000000000000000000
#06018:00000064000000000000000000000000
#06019:0000000000000064000000000000000000000000000000000000000000000000
#0611a:0014000000000000
#06112:002800002c000024
#06118:00000023
#06115:00000000000000000000000000230000
#0611b:0000000000000023
#06110:0041
#06212:0013000000000013
#06217:1300000000130013
#06216:0000001300001300
#06219:00002525
#06214:00230000
#06316:130000000000000000000000000000000000000000000000000000000000000000000000000000000000000000000000000000000000000000000000000000000000000000000000000000000000000000000000000000000000000000000000130000000000000000000000000000000000000000000000000000000000000000000000000000000000000000000000000000000000000000000000000000000000000000000000000000000000000000000000000000000000000000000000000000000000000000000000000000000000000000000000000000000000000000000000000000000000000000000013000000000000000000000000000000000000000000000000000000000000000000000000000000000000000000000000000000000000000000000000000000000000000000000000000000000000000000000000000000000000000000000000000000000000000000000000000000000000000000000000000000000000000000000000000000000000000000000000
#06312:0013000012000000
#0631b:0000001300000000
#06317:0013000000130000
#0631c:0000000012000022
#06319:25250000
#06418:0023001300000000
#06415:0000006300000000000000000000000000000000130000000000000000000000
#0641b:2300000000000063000000000000000000000000000000000000000023000000
#06412:2300000025000025
#06416:00000025
#06414:00630000000000000000000000250000
#06413:0063000000000000000000000000000000000000000000000000000000000000
#06419:0000000000630000000000000000000000000000000000000000000000000000
#0641a:00000063000000000000000000000000
#06515:0013001300002500
#06517:13000000000000000000000000250000
#06518:0000000000130000
#06512:2500250000000023
#06519:0000000025000025
#06618:0013000000130000
#06616:13
#0661a:00000000000013000000000000000012
#06613:0000001300000000
#06615:0000000000130000
#0661c:00000000000000000000000000120000
#06614:0000000023000012
#06619:2523
#06612:00230022
#0661b:00230000
#06718:00120000000000000000000000000000
#06712:002c000000002500
#06719:0000002222002500
#06715:0000002222000000
#06716:22
#0681a:0000001300000000
#06817:00000000130000000000000000240000
#06813:0000000013000024
#06816:0000000000130000
#06812:15230024
#06819:15
#06818:00000000000000002300000000000024
#06815:0000002300000000
#0681b:0000000000230000
#06912:002c001300002224
#06915:0013
#0691c:00000022
#0691a:0000000000000024
#06918:0000002626000000
#06914:24
#06919:00240000000000000000000000000000
#07415:0000000000130000
#07412:24001413
#07418:00540054000013000000000000000000
#07414:0000000000000013
#0741b:00000013
#07417:0000005400540000000000000000000000000000000000000000000013000000
#0741a:14540000
#07419:0054000000000054000000000000000000000000000000000000000000000000
#07416:0054000000000000
#07512:1400130014001325
#07515:0000000000130000
#0751b:0000130000000013
#07519:0013001300000000
#07517:00000013
#07516:0013000000000000
#07012:26131313
#07018:26000000001300000000000000000000
#07015:0000001300000000
#0701a:00001414
#07017:0000000000130000
#07016:0000000000000013
#07019:0000000000000013
#0711a:14001414
#07116:0013000000140013
#07112:00131313
#07118:00130000
#0711b:0000001300000000
#07119:0000000000000025
#07216:0014000000130000
#0721b:00131313
#07212:00131414
#07218:0000001300000000
#07217:0000000000000013
#07214:0000000000000013
#07219:25
#07312:1400000014000024
#07316:0014000000000013
#07314:0000000000130000
#07319:0000001300000000
#0731b:00130013
#07612:25131300
#07614:00000000000013000000000000000013
#07619:0000001300000013
#0761b:0013
#07615:0000000000130000
#07618:005300530053000000000000000000130000000000000000
#0761a:00000013
#07613:00000000000000000000000000130000
#07617:535353530000000000000000
#07718:13
#07715:00130000000000000000000000000000
#07712:0025002222002c00
#0771c:0000002222000000
#07719:0025000000000000
#03817:0000135300000000
#0381a:00000000001400000000000000002400
#03815:0000000013530000
#03818:12000000000000000014000013000000
#03812:1400000000531300
#03814:0000005300000000
#03916:0014235300000000
#03912:1400235300002400
#0391a:24000024
#03917:0000000023530000
#0391b:0000000023530000
#00617:0013
#00612:24240000
#00616:0024000000000000
#0061a:240064006400640064006400640000000000000000000000000000000000000000530000000000000000000000240000
#00618:00000000000000000053000000000000
#00619:0000000000530000
#0061b:00000063
#01212:135353530000000000130000
#01219:0013000000000000
#01216:0000001300000000
#01217:0000000000130000
#0121b:00000013
#01215:0000000000000013
#0121a:0024
#01213:005300530053000000000000000000000000000000000000
#04012:0000120000000024
#04018:0012
#0401a:00000014
#0401c:00120000
#04016:00000052
#04112:24120014
#0411c:00120000
#04114:0000002424000000
#04118:00000052
#0431a:12240024
#04318:0012000000000000
#04316:0000002800000000
#04312:2400240000002428
#0811b:0000001300000000
#08112:0025260029132c00
#08117:0000000000130000
#08116:0000001300000000
#08016:0024000013000000
#08012:240064006400640064006400640000000000000000000000000000000000000000000000630000000000000000240000
#0801a:24240000
#08015:00000000000000000053000000000000
#08014:0000000000530000
#08013:00000000000000000000005300000000
#0101b:13000013
#01016:13
#01019:0000000000130000
#01015:0000000000001313
#01012:0000001300000000
#0101a:0024
#0131b:0013000000000000
#01318:0000000000120000
#01312:1300001300002400
#01314:00130000
#01316:0012
#0131a:24002424
#01412:13002413
#01417:13
#01414:0000000000130000
#01418:0000000000001313
#0141b:0000001300000000
#0781b:13000000000000000000001300000000
#07818:00130000000000000000130000000000
#07815:00001300290000000013000000000000
#07812:00000013000000001300000029000013
#07816:00000000000000000000000000000028
#0791b:0013000000000000
#07912:00002800001400280000000000002400
#07918:0000001414000000
#07914:00000000000000000014001400000000
#07916:00000000280000000000280000000024
#0791a:00000024
#08219:0052000000000000
#08215:0052000000000000
#08217:007272720000000000000000000000000000000000000000000000000000000000000000000000000000000000000000000000000000000000000000000000000000000000000000000000000000000000000000000000000000000000000000000000000000000000000000000000000000000000000000000000000000000000000000000000000000000000000000000000000000000000000000000000000000000000000000000000000000000000000000000000000000000000000000000000000000000000000000000000000000000000000000000000000000000000000000000000000000000000000000000000000000000000000000000000000000000000000000000000000000000000000000000000000000000000000000000000000000000000000000000000000000000000000000000000000000000000000000000000000000000000000000000000000000000000000000000000000000000000000000000000000000000000000000000000000000000000000000000000000000000000000000000000000000000000000000000000000000000000000000000000000000000000000000000000000000000000000000000000000000000000000000000000000000000000000000000000000000000000000000000000000000000000000000000000000000000000000000000000000000000000000000000000000000000000000000000000000000000000000000000000000000000000000000000000000000000000000000000000000000000000000000000000000000000000000000000000000000000000000000000000000000000000000000000000000000000000000000000000000000000000000000000000000000000000000000000000000000000000000000000000000000000000000000000000000000000000000000000000000000000000000000000000000000000000000000000000000000000000000000000000000000000000000000000000000000000000000000000000000000000000000000000000000000000000000000000000000000000000000000000000000000000000000000000000000000000000000000000000000000000000000000000000000000000000000000000000000000000000000000000000000000000000000000000000000000000000000000000000000000000000000000000000000000000000000000000000000000000000000000000000000000000000000000000000000000000000000000000000000000000000000000000000000000000000000000000000000000000000000000000000000000000000000000000000000000000000000000000000000000000000000000000000000000000000000000000000000000000000000000000000000000000000000000000000000000000000000000000000000000000000000000000000000000000000000000000000000000000000000000000000000000000000000000000000000000000000000000000000000000000000000000000000000000000000000000000000000000000000000000000000000000000000000000000000000000000000000000000000000000000000000000000000000000000000000000000000000000000000000000000000000000000000000000000000000000000000000000000000000000000000000000000000000000000000000000000000000000000000000000000000000000000000000000000000000000000000000000000000000000000000000000000000000000000000000000000000000000000000000000000000000000000000000000000000000000000000000000000000000000000000000000000000000000000000000000000000000000000000000000000000000000000000000000000000000000000000000000000000000000000000000000000000000000000000000000000000000000000000000000000000000000000000000000000000000000000000000000000000000000000000000000000000000000000000000000000000000000000000000000000000000000000000000000000000000000000000000000000000000000000000000000000000000000000000000000000000000000000000000000000000000000000000000000000000000000000000000000000000000000000000000000000000000000000000000000000000000000000000000000000000000000000000000000000000000000000000000000000000000000000000000000000000000000000000000000000000000000000000000000000000000000000000000000000000000000000000000000000000000000000000000000000000000000000000000000000000000000000000000000000000000000000000000000000000000000000000000000000000000000000000000000000000000000000000000000000000000000000000000000000000000000000000000000000000000000000000000000000000000000000000000000000000000000000000000000000000000000000000000000000000000000000000000000000000000000000000000000000000000000000000000000000000000000000000000000000000000000000000000000
#0525c:00520000
#05252:00000062
#0525a:14
#00352:003c000000001500
#00359:00000015
#00952:0063000000001400
#0095a:00000014
#0215b:00000053
#02157:0000000000000023
#02152:35
#0365c:00520000
#03652:16000014
#07052:16000053
#07058:16
#0705a:0044
#07056:0000000000000023
#0225a:44
#02252:3416
#02258:00160000
#03558:00160000
#03556:0016
#03554:00000016
#03552:0038000000000000
#00756:0016
#00754:00000016
#00758:00160000
#00759:0015000000000000
#00852:16
#0375a:00000014
#03752:00620000
#04356:0000001800000000
#04352:0000000000000018
#07752:0015000000001c00
#07759:0015000000000000
#00058:00660046
#00054:0026
#00052:00360056
#00156:26
#00152:00362656
#00158:00660046
#00258:26
#00252:00360000
#00452:00000000390000000000000000000038
#00455:00000049
#00556:00004800000000480000000000000000
#00552:0000380000380000
#0055a:00000054
#0115b:00000053
#01157:0063000000000000
#01556:0053000000000000
#0155b:00000053
#01557:0000000000000023
#01656:00000052
#01758:0062000000000000
#01858:46000062
#02059:00004545
#02056:14
#0205a:14
#0275b:0053000000230000
#02757:00230000
#02758:00005212
#02756:00006212
#02752:0000000000230000
#0285a:0014
#02852:0000000000000063
#02956:23
#02952:0014
#0295b:0000000000000053
#03057:23
#03152:004c000000001500
#03159:00000015
#03252:00000000390000000000000000000038
#03255:00000049
#03356:00004800000000480000000000000000
#03352:0000380000386400
#00652:00540000
#0065b:00000013
#0065a:00000000140000000000000000000014
#03452:00000039
#03456:00000000000000000000000000000048
#0345a:00140000
#04458:00000062
#04556:0052000000000000
#04652:36
#04752:0062000000001600
#04952:00360000000000000000000063000000
#04956:0000000000000023
#05052:34001c1c00000000
#0505a:44
#0545c:00520000
#05452:00000062
#05554:0000002200000000
#0555a:0000002200000000
#05556:00520000
#05558:00520000
#05553:0000000000220000
#0555b:0000000000220000
#05557:000000000000000000000000000000000000000000000000000000000000000000000000000000000000000000000000000000000000000000000000000000000000000000000000000000000000000000000000000000000000000000000000000000000000000000000000000000000000000000000000000000000000000000000000000000000000000000000000000000000000000000000000000000000000000000000000000000000000000000000000000000000000000000000052520000000000000000000000000000000000000000000000000000000000000000000000000000000000000000000000000000000000000000000000000000000000000000000000000000000000000000000000000000000000000000000052520000000000000000000000000000000000000000000000000000000000000000000000000000000000000000000000000000000000000000000000000000000000000000000000000000000000000000000000000000000000000000000000
#05356:00520000
#05358:00000062
#06052:00000038
#06056:00000000000000000000000000000048
#0605a:00440000
#06152:003800004c000000
#0615a:0024000000000000
#0615b:0000000000000053
#06356:000000000000000000000000000000000000000000000000000000000000000000000000000000000000000000000000000000000000000000000000000000000000000000000000000000000000000000000000000000000000000000000000230000000000000000000000000000000000000000000000000000000000000000000000000000000000000000000000000000000000000000000000000000000000000000000000000000000000000000000000000000000000000000000000000000000000000000000000000000000000000000000000000000000000000000000000000000000000000000000023000000000000000000000000000000000000000000000000000000000000000000000000000000000000000000000000000000000000000000000000000000000000000000000000000000000000000000000000000000000000000000000000000000000000000000000000000000000000000000000000000000000000000000000000000000000000000000000000
#06352:0063000052001200
#0635c:00006212
#06357:0000000000230000
#06557:23
#06552:1500000000000063
#06559:0015
#06656:23
#06659:15
#06752:001c000000001500
#06759:00000015
#06257:2300000000130000
#06256:0000001300000000
#06259:0000001500000000
#06252:0000000000150000
#06452:0015
#0645b:0000000000000053
#06958:0000004646000000
#06952:003c000000000000
#07452:3434
#0745b:00000063
#07457:0000000000000023
#07552:3400230034000035
#07557:00000053
#0755b:0000000000000023
#07556:0063000000000000
#07652:35
#0715a:4444
#07156:0063000000000023
#07152:00230053
#07159:0000000000000045
#07259:45
#07252:0034
#0725b:00000063
#07257:0000000000000023
#07352:3400000034000034
#03857:00530000
#0385a:00000000002400000000000000000000
#03855:0053
#03858:00000000000000000024000000000000
#03852:14
#04858:16000000000000000000000000460000
#0565a:00444444
#0575a:44
#05752:00343434
#05852:34
#01952:00000014
#01956:00000014
#04052:14620000
#0405a:14000014
#04152:00000014
#0415c:00520000
#0425a:14
#08152:0015160019001c00
#08052:00000000140000000000000013000014
#0805a:00640000
#0245b:0000000000000053
#02452:14
#02552:0000000000000063
#05952:0000006c
#0105b:53
#01056:53
#01052:0000006300000000
#0135b:0053000000000000
#01352:00000014
#0135a:00000014
#01452:63
#01457:63
#0145b:0000005300000000
#07855:00490000
#07852:00000039
#07856:00000000000000000000000000000048
#07952:00003800000000380000000000000000
#07956:0000480000480000
#0795a:00000054
#000380:00160026
#000340:0056
#000321:00000016
#001361:56
#001321:00260000
#001380:00160026
#001320:0056
#001321:00000016
#002381:56
#002321:00260000
#0053a1:00000014
#005361:0000000000000024
#006321:00140000
#007321:00260000
#008321:0000132300000000
#0083b1:0000000013230000
#009321:0013000000000000
#009361:0000002300000000
#0103b1:13
#010371:00230000
#010360:13
#010320:00230000
#010320:0000001300000000
#010360:0000000000230000
#011370:0013000000000000
#0113b0:0000002300000000
#011320:0000000013230000
#0113b0:00000013
#011370:00000000000000000000000000530000
#012370:23
#0123b0:0000132300000000
#012320:0000000013230000
#0133b0:0013000000000000
#013370:0000002300000000
#014320:13
#014360:00230000
#014371:13
#0143b1:00230000
#0143b1:0000001300000000
#014371:0000000000230000
#015361:0013000000000000
#015321:0000002300000000
#0153b1:0000000013230000
#0153b1:00000013
#015371:0000000000000053
#0163b1:23
#016361:00000012
#017321:22
#017381:0012000000000000
#0173c1:0000002200000000
#018381:00000012
#0193c1:22
#020321:0000142400000000
#0213a1:00142400
#021320:00001424
#0213b1:00000013
#021371:0000000000000053
#0223a1:24
#024321:0000132300000000
#0243b1:0000000013230000
#0243b1:0000000000000013
#025371:0023000000000000
#0253b1:0000132300000000
#025321:0000000013230000
#025321:0000000000000013
#026361:0023000000000000
#026361:00140000
#026321:0000005424000000
#026360:0014
#0263a0:0000000000542400
#0273b0:0013002300000000
#027370:00530000
#027360:00001222
#027320:0000000000530000
#027381:00001222
#0273b1:0000000000530000
#028321:0000000000000013
#029361:53
#029321:0023000000000000
#0293b1:0000000000000013
#030371:53
#0303b1:0023000000000000
#033321:00000014
#033361:0000000000000024
#035341:0000132300000000
#035321:0000000013230000
#0353b1:0000000000001323
#036391:1323000000000000
#0363c1:00120000
#036381:00000022
#037321:00120000
#037361:00000022
#038341:0000132300000000
#038370:0000132300000000
#0383a0:00000000005400000000000000000000
#038320:0000000013230000
#038351:0000000013230000
#038381:00000000000000000054000000000000
#039321:00130000
#039361:0000002300000000
#039360:00130000
#039320:0000002300000000
#0393b0:0013
#039370:0000000000230000
#039371:0013
#0393b1:0000000000230000
#039321:00000014
#0403a1:24
#0393a0:00000014
#040320:24
#040320:00120000
#040360:00000022
#0413c0:00120000
#041380:00000022
#044320:1c2c000000000000
#0443a0:0000000012220000
#044380:00000012
#0453c0:22
#045360:0012000000000000
#045320:0000002200000000
#046340:0000000012220000
#046380:0000000000001222
#047320:0012000000000000
#047360:0000002200000000
#047380:0000000000001626
#048320:1626000000000000
#0483a0:0000142400000000
#049320:00142400
#0493a1:00001424
#049320:00000013
#049360:0000000000000053
#050320:24
#0523c0:00120000
#052360:00000032
#053360:00320000
#0533c0:00000022
#052321:00000012
#053381:00320032
#054321:00220000
#0543c0:00120000
#054360:00000032
#055360:00320000
#055340:0000005200000000
#055370:00003232
#055330:0000000000520000
#055320:0000000000000022
#054321:00000012
#055381:00320000
#0553a1:0000005200000000
#055371:000000000000000000000000000000000000000000000000000000000000000000000000000000000000000000000000000000000000000000000000000000000000000000000000000000000000000000000000000000000000000000000000000000000000000000000000000000000000000000000000000000000000000000000000000000000000000000000000000000000000000000000000000000000000000000000000000000000000000000000000000000000000000000000052000000000000000000000000000000000000000000000000000000000000000000000000000000000000000000000000000000000000000000000000000000000000000000000000000000000000000000000000000000000000000000000052000000000000000000000000000000000000000000000000000000000000000000000000000000000000000000000000000000000000000000000000000000000000000000000000000000000000000000000000000000000000000000000000
#0553b1:0000000000520000
#0553c1:0000000000000022
#059321:0000001c
#060321:24
#0613a1:0014000000000000
#061321:002c
#0613b1:0000000000000013
#062371:53
#0623b1:0023000000000000
#062391:0000152500000000
#062321:0000000015250000
#063321:0013002300000000
#063361:00530000
#0633c1:00001222
#063371:0000000000530000
#063320:00001222
#063360:000000000000000000000000000000000000000000000000000000000000000000000000000000000000000000000000000000000000000000000000000000000000000000000000000000000000000000000000000000000000000000000000000000000000000000000000000000000000000000000000000000000000000000000000000000000000000000000000000000000000000000000000000000000000000000000000000000000000000000000000000000000000000000000000000000000000000000000000000000000000000000000000000000000000000000000000000000000000000000000053000000000000000000000000000000000000000000000000000000000000000000000000000000000000000000000000000000000000000000000000000000000000000000000000000000000000000000000000000000000000000000000000000000000000000000000000000000000000000000000000000000000000000000000000000000000000000000000000
#064320:00130000
#064350:00000000005323000000000000000000
#0643b0:0013
#064380:00000000000000000053230000000000
#0643b0:0000000000000013
#065370:53
#0653b0:0023000000000000
#0653b0:00130000
#065380:00000000005323000000000000000000
#065320:0013
#065350:00000000000000000053230000000000
#065320:0000000000000013
#066360:53
#066320:0023000000000000
#070320:00000013
#070360:0000000000000053
#071320:23
#071360:0013002300000000
#071320:00530000
#071320:00000013
#071360:0000000000000053
#072320:23
#0723b0:00000013
#072370:0000000000000053
#0733b0:23
#073320:00140000
#073350:00000000005424000000000000000000
#0733a0:0014
#073370:00000000000000000054240000000000
#074320:0000162600000000
#074380:0000000016260000
#0743b0:00000013
#074370:0000000000000053
#0753b0:23
#075360:0013002300000000
#075320:00530000
#075380:0000000016260000
#075370:00000013
#0753b0:0000000000000053
#076370:23
#0793a0:00000014
#079360:0000000000000024
#0803a0:00140000
#081380:00260000
#082370:122200000000000000000000000000000000000000000000000000000000000000000000000000000000000000000000000000000000000000000000000000000000000000000000000000000000000000000000000000000000000000000000000000000000000000000000000000000000000000000000000000000000000000000000000000000000000000000000000000000000000000000000000000000000000000000000000000000000000000000000000000000000000000000000000000000000000000000000000000000000000000000000000000000000000000000000000000000000000000000000000000000000000000000000000000000000000000000000000000000000000000000000000000000000000000000000000000000000000000000000000000000000000000000000000000000000000000000000000000000000000000000000000000000000000000000000000000000000000000000000000000000000000000000000000000000000000000000000000000000000000000000000000000000000000000000000000000000000000000000000000000000000000000000000000000000000000000000000000000000000000000000000000000000000000000000000000000000000000000000000000000000000000000000000000000000000000000000000000000000000000000000000000000000000000000000000000000000000000000000000000000000000000000000000000000000000000000000000000000000000000000000000000000000000000000000000000000000000000000000000000000000000000000000000000000000000000000000000000000000000000000000000000000000000000000000000000000000000000000000000000000000000000000000000000000000000000000000000000000000000000000000000000000000000000000000000000000000000000000000000000000000000000000000000000000000000000000000000000000000000000000000000000000000000000000000000000000000000000000000000000000000000000000000000000000000000000000000000000000000000000000000000000000000000000000000000000000000000000000000000000000000000000000000000000000000000000000000000000000000000000000000000000000000000000000000000000000000000000000000000000000000000000000000000000000000000000000000000000000000000000000000000000000000000000000000000000000000000000000000000000000000000000000000000000000000000000000000000000000000000000000000000000000000000000000000000000000000000000000000000000000000000000000000000000000000000000000000000000000000000000000000000000000000000000000000000000000000000000000000000000000000000000000000000000000000000000000000000000000000000000000000000000000000000000000000000000000000000000000000000000000000000000000000000000000000000000000000000000000000000000000000000000000000000000000000000000000000000000000000000000000000000000000000000000000000000000000000000000000000000000000000000000000000000000000000000000000000000000000000000000000000000000000000000000000000000000000000000000000000000000000000000000000000000000000000000000000000000000000000000000000000000000000000000000000000000000000000000000000000000000000000000000000000000000000000000000000000000000000000000000000000000000000000000000000000000000000000000000000000000000000000000000000000000000000000000000000000000000000000000000000000000000000000000000000000000000000000000000000000000000000000000000000000000000000000000000000000000000000000000000000000000000000000000000000000000000000000000000000000000000000000000000000000000000000000000000000000000000000000000000000000000000000000000000000000000000000000000000000000000000000000000000000000000000000000000000000000000000000000000000000000000000000000000000000000000000000000000000000000000000000000000000000000000000000000000000000000000000000000000000000000000000000000000000000000000000000000000000000000000000000000000000000000000000000000000000000000000000000000000000000000000000000000000000000000000000000000000000000000000000000000000000000000000000000000000000000000000000000000000000000000000000000000000000000000000000000000000000000000000000000000000000000000000000000000000000000000000000000000000000000000000000000000000000000000000000000000000000000000000000000000000000000000000000000000000000000000000000000000000
#082370:001200000000000000000000000000000000000000000000000000000000000000000000000000000000000000000000000000000000000000000000000000000000000000000000000000000000000000000000000000000000000000000000000000000000000000000000000000000000000000000000000000000000000000000000000000000000000000000000000000000000000000000000000000000000000000000000000000000000000000000000000000000000000000000000000000000000000000000000000000000000000000000000000000000000000000000000000000000000000000000000000000000000000000000000000000000000000000000000000000000000000000000000000000000000000000000000000000000000000000000000000000000000000000000000000000000000000000000000000000000000000000000000000000000000000000000000000000000000000000000000000000000000000000000000000000000000000000000000000000000000000000000000000000000000000000000000000000000000000000000000000000000000000000000000000000000000000000000000000000000000000000000000000000000000000000000000000000000000000000000000000000000000000000000000000000000000000000000000000000000000000000000000000000000000000000000000000000000000000000000000000000000000000000000000000000000000000000000000000000000000000000000000000000000000000000000000000000000000000000000000000000000000000000000000000000000000000000000000000000000000000000000000000000000000000000000000000000000000000000000000000000000000000000000000000000000000000000000000000000000000000000000000000000000000000000000000000000000000000000000000000000000000000000000000000000000000000000000000000000000000000000000000000000000000000000000000000000000000000000000000000000000000000000000000000000000000000000000000000000000000000000000000000000000000000000000000000000000000000000000000000000000000000000000000000000000000000000000000000000000000000000000000000000000000000000000000000000000000000000000000000000000000000000000000000000000000000000000000000000000000000000000000000000000000000000000000000000000000000000000000
#082350:0052000022000000000000000000000000000000000000000000000000000000
#082371:00120000000000000000000000000000000000000000000000000000000000000000000000000000000000000000000000000000000000000000000000000000000000000000000000000000000000000000000000000000000000000000000000000000000000000000000000000000000000000000000000000000000000000000000000000000000000000000000000000000000000000000000000000000000000000000000000000000000000000000000000000000000000000000000000000000000000000000000000000000000000000000000000000000000000000000000000000000000000000000000000000000000000000000000000000000000000000000000000000000000000000000000000000000000000000000000000000000000000000000000000000000000000000000000000000000000000000000000000000000000000000000000000000000000000000000000000000000000000000000000000000000000000000000000000000000000000000000000000000000000000000000000000000000000000000000000000000000000000000000000000000000000000000000000000000000000000000000000000000000000000000000000000000000000000000000000000000000000000000000000000000000000000000000000000000000000000000000000000000000000000000000000000000000000000000000000000000000000000000000000000000000000000000000000000000000000000000000000000000000000000000000000000000000000000000000000000000000000000000000000000000000000000000000000000000000000000000000000000000000000000000000000000000000
#082391:0052000022000000000000000000000000000000000000000000000000000000
#0069a0:14240000
#006970:0013
#0069b0:00000023
#012920:135353230000000000000000
#012930:005300530053000000000000000000000000000000000000
#016920:13
#016950:0000002300000000000000000000000000000000000000000000000000000000
#016980:0013000000000000
#0169b0:0000000000000023000000000000000000000000000000000000000000000000
#023920:00140000
#0239a0:0024
#023921:0014
#0239a1:00000024
#023920:00000014
#0249a0:24
#0289b0:13230000
#028970:0053000000000000
#034920:14240000
#034950:0054000000000000
#0519a0:00140000
#051920:0024
#0519a1:0014
#051921:00000024
#0519a0:00000014
#052920:24
#060920:14
#0609a0:00240000
#064920:13
#064950:0000002300000000000000000000000000000000000000000000000000000000
#064980:0013000000000000
#0649b0:0000000000000023000000000000000000000000000000000000000000000000
#0749a0:14240000
#074960:0054000000000000
#076970:135353230000000000000000
#076980:005300530053000000000000000000000000000000000000
#080920:14240000
#080960:0013
#080920:00000023
