This file was generated by Ched 2.7.0.0.
#TITLE ""
#ARTIST ""
#DESIGNER ""
#DIFFICULTY 0
#PLAYLEVEL
#SONGID ""
#WAVE ""
#WAVEOFFSET 0
#JACKET ""
#REQUEST "ticks_per_beat 480"
#00002: 4
#BPM01: 170
#00008: 01
#TIL00: ""
#VOLUME: ""
#HISPEED 00
#MEASUREHS 00
#02512:00140014
#02518:0014
#07412:14
#07418:00000014
#0741a:00140000
#07414:0014
#07314:0014
#0731a:00140000
#07318:00000014
#07512:00140000
#07518:0014
#07514:00000014
#02012:00140014
#02018:0014
#02414:0014
#0241a:00240014
#02410:00410000
#0261a:00140000
#02614:0014
#02618:00000014
#02712:14
#0291a:00140014
#02914:0014
#02818:0014
#02812:00240014
#03012:00140000
#03018:0014
#03014:00000014
#0311a:14
#03118:0034000000000000
#03914:00140014
#03918:0014
#04812:00140014
#04818:0014
#04918:14
#04914:00140014
#0491a:0014
#0501a:14
#05014:00240000
#0521a:00140000
#0521f:00110000
#05218:00000034
#05412:00140000
#05414:00000034
#05618:00140014
#05614:0014
#05714:14
#0571a:00140014
#05712:0014
#05812:14
#05818:00240000
#06212:00140000
#06218:0014
#06214:00000014
#0631a:14
#06314:00140000
#06418:00140000
#06414:0014
#0641a:00000014
#06514:00140000
#06518:0014
#06512:00000014
#0661a:00140000
#06614:0014
#06618:00000014
#07012:00140000
#07018:0014
#07014:00000014
#0711a:00140000
#07114:0014
#07118:00000014
#07214:00140000
#07212:0034
#0761a:00140000
#07614:0014
#07618:00000014
#02114:00140014
#0211a:0014
#02118:14
#0151a:00140014
#01514:0014
#01412:00140014
#01418:0014
#0131a:00000014
#01312:00140000
#01218:00000014
#01214:00140000
#0111a:00140014
#01112:0014
#01014:00140014
#01018:0014
#0091a:00000014
#00914:00140000
#00818:00000014
#00812:00140000
#0221a:14
#02214:00240000
#06712:14
#06714:0034000000000000
#07712:14
#07714:0034000000000000
#00018:00260000
#00012:00000026
#06012:00240024
#0601a:00240024
#0601f:00210000
#06812:00240000
#06818:0024
#06814:00000024
#07818:00260000
#07812:00000026
#08018:00240000
#00118:00260000
#00112:00000026
#00312:00000024
#0031a:00000024
#0051a:00240000
#00512:00000024
#03212:00260000
#03218:00000026
#03210:00410000
#03414:00240000
#03312:00260000
#03318:00000026
#04312:00260000
#04318:00000026
#07918:00260000
#07912:00000026
#00618:00240000
#00412:00000024
#0041a:00240000
#00410:00410000
#00218:00240000
#0611a:00000024
#06112:00000024
#06110:0041
#0691a:24
#06918:0034000000000000
#01610:00410000
#04410:00410000
#03252:00160000
#03258:00000016
#03352:00160000
#03358:00000016
#0525a:00540000
#05452:00640000
#06052:00140014
#0605a:00140014
#06354:00540000
#06352:00000014
#07254:00640000
#07858:00160000
#07852:00000016
#07958:00160000
#07952:00000016
#08058:00540000
#00552:00000014
#0055a:00140000
#00452:00000014
#0045a:00140000
#00258:00540000
#0315a:54
#05858:00540000
#06752:64
#0695a:54
#06958:00000014
#0645a:00000014
#06552:00000014
#07752:64
#002380:00140000
#0033a0:0024000000000000
#006380:00140000
#0073a0:00343434
#0083a0:24
#016340:00140000
#016320:00000034
#017340:00340000
#017320:00000024
#018380:00140000
#0183a0:00000034
#019380:00340000
#0193a0:00000024
#022340:00140000
#023320:00343434
#024320:24
#027380:00140000
#027390:0034
#0273a0:00000024
#0313a0:14
#031380:0034003434002400
#034340:00140000
#035320:00343434
#036320:24
#036380:00140000
#0363a0:00000024
#037340:00140000
#037320:00000024
#038380:00140000
#0383a0:00000024
#0403a0:00140000
#040380:00000024
#041320:00140000
#041340:00000024
#0423a0:00140000
#042380:00000024
#044320:00140000
#044340:00000034
#045320:00340000
#045340:00000024
#0463a0:00140000
#046380:00000034
#0473a0:00340000
#047380:00000024
#050340:00140000
#051320:00343434
#052320:24
#0523a0:00140000
#052380:00000034
#053380:00340024
#054320:00140000
#054340:00000034
#055340:00340024
#058380:00140000
#0593a0:0024000000000000
#063340:00140000
#063320:00000024
#067320:14
#067340:0034003434002400
#0693a0:14
#069380:0034003434002400
#072340:00140000
#072320:00003424
#077320:14
#077340:0034003434002400
#080380:00140000
#0813a0:00343434
#0823a0:24
