This file was generated by Ched 2.7.0.0.
#TITLE ""
#ARTIST ""
#DESIGNER ""
#DIFFICULTY 0
#PLAYLEVEL
#SONGID ""
#WAVE ""
#WAVEOFFSET 0
#JACKET ""
#REQUEST "ticks_per_beat 480"
#00002: 4
#BPM01: 144
#00008: 01
#TIL00: ""
#VOLUME: ""
#HISPEED 00
#MEASUREHS 00
#0011a:14
#00214:14
#00318:14
#00412:14
#00519:14
#00619:14
#00713:14
#00813:14
#0091a:14
#00910:41
#01014:14
#01118:14
#01212:14
#02518:1616
#02418:16
#02412:0016
#02612:1616
#02718:16
#02712:0016
#02818:1616
#02912:16
#03312:1616
#03212:16
#03218:0016
#03418:1616
#03512:16
#03518:0016
#03612:1616
#03718:1616
#03710:41
#03812:16
#03818:0016
#05118:0016
#05212:16
#05218:0016
#05210:41
#05312:1616
#05418:16
#05412:0016
#05518:1616
#05612:1616
#05718:16
#05912:0016
#06018:16
#06012:0016
#06118:1616
#06212:16
#06218:0016
#06312:1616
#06418:1616
#06512:16
#06518:0016
#06612:16
#06618:0016
#06714:14
#0431f:11
#02212:0000000000000026
#02210:0000000000000041
#03018:0000000000000026
#03010:0000000000000041
#05012:0000000000000026
#0501f:0000000000000021
#05818:0000000000000026
#01710:41
#0133a0:14
#0143a0:24
#015320:14
#016320:24
#017380:14
#018390:34
#0193a0:34
#020390:34
#021380:3400000000000034
#022380:0034002400000000
#022320:0000000000000016
#023320:0026
#029320:0000000016000036
#030320:0036002600000000
#030380:0000000000000016
#031380:0026
#039340:14
#040320:34
#041340:34
#042320:24
#043380:14
#0443a0:34
#045380:34
#0463a0:24
#047340:14
#048320:24
#049380:14
#0503a0:24
#057320:0000000016000036
#058320:0036002600000000
