This file was generated by Ched 2.7.0.0.
#TITLE ""
#ARTIST ""
#DESIGNER ""
#DIFFICULTY 0
#PLAYLEVEL
#SONGID ""
#WAVE ""
#WAVEOFFSET 0
#JACKET ""
#REQUEST "ticks_per_beat 480"
#00002: 4
#BPM01: 144
#00008: 01
#TIL00: ""
#VOLUME: ""
#HISPEED 00
#MEASUREHS 00
#0001b:0000000000130000
#00018:00000013
#00015:0000000000000013
#00112:13130000
#00115:0000001300130000
#00118:00001313
#00116:0000000000000013
#0011b:0000000000000013
#00218:0000130000130000
#00219:0000001300001300
#00217:0013
#00214:0000000000000013
#0031b:13130000
#00318:0000001300130000
#00315:00001313
#00317:0000000000000013
#00312:0000000000000013
#00415:0000130000130000
#00414:0000001300001300
#00416:0013
#00419:0000000000000013
#00517:13130000
#0051b:0000001300000013
#00512:0013
#00515:0000000000130000
#00518:00000013
#00516:0000000000000013
#00613:0000130000130000
#00614:0000001300001300
#00612:0013
#00619:0000000000000013
#00716:1300130000130013
#00712:0000001300000000
#0071b:00001313
#00817:0000120000002212
#00818:00000000000000000000000000120000
#00816:14000000000000001400000000000012
#00916:00130000
#00918:0013
#00915:0000000000130000
#00917:0000000000000013
#00912:14000024
#0091a:00240000
#00910:41
#01016:0013001300000000
#01017:0000000000130013
#0101a:00240000
#01012:00000024
#0111a:14240000
#01112:14000024
#01117:0000000000000013
#01115:0000000000130000
#01118:0013
#01116:00130000
#0131a:14240000
#01312:14000024
#01316:00130000
#01318:0013
#01315:0000000000130000
#01317:0000000000001313
#01217:0000000000130013
#01216:0013001300000000
#01212:00000024
#0121a:00240000
#01416:0013001300000023
#01417:0000000000130000
#0141a:0000240000000014
#01412:00000024
#01512:00130024
#0151a:0000240000140000
#01517:0000000000000023
#01616:0013000000000000
#0161a:00240000
#01612:0000002300000000
#01617:0000002300000000
#0211a:0000140000000014
#02118:00001313
#02115:00000000000000000000000000000000000000000000000000530000000000000000000000000000130000000000000000000000000000000000000000000000
#02112:00000000000000530000000000002400
#02116:0000005300000000
#02114:0000000000000000000000000053000000000000000000000000000000000000
#02113:00000000000000000000000000000000000000000000000000000053000000000000000000000000000000000000000000000000000000000000000000000000
#02212:0014002400000000
#0221a:0024001400000000
#02216:00000012
#02218:00000012
#02210:0000000000000041
#02317:0000131313001424
#02312:0000000014000014
#02315:0000000000140000
#02416:0000131313000000
#02417:0000000000140000
#0241a:0000000014000014
#02415:0000000000001414
#02512:0014000000140000
#02517:0014000000140000
#02515:0000001400000024
#0251a:0000001400000014
#02617:0013000000000000
#02618:0000130000132300
#02619:0000001300000000
#0261a:0000000014000014
#02615:0000000000231300
#02612:0000000000000024
#02717:0000131313001424
#02715:0000000000140000
#02712:0000000014000014
#02816:0000131313000000
#02817:0000000000140000
#0281a:0000000014000014
#02815:0000000000001424
#02917:0000131313001414
#02915:0000000000140000
#02912:0000000014000014
#0301a:0014000000140000
#03015:0014000000140000
#03017:0000001400000024
#03012:0000001400000014
#03010:0000000000000041
#03115:1400000000001424
#0311a:0014000000000014
#03118:00140000
#03116:0000001414000000
#03217:14000014
#03216:0000001414000000
#03212:0014000000000000
#03214:00140000
#0321a:0000000000000014
#03215:0000000000000014
#03312:0014000000140000
#03317:0014000000140000
#0331a:0000001400000014
#03315:0000001400000024
#03417:0013000000000000
#03418:0000130000132300
#03419:0000001300000000
#0341a:0000000014000024
#03415:0000000000231300
#03412:0000000000000014
#03515:1400000000001424
#0351a:0014000000000014
#03518:00140000
#03516:0000001414000000
#03617:1400000000001424
#03616:0000001414000000
#03612:0014000000000014
#03614:00140000
#03715:14000014
#03716:0000001414000000
#0371a:0014000000000000
#03718:00140000
#03712:0000000000000014
#03717:0000000000000014
#03710:41
#0381a:0014000000140000
#03815:0014000000140000
#03812:0000001400000014
#03817:0000001400000014
#03916:2313000000002313
#03914:0000002313000000
#04017:0013230000132300
#04019:0000001323000000
#04116:0013000000132313
#04114:0000002313000000
#04212:0000000000000013
#04217:0013230000132313
#04219:0000001323000000
#04312:2300001323000013
#04317:2300001323000013
#0431f:11
#04418:13
#04413:13
#04419:0013000000000000
#04414:0013000000000000
#04415:00130000
#0441a:00130000
#04417:0000000000000012
#0441b:0000002300000012
#04416:0000002300000000
#0451b:2200001222000012
#04517:2200001222000012
#04616:12
#0461a:12
#04615:0012000000000000
#04619:0012000000000000
#04618:00120000
#04614:00120000
#04612:0000000000000013
#04613:0000002200000000
#04617:0000002200000000
#04712:2300001323000013
#04718:1313
#0471b:00230023
#04813:13
#04814:0013000000000000
#04815:00130000
#0481a:0000000000000012
#04818:1313
#0481b:00230023
#04816:0000002300000000
#0491a:2200001222000000
#04915:1313
#0491b:0000000000000013
#04912:00230023
#05015:13
#0501a:0014
#05012:0000230014000026
#05014:00000013
#05019:00000013
#05018:0000000000000016
#0501f:0000000000000021
#0501b:23
#05118:00130000
#05119:0000001300000000
#05115:0014
#05117:0000000000001424
#05112:0000000000000014
#0511a:0013
#0531a:0000002400000014
#05315:0000000000000014
#05312:0024000000240000
#0541a:0014001400241414
#05418:00131300
#05412:0000000000142400
#05415:0000000000000024
#05512:0000000000000014
#05518:00130000
#05519:0000001300000000
#05515:0014
#05517:0000000000001424
#0551a:0013
#0561a:0000000000000014
#05615:0000130000001424
#05614:0000001300000000
#05617:0014
#05613:0013
#05812:0000002400000014
#0581a:0024000000240000
#0591a:0014000000000014
#05919:00130000
#05918:0000001300000000
#05916:0014
#05915:0000000000001424
#06017:00000014
#06017:00000014
#06012:0014000000000000
#06014:00130000
#06015:0000001300000024
#06016:0014
#0601a:0000000000000024
#05215:0000130000001424
#05214:0000001300000000
#05217:0014
#05213:0013
#0521a:0000000000000024
#05210:41
#05718:00130000
#05719:0000001300000000
#05715:0014
#05717:0000000000001424
#0571a:0013
#05712:0000000000000024
#0621a:0014001400241400
#06218:00131300
#06212:0000000000142414
#06217:0000000000000024
#06115:0000002400000014
#06117:0024000000240000
#0631a:0014000000000014
#06319:00130000
#06318:0000001300000000
#06316:0014
#06315:0000000000001424
#06417:0000000000001424
#06417:00000014
#06412:0014000000000014
#06414:00130000
#06415:0000001300000000
#06416:0014
#06515:00000014
#0651a:0014000000000000
#06519:00130000
#06518:0000001300000000
#06516:0014
#06517:0000000000000024
#06512:0000000000000024
#06612:0000000000000014
#0661a:0000000000000014
#06615:0024000000240000
#06617:0000002400000000
#01714:14
#01712:0014
#0171a:00140014
#01710:41
#01818:14
#0181a:0014
#01812:00140014
#01914:14
#01912:0014
#0191a:00140014
#02018:14
#0201a:0014
#02012:00140014
#06718:00520000
#06716:00620000
#00157:00130000
#00152:00630000
#00155:0000002300000000
#00156:0000000000000063
#0015b:0000000000000063
#0035b:00530000
#00358:0000002300000000
#00357:0000000000000053
#00356:00130000
#00352:0000000000000053
#00557:00630000
#0055b:0000002300000063
#00552:00130000
#00556:0000000000000063
#00756:0000530000000063
#00752:0000002300000000
#0075b:00130013
#00857:0000000000006262
#00858:00000000000000000000000000220000
#00856:00000000000000000000000000000022
#00957:1200000000000063
#00956:00630000
#01056:0000005300000000
#01152:14
#01157:0000000000000063
#01156:00630000
#0135a:14
#01356:00630000
#01357:0000000000000063
#01256:0000005300000000
#01456:0000005300000063
#0145a:0000000000000014
#01552:00230000
#01557:0000000000000063
#01656:00000013
#0165b:00000013
#01652:0000006300000000
#01657:0000006300000000
#0225a:0000006400000000
#02252:0000006400000035
#02256:00000022
#02258:00000022
#02259:0000000000000045
#02352:0000000064000064
#02357:0000000013000044
#02355:0000000000240000
#02456:0013
#0245a:0064
#02457:0000000000240000
#02455:0000000000000034
#02557:0044000000440000
#02555:0000003400000064
#0255a:0000000000000014
#02757:0000000013000044
#02755:0000000000240000
#02752:0000000054000064
#0265a:0000000000000054
#02652:0000000000000014
#02856:0013
#02857:0000000000240000
#0285a:0000000064000054
#02855:0000000000000034
#02957:0000000013000044
#02955:0000000000240000
#02952:0054
#03055:0034000000340000
#03057:0000004400000044
#03052:0000000000000064
#03155:2400000000000034
#03152:0014
#03156:0064
#0315a:0000000000000054
#03257:24
#03256:0054
#0325a:0000000014000044
#03352:0034000000340000
#0335a:0000004400000014
#03355:0000000000000064
#03452:0000000000000064
#0345a:0000000000000014
#03555:2400000000000034
#03556:0064
#0355a:0000000000000054
#03552:0014
#03657:2400000000000044
#03656:0054
#03652:0000000000000064
#0365a:0014
#03755:24
#03756:0064
#03752:0000000014000034
#0385a:0044000000440000
#03852:0000003400000000
#03857:0000000000000064
#04852:0000000000130000
#04856:0000006300000000
#04457:0000000000130000
#04452:0000000000130000
#0445b:0000006300000000
#04456:0000006300000000
#04656:0000000000120000
#0465a:0000000000120000
#04653:0000005200000000
#04657:0000006200000000
#05052:0000000000000036
#05058:0000000000000046
#0505b:63
#05155:0064
#05152:0000000000000064
#0515a:0013
#05157:0000000000000044
#0535a:0000006400000014
#05357:0044000000440000
#05352:0054000000540000
#05355:0000003400000064
#0545a:0000000000000054
#05455:0000000000000034
#05552:0000000000000064
#05555:0064
#0555a:0013
#05557:0000000000000044
#0565a:0000000000000054
#05657:0054
#05653:0013
#05655:0000000000000034
#05852:0000005400000064
#05855:0034000000340000
#0585a:0064000000640000
#05857:0000004400000044
#05956:0064
#05952:0014
#0595a:0000000000000054
#05955:0000000000000034
#05257:0054
#05253:0013
#05255:0000000000000034
#0525a:0000000000000064
#05755:0064
#0575a:0013
#05752:0000000000000054
#05757:0000000000000044
#0605a:0000000014000044
#06056:0064
#06055:0000000000000024
#06152:0034000000340000
#06157:0024000000240000
#0615a:0000004400000044
#06155:0000002400000064
#06252:0000000000000064
#06257:0000000000000044
#06356:0064
#0635a:0000000000000054
#06352:0014
#06355:0000000000000034
#06456:0064
#06452:0000000000000064
#0645a:0014
#06457:0000000000000044
#06556:0054
#06552:0000000014000034
#06557:0000000000000024
#06655:0024000000240000
#06657:0000002400000000
#0665a:0044000000440064
#06652:0000003400000054
#01754:64
#01752:0024
#01858:54
#0185a:0024
#01954:64
#01952:0024
#02058:54
#0205a:0024
#04357:6363
#04352:6363
#0455b:6262
#04557:5252
#04752:6363
#0495a:6262
#001370:13230000
#001321:00132300
#001351:0000005300000000
#001361:0000000000000013
#002321:0053330033002300
#0013b0:0000000000000013
#002370:0023000000000000
#003361:13230000
#0033b0:00132300
#003380:0000005300000000
#003370:0000000000000013
#0043b0:0053330033002300
#003321:0000000000000013
#004361:0023000000000000
#005320:13230000
#005371:00132300
#0053b1:0000005300000000
#0053b1:0000000000000013
#006371:0053330033002300
#005360:0000000000000013
#006320:0023000000000000
#0073b1:13230000
#007360:00132300
#007320:0000005300000000
#007360:0000000000000013
#008320:53000023
#008371:0000000000001252
#008381:00000000000000000000000000520000
#008361:00000000000000000000000000000052
#009371:22
#009361:00130000
#009321:0023
#009371:0000000000000013
#0103b1:0023000000000000
#010361:0000001300000000
#010321:0000000000230000
#011361:00130000
#011321:0023
#011371:0000000000000013
#0123b1:0023000000000000
#012361:0000001300000000
#012321:0000000000230000
#013361:00130000
#013321:0023
#013371:0000000000000013
#0143b1:0023000000000000
#014361:0000001300000000
#014321:0000000000230000
#014361:0000000000000013
#015321:00530000
#015361:0000000000230000
#015371:0000000000000013
#0163b1:0023000000000000
#016321:0000001300000000
#016361:00000023
#016370:0000001300000000
#0163b0:00000023
#017340:14
#017320:0054
#018340:24
#018381:14
#0183a1:0054
#019381:24
#019340:14
#019320:0054
#020340:24
#020381:14
#0203a1:0054
#021381:24
#021320:14
#021360:0000002300000000
#0223a0:0000001400000000
#022380:00000032
#022390:0000000000000025
#022321:0000001400000025
#022361:00000032
#023321:0014000034002400
#023351:0000000000540000
#023321:0000000000000014
#024361:0023000000000000
#0243a0:0014000034002400
#024370:0000000000540000
#025350:0000000000000014
#026320:0034000024000000
#0263a0:0000000000000014
#027370:0023000000000000
#027321:0014000034002400
#027351:0000000000540000
#027321:0000000000000014
#028361:0023000000000000
#0283a0:0014000034002400
#028370:0000000000540000
#0283a0:0000000000000014
#029370:0023000000000000
#029321:0014000034002400
#029351:0000000000540000
#030321:0000000000000014
#031351:54
#031321:0034000024000000
#031360:0014
#0313a0:00000024
#0313a0:0000000000000014
#032370:54
#0323a0:0034000024000000
#032361:0014
#032321:00000024
#033351:0000000000000014
#034321:0034000024000000
#034321:0000000000000014
#035351:54
#035321:0034000024000000
#035360:0014
#0353a0:00000024
#0353a0:0000000000000014
#036370:54
#0363a0:0034000024000000
#036361:0014
#036321:00000024
#036321:0000000000000014
#037351:54
#037321:0034000024000000
#037360:0014
#0373a0:00000024
#038370:0000000000000014
#0393a0:5434003400340034
#0403a0:24
#040321:1434003400340034
#041321:24
#0413a0:1434003400340034
#0423a0:24
#042321:1434003400342400
#043371:13
#0433a1:00230000
#043320:13
#043350:00230000
#043370:0013
#0433a0:00000023
#043321:0013
#043351:00000023
#0443b1:0000001300000000
#044371:0000000000230000
#044360:0000001300000000
#044320:0000000000230000
#045370:12
#045350:00220000
#0453b1:12
#045391:00220000
#045371:0012
#045351:00000022
#0453b0:0012
#045390:00000022
#046330:0000001200000000
#046360:0000000000220000
#046371:0000001200000000
#0463a1:0000000000220000
#047321:13
#047361:00230000
#047321:0013
#047361:00000023
#048361:0000001300000000
#048321:0000000000230000
#0493a1:12
#049381:00220000
#0493a1:0012
#049381:00000022
#0503b1:13
#050371:00230000
#051321:0014000000002400
#051351:0034
#051321:0000000000000014
#052361:0023000000000000
#0523a0:0014000000002400
#052370:0034
#0523a0:0000000000000014
#053370:0024000000000000
#053321:0014000000000000
#053351:0000002400000000
#0533a0:0000001400000000
#053370:0000000000240000
#053321:0000000000140000
#053351:0000000000000034
#054321:0034003400000000
#054351:00332300
#0543a1:0000000000000014
#055371:0023000000000000
#055320:0014000000002400
#055350:0034
#055320:0000000000000014
#056360:0023000000000000
#0563a1:0014000000002400
#056371:0034
#0563a1:0000000000000014
#057371:0023000000000000
#057320:0014000000002400
#057350:0034
#057320:0000000000000014
#058350:0024000000000000
#0583a1:0014000000000000
#058371:0000002400000000
#058320:0000001400000000
#058350:0000000000240000
#0583a1:0000000000140000
#058371:0000000000000024
#058320:0000000000000014
#059360:0034000000000000
#059320:0024
#059361:0014
#0593a1:00000024
#0593a1:0000000000000014
#060361:0034000000000000
#0603a1:0024
#060360:0014
#060320:00000024
#060350:0000000000000014
#061320:0024000000000000
#061371:0014000000000000
#0613a1:0000002400000000
#061350:0000001400000000
#061320:0000000000240000
#061371:0000000000140000
#0613a1:0000000000000024
#061350:0000000000000014
#062320:0034003400000000
#062350:00332300
#062320:0000000000000014
#063360:0034000000000000
#063320:0024
#063361:0014
#0633a1:00000024
#0633a1:0000000000000014
#064361:0034000000000000
#0643a1:0024
#064360:0014
#064320:00000024
#064320:0000000000000014
#065360:0034000000000000
#065320:0024
#065361:0014
#0653a1:00000024
#065371:0000000000000014
#0663a1:0024000000000000
#066350:0014000000000000
#066320:0000002400000000
#066371:0000001400000000
#0663a1:0000000000240000
#066350:0000000000140000
#066320:0000000000000034
#067360:00220000
#0663a1:0000000000000014
#067381:00220000
#021960:0000001300000000
#021920:00000000000000230000000000000000
