This file was generated by Ched 2.7.0.0.
#TITLE ""
#ARTIST ""
#DESIGNER ""
#DIFFICULTY 0
#PLAYLEVEL
#SONGID ""
#WAVE ""
#WAVEOFFSET 0
#JACKET ""
#REQUEST "ticks_per_beat 480"
#00002: 4
#BPM01: 144
#00008: 01
#TIL00: ""
#VOLUME: ""
#HISPEED 00
#MEASUREHS 00
#0001b:0000000000130000
#00018:00000013
#00015:0000000000000013
#00115:00000013
#00118:0000000000130000
#00112:14
#0011a:0000000000000014
#00212:0000140000000014
#00218:0000001400000000
#00214:0014
#0021a:0000000000140000
#00216:00000014
#00318:00000013
#00315:0000000000130000
#0031a:14
#00312:0000000000000014
#0041a:0000140000000014
#00414:0000001400000000
#00418:0014
#00412:0000000000140000
#00416:00000014
#00515:00000013
#00518:0000000000130000
#00512:14
#0051a:0000000000000014
#00612:0000140000000014
#00618:0000001400000000
#00614:0014
#0061a:0000000000140000
#00616:00000014
#00718:00000013
#00715:0000000000130000
#0071a:14
#00712:0000000000000014
#0081a:0000141400000000
#00817:00000062
#00915:0000000000130013
#00918:00000013
#00912:24
#00917:00240000
#00910:41
#01018:0000131300000000
#01015:0000000000001313
#01118:0000000000130013
#01115:00240013
#0111a:24
#01215:0000131300000000
#01218:0000000000001313
#01315:0000000000130013
#01318:00000013
#01312:24
#01317:00240000
#01418:0000131300000000
#01415:0000000000001323
#01512:00000000001300000000000000000000
#01518:0000000000000023
#0161b:0013000000000000
#01618:0000001300000000
#01717:00140000
#0171a:00000014
#01710:41
#01817:00140000
#01915:00140000
#01912:00000014
#02015:00140000
#02012:00000014
#02113:00140000
#02119:00140000
#02118:00001313
#02115:0000000000130000
#0211a:0000000000000024
#02112:0000000000000024
#0231b:0013000000000000
#02315:00000000130000000000001400000000
#02318:0000001300000000
#02312:0000000014000024
#0241b:0013000000000000
#02415:00000000130000000000001434000000
#02418:0000001300000000
#02412:0014
#02518:0014000000000000
#02514:0000001400000000
#0251a:0000000000140000
#02512:0000000000000014
#0261a:0000140000000024
#02616:0000001400000000
#02612:0014
#02712:0013000000000000
#02718:00130000
#02715:0000001300000000
#0271a:0000000014000024
#02717:00000000000000000000001400000000
#02812:0013000000000000
#02818:00130000
#02815:0000001300000000
#0281a:0000000014000024
#02817:00000000000000000000001400000000
#02912:0013000000000000
#02918:00130000
#02915:0000001300000000
#02917:00000000000000000000001434000000
#0291a:0014
#03014:0014000000000000
#03018:0000001400000000
#03012:0000000000140000
#0301a:0000000000000024
#03010:0000000000000041
#03115:0013000000000000
#03118:00130000
#03112:0000001300000000
#0311a:0000000014000024
#03117:00000000000000000000001400000000
#03215:0013000000000000
#03218:00130000
#03212:0000001300000000
#03217:00000000000000000000001434000000
#0321a:0014
#03312:0014000000000000
#03318:0000001400000000
#03314:0000000000140000
#0331a:0000000000000014
#03412:0000140000000024
#03416:0000001400000000
#0341a:0014
#03518:0013000000000000
#03515:00000000130000000000001400000000
#0351b:0000001300000000
#03512:0000000014000024
#03618:0013000000000000
#03615:00000000130000000000001400000000
#0361b:0000001300000000
#03612:0000000014000024
#03718:0013000000000000
#03715:00000000130000000000001434000000
#0371b:0000001300000000
#03712:0014
#03710:41
#0381a:0014000000000000
#03814:0000001400000000
#03818:0000000000140000
#03812:0000000000000014
#03915:2313000000001313
#0391b:2313000000001313
#03918:0000001313000000
#03912:0000001313000000
#04012:0013000000000000
#04017:00130000
#04014:0000001300000000
#04019:0013
#04016:0000000000130000
#0401b:00000013
#04118:1313000000000000
#04112:1313000000000000
#0411b:0000001300000000
#04116:0013
#04119:0000000000130000
#04114:00000013
#04117:0000000000000013
#04212:13
#04218:0013130000000000
#04215:0000001313000000
#0421b:0000000000131300
#04214:0000000000000014
#04314:0000001400000014
#0431f:11
#0431a:2424
#04418:1400000000000013
#04412:0014000000000000
#04416:00140000
#0441a:0000002400000000
#04518:0000001300000013
#04512:2323
#04612:1300002300000000
#04615:0013000000000000
#04618:00130000
#04614:0000000000000014
#04714:0000001400000014
#0471a:2424
#04818:1400000000000013
#04812:0014000000000000
#04816:00140000
#0481a:0000002400000000
#04918:0000001300000014
#04912:2323
#05012:2313
#0501b:0013
#05015:00000013
#0501a:24
#05018:0000000000000026
#0501f:0000000000000021
#05112:0013000000000000
#05117:00140000
#05113:0000001500000000
#05118:0000000016000026
#05115:00000000000000000000001600000000
#0531a:0000000000000014
#05313:0025000000000000
#05318:0000002400000000
#05312:0000000000230000
#05412:0000140000000026
#05416:0000001400000000
#0541a:0014
#05417:14
#0591b:0013000000000000
#05918:00140000
#05915:00000000000015000000001600000000
#05912:0000000016000026
#05212:0013000000000000
#05217:00140000
#05213:0000001500000000
#05218:0000000016000026
#05215:00000000000000000000001636000000
#05210:41
#0551b:0013000000000000
#05515:00000000140000000000001600000000
#05518:0000001500000000
#05512:0000000016000026
#0561b:0013000000000000
#05615:00000000140000000000001600000000
#05618:0000001500000000
#05612:0000000016000026
#0571b:0013000000000000
#05715:00000000140000000000001636000000
#05718:0000001500000000
#05712:0000000016000026
#0601b:0013000000000000
#06018:00140000
#06015:00000000000015000000001636000000
#06012:0000000016000026
#06112:0000000000000014
#06118:0025000000000000
#06114:0000002400000000
#0611b:0000000000230000
#0621a:00140000
#06216:0000001400000000
#06212:0014
#06215:14
#06218:0000000000000026
#06312:0013000000000000
#06314:00140000
#06316:0000001500000000
#06318:0000000016000026
#06315:00000000000000000000001600000000
#06412:0013000000000000
#06414:00140000
#06416:0000001500000000
#06418:0000000016000026
#06415:00000000000000000000001600000000
#06512:0013000000000000
#06514:00140000
#06516:0000001500000000
#06518:0000000016000026
#06515:00000000000000000000001636000000
#06616:0000000000000016
#06613:0025000000000000
#06618:0000002400000000
#06612:0000000000230000
#02212:0024002400000000
#0221a:0024002400000000
#02210:0000000000000041
#05812:0000000000000026
#05818:0025000000000000
#05814:0000002400000000
#0581b:0000000000230000
#0671b:00530000
#00156:00140000
#00152:64
#0015a:0000000000000064
#0035a:54
#00352:0000000000000054
#00356:00140000
#00552:64
#0055a:0000000000000064
#00556:00140000
#0075a:54
#00752:0000000000000054
#00756:00140000
#0085a:0000006400000000
#00955:0000000000000063
#00957:00640000
#01058:0000006300000000
#01158:0000000000000053
#01155:00540000
#01255:0000005300000000
#01355:0000000000000063
#01357:00640000
#01458:0000006300000000
#01455:0000000000000063
#01552:00000000002300000000000000000000
#01558:0000000000000063
#0165b:0063000000000000
#01658:0000006300000000
#0225a:0000006400000000
#02252:0000005400000000
#02254:0000000000000014
#02258:0000000000000014
#02352:0000000064000034
#02355:00000000000000000000002400000000
#02452:0000000064000034
#02455:00000000000000000000002400000000
#02558:0044000000000000
#02554:0000003400000000
#0255a:0000000000440000
#02552:0000000000000064
#02652:0014
#0265a:0000000000000044
#0275a:0000000054000044
#02757:00000000000000000000002400000000
#0285a:0000000054000044
#02857:00000000000000000000002400000000
#03054:0034000000000000
#03058:0000004400000000
#03052:0000000000340000
#0305a:0000000000000044
#0315a:0000000054000044
#03157:00000000000000000000002400000000
#03352:0034000000000000
#03358:0000004400000000
#03354:0000000000340000
#0335a:0000000000000054
#0345a:0014
#03452:0000000000000034
#03552:0000000064000034
#03555:00000000000000000000002400000000
#03652:0000000064000034
#03655:00000000000000000000002400000000
#02957:00000000000000000000002400000000
#0295a:0000000054000044
#03257:00000000000000000000002400000000
#0325a:0000000054000044
#03755:00000000000000000000002400000000
#03752:0000000064000034
#0385a:0044000000000000
#03854:0000003400000000
#03858:0000000000440000
#0435a:6464
#0445a:0000006400000000
#04552:5353
#04652:0000005300000000
#0475a:6464
#0485a:0000006400000000
#04952:5353
#05052:53
#0505a:64
#05058:0000000000000046
#05158:0000000056000046
#05155:00000000000000000000002600000000
#0535a:0000000000000054
#05353:0035000000000000
#05358:0000004400000000
#05352:0000000000330000
#0545a:0014
#05457:24
#05452:0000000000000036
#05852:0000000000000036
#05858:0045000000000000
#05854:0000003400000000
#0585b:0000000000430000
#05952:0000000066000036
#05955:00000000000000000000002600000000
#05552:0000000066000036
#05555:00000000000000000000002600000000
#05652:0000000066000036
#05655:00000000000000000000002600000000
#06052:0000000066000036
#06055:00000000000000000000002600000000
#05752:0000000066000036
#05755:00000000000000000000002600000000
#05258:0000000056000046
#05255:00000000000000000000002600000000
#06158:0045000000000000
#06154:0000003400000000
#0615b:0000000000430000
#06152:0000000000000064
#06252:0014
#06255:24
#06258:0000000000000046
#06358:0000000056000046
#06355:00000000000000000000002600000000
#06458:0000000056000046
#06455:00000000000000000000002600000000
#06558:0000000056000046
#06555:00000000000000000000002600000000
#06653:0035000000000000
#06658:0000004400000000
#06652:0000000000330000
#06656:0000000000000066
#001320:14
#001360:00240000
#0013a0:0000000000000014
#002360:0024000000000000
#0033a0:14
#003360:00240000
#003320:0000000000000014
#004360:0024000000000000
#005320:14
#005360:00240000
#0053a0:0000000000000014
#006360:0024000000000000
#0073a0:14
#007360:00240000
#007320:0000000000000014
#008360:0024000000000000
#0083a0:0000001400000000
#008370:00000022
#009320:14240000
#009371:00140000
#0093a1:0024
#009351:0000000000000013
#010321:0023000000000000
#010381:0000001300000000
#0103b1:0000000000230000
#0113a1:14240000
#011350:00140000
#011320:0024
#011380:0000000000000013
#0123b0:0023000000000000
#012350:0000001300000000
#012320:0000000000230000
#013320:14240000
#013371:00140000
#0133a1:0024
#013351:0000000000000013
#014321:0023000000000000
#014381:0000001300000000
#0143b1:0000000000230000
#014351:0000000000000013
#015321:00000000005300000000000000000000
#015351:00000023
#015381:0000000000000013
#0163b1:0033000000002300
#016381:0000003300000000
#017321:14
#018321:00000024
#0183a0:00000014
#0203a0:00000024
#0223a0:0000001400000000
#022380:0000000054000024
#022321:0000001400000000
#022341:0000000054000024
#023321:0000000014000024
#023351:00000000000000000000005400000000
#024321:0000000014000024
#024351:00000000000000000000005434000000
#025321:0000000000000014
#026361:0024000000000000
#0273a1:0000000014000024
#027371:00000000000000000000005400000000
#0283a1:0000000014000024
#028371:00000000000000000000005400000000
#0293a1:0000000014000024
#029371:00000000000000000000005434000000
#0313a1:0000000014000024
#031371:00000000000000000000005400000000
#0323a1:0000000014000024
#032371:00000000000000000000005434000000
#0333a1:0000000000000014
#034361:0024000000000000
#035321:0000000014000024
#035351:00000000000000000000005400000000
#036321:0000000014000024
#036351:00000000000000000000005400000000
#037321:0000000014000024
#037351:00000000000000000000005434000000
#0433a1:14
#043371:00240000
#0433a1:0014
#043371:00000024
#0443a1:0000001400000000
#044371:0000000000240000
#045321:13
#045351:00230000
#045321:0013
#045351:00000023
#046321:0000001300000000
#046351:0000000000230000
#0473a1:14
#047371:00240000
#0473a1:0014
#047371:00000024
#0483a1:0000001400000000
#048371:0000000000240000
#049321:13
#049351:00230000
#049321:0013
#049351:00000023
#0503a1:14
#050381:00230000
#050320:13
#050350:00230000
#051380:0000000016000026
#051350:00000000000000000000005600000000
#052380:0000000016000026
#052350:00000000000000000000005636000000
#0533a0:0000000000000014
#054370:54
#0543a0:0024000000000000
#055320:0000000016000026
#055350:00000000000000000000005600000000
#056320:0000000016000026
#056350:00000000000000000000005600000000
#057320:0000000016000026
#057350:00000000000000000000005636000000
#059320:0000000016000026
#059350:00000000000000000000005600000000
#060320:0000000016000026
#060350:00000000000000000000005636000000
#061320:0000000000000014
#062350:54
#062320:0024000000000000
#063380:0000000016000026
#063350:00000000000000000000005600000000
#064380:0000000016000026
#064350:00000000000000000000005600000000
#065380:0000000016000026
#065350:00000000000000000000005636000000
#066360:0000000000000016
#0673b0:00230000
