This file was generated by Ched 2.7.0.0.
#TITLE ""
#ARTIST ""
#DESIGNER ""
#DIFFICULTY 0
#PLAYLEVEL
#SONGID ""
#WAVE ""
#WAVEOFFSET 0
#JACKET ""
#REQUEST "ticks_per_beat 480"
#00002: 4
#BPM01: 144
#00008: 01
#TIL00: ""
#VOLUME: ""
#HISPEED 00
#MEASUREHS 00
#0011a:1414
#0021a:1414
#00314:1414
#00414:1414
#00518:1414
#00618:1414
#00712:1414
#00812:1414
#00914:00140000
#00918:00000014
#0091a:24
#00910:41
#01014:00140000
#01018:00000014
#01113:14000014
#01119:00140000
#01312:00140000
#0131a:14000014
#01412:00140000
#0141a:00000014
#01219:00140000
#01213:00000014
#02218:0000001400000000
#0221a:0000000000000024
#02210:0000000000000041
#02314:00140014
#02318:0014
#0241a:1414
#0241a:0014
#02412:00140014
#02518:14140000
#02514:00001414
#0261a:1414
#02612:00140000
#02718:00140000
#02714:0014
#0271a:00000014
#02712:24
#02812:14
#02818:00140000
#02814:0014
#0281a:00000014
#02912:1414
#02918:00140000
#02915:0000000000003414
#03118:00140014
#03114:0014
#03212:1414
#03212:0014
#0321a:00140014
#03314:14140000
#03318:00001414
#03412:1414
#0341a:00140000
#03514:00140000
#03518:0014
#03512:00000014
#0351a:24
#0361a:14
#03614:00140000
#03618:0014
#03612:00000014
#0371a:1414
#03714:00140000
#03717:0000000000003414
#03710:41
#03914:00140014
#04018:00140014
#04112:00140014
#0421a:00140014
#05013:14
#05019:14
#0501a:0000000000000024
#0501f:0000000000000021
#05114:00140014
#05118:0014
#0521a:1414
#05212:00140014
#05210:41
#0531a:14
#05316:00140000
#05312:0014
#05318:00000014
#05718:00001414
#05714:0000000000140014
#0571a:14
#05712:00140000
#05414:14
#0541a:00140000
#05412:0014
#0551a:24140000
#05514:00001414
#05618:14140000
#05612:00001414
#06514:00001414
#06518:0000000000140024
#06512:14
#0651a:00140000
#0661a:0034003400340014
#05918:00140014
#05914:0014
#06012:1414
#0601a:00140014
#06112:14
#06116:00140000
#0611a:0014
#06114:00000014
#06218:14
#06212:00140000
#0621a:0014
#06312:24140000
#06318:00001414
#06414:14140000
#0641a:00001414
#0431f:11
#03012:0034003400340024
#03010:0000000000000041
#05812:0034003400340024
#0381a:0034003400340000
#01710:41
#06718:00630000
#01652:0000001400000000
#0225a:0000000000000014
#02258:0000006400000000
#02955:0000000000000054
#02952:0064
#03757:0000000000000064
#0375a:0054
#0505a:0000000000000014
#05754:0000000000000054
#05852:0000000000000014
#0665a:0000000000000054
#06558:0000000000000064
#0385a:0000000000000014
#03052:0000000000000014
#015340:14
#015320:0000000000000034
#016320:0034002400000000
#0173a0:14
#018380:24
#019320:14
#020340:24
#021380:1400000034000034
#022380:0034003400000000
#0223a0:0000000000000024
#029320:0014
#029350:0000000000003434
#030320:0034003400340024
#0373a0:0014
#037370:0000000000003434
#0383a0:0034003400340024
#043340:1424
#044340:1424
#045380:1424
#046380:1424
#047320:1424
#048320:1424
#0493a0:1424
#0503a0:0000000014003424
#057340:0000000000000014
#058320:0034003400340024
#065380:0000000000000014
#0663a0:0034003400340034
#067380:00230000
