This file was generated by Ched 2.7.0.0.
#TITLE ""
#ARTIST ""
#DESIGNER ""
#DIFFICULTY 0
#PLAYLEVEL
#SONGID ""
#WAVE ""
#WAVEOFFSET 0
#JACKET ""
#REQUEST "ticks_per_beat 480"
#00002: 4
#BPM01: 213
#00008: 01
#TIL00: ""
#VOLUME: ""
#HISPEED 00
#MEASUREHS 00
#0061a:14
#00714:14
#00814:14
#00918:14
#00910:41
#01018:14
#01112:14
#01212:14
#0211a:14
#02214:14
#02318:14
#02412:14
#0251a:14
#02510:41
#02614:14
#02718:14
#02812:14
#0301a:14
#03112:14
#03212:14
#03318:14
#03414:14
#0391a:14
#03910:41
#04014:14
#04312:14
#04418:14
#04718:14
#04812:14
#05212:14
#0531a:14
#05310:41
#0541a:14
#05514:14
#0551f:11
#05618:14
#06518:2616
#0651f:21
#06510:0041
#06612:1616
#06718:16
#06712:0016
#06818:16
#06812:0016
#07118:16
#07112:0016
#07312:2616
#07418:1616
#07512:16
#07518:0016
#07612:16
#07618:0016
#07912:16
#07918:0016
#08012:16
#08018:0016
#08416:0016
#08812:14
#08918:14
#09018:14
#0051a:24
#0291a:24
#03712:26
#03518:26
#05112:24
#06413:24
#06419:24
#08218:0026
#08210:41
#08712:24
#08258:0056
#08456:0026
#0133a0:14
#0143a0:24
#015340:14
#016340:24
#017380:14
#018380:24
#019320:14
#020320:24
#035380:16
#036380:26
#037320:1636
#038320:26
#0413a0:14
#042380:24
#045320:14
#046340:24
#049380:14
#0503a0:24
#057320:14
#058340:24
#059380:14
#0603a0:24
#061320:17
#063340:27
#069380:1626
#070320:1626
#072380:1626
#077320:1626
#078380:1626
#081320:16
#082320:26
#082380:0016
#084360:0056
#086380:0026
#091340:14
#092340:0000000034000024
