This file was generated by Ched 2.7.0.0.
#TITLE ""
#ARTIST ""
#DESIGNER ""
#DIFFICULTY 0
#PLAYLEVEL
#SONGID ""
#WAVE ""
#WAVEOFFSET 0
#JACKET ""
#REQUEST "ticks_per_beat 480"
#00002: 4
#BPM01: 213
#00008: 01
#TIL00: ""
#VOLUME: ""
#HISPEED 00
#MEASUREHS 00
#00512:14
#00515:00130000
#0051a:0000001300000000
#00513:0013
#00518:0000000000130000
#00516:00000013
#0051b:0000000000000013
#00517:0013000000000000
#00815:0000130000130013
#00818:0013001300001300
#00812:13
#0081b:0013
#00717:0013000000000000
#00715:00130000
#0071a:0000001300000000
#00713:0013
#00718:0000000000130000
#00716:00000013
#0071b:0000000000000013
#00712:13
#0091a:1413
#00916:0013000000000000
#00913:0000001300000000
#00915:0000000000130000
#00912:0000000000000013
#00918:00230000
#00917:00000023
#00910:41
#03316:14
#0331b:0013
#0331a:00000014
#03319:00130000
#03314:00130000
#03312:00002324
#03419:15
#03418:00160000
#03412:25260000
#09218:00001414
#09214:0000000000140000
#09212:0000000000000025
#09219:0000000000000025
#06818:0013
#06815:0000000000130000
#06812:13000013
#0681b:00000013
#07915:0000130000130000
#07918:1300001300000000
#07912:26
#0541a:14
#05418:0014
#05412:14
#05415:0000232300002300
#05512:1424
#0551a:14240024
#0551f:11
#05314:0014
#0531a:14
#05318:0000232300002300
#05312:24
#05310:41
#01218:0000230000130013
#01215:0013001300002300
#01212:0013
#0121b:13
#01113:0000001300000000
#0111a:0013
#01115:0000000000130000
#01112:0000000000000013
#01116:0013000000000000
#0111b:13
#01118:00230000
#01117:00000023
#04612:1425
#04619:0025
#06517:0013
#0651a:00240024
#06512:2323
#0651f:21
#06510:0041
#0661b:13131313
#06616:1313
#06612:00240024
#00318:0000000000000014
#00319:00620000000000000000000000000000
#0061b:00130000
#00616:00000013
#01315:13
#01312:00131313
#0131b:13
#01317:0013
#0131a:00000013
#01412:13131313
#01417:13000013
#01512:13131313
#0151b:13
#01517:00130000
#01612:13131313
#01617:00000013
#0161b:13
#0171b:13131313
#01716:13
#01712:0013
#0181b:13131313
#01816:13
#01812:0013
#0191b:13131313
#01916:00130000
#0201b:13131300
#02013:1300535353535300
#02018:00000026
#0221b:13000023
#02214:1313
#02217:00130000
#02212:00230023
#0251b:00130000
#02518:13000023
#02512:00000013
#02515:00231300
#02510:41
#0261b:00130000
#02618:13000023
#02612:00000013
#02615:00231300
#0271b:13005323
#02712:00231300
#02719:0053005300000000
#02717:00530000
#02714:0000000000530053
#02716:00000053
#0281a:1454
#02812:53231400
#0281b:00000023
#02818:0054005400000000
#02816:00540054
#02814:0000000000540054
#03518:1313
#03515:1313
#03512:00130013
#0351b:00130013
#03615:0013
#03612:00000013
#0361b:00000013
#03618:0013
#03715:1313
#03712:00130013
#03718:1313
#0371b:00130013
#03815:13
#0381b:00130000
#03816:00000013
#03818:13
#04017:0013
#0401b:00000013
#04012:0013
#04016:00000013
#04117:13
#04112:13
#04116:00000013
#0411b:00000013
#04415:13
#04418:00000000000000000000000000000000006400000000000000000000000000000000000000000000000000000000000013000000000000000000000000000000
#04412:0000001300000000
#04417:00240000
#04419:0000000000000000006400000000000000000000000000000000000000000000
#04315:13
#04318:0013
#04312:00130013
#0431b:00130013
#04516:00140014
#04512:14000014
#0451a:14141400
#0471a:14000014
#04716:00140014
#04712:00141400
#0481a:14
#04816:00140000
#04815:00001313
#04812:00140000
#04818:0000000000130013
#04912:14
#04913:00140000
#04914:0014
#04915:00000014
#0491b:0023
#05014:14000015
#05013:00140000
#05012:0014
#0501b:00002313
#05018:0023000000000000
#0511a:00141414
#05112:23
#05117:25
#0521a:14141414
#0571a:00140000
#05712:00140000
#05814:0013
#05819:0013
#05818:00000023
#05815:00000023
#05918:00130000
#05915:00130000
#06112:14
#06118:00000013
#06115:00000013
#0611a:24
#06313:13131313
#06318:00140014
#0671b:13
#06717:0013
#06716:13240024
#06912:0014
#06917:0014
#0691a:14
#06915:14
#0701a:0014
#07015:0014
#07012:14
#07017:14
#07117:14
#07118:00140000
#07119:0014
#07112:24
#07113:00240000
#07114:0024
#07115:00000024
#0721a:14
#07216:24140000
#07212:00140000
#07316:1313
#07312:00240024
#0731b:2323
#07412:13131313
#07417:1313
#0741a:00240024
#07715:1414
#0771a:1414
#07717:00000014000000000000000000000000
#07712:00000014000000000000000000000000
#07812:1414
#07817:1414
#07815:00000014000000000000000000000000
#0781a:00000014000000000000000000000000
#07615:0013
#07618:0000000000130000
#07612:23000013
#0761b:2300000000000013
#08012:0000131300000000
#0801b:0000001300000000
#08615:0013
#08618:0013
#0821b:00130000
#08212:00130000
#08215:23
#08218:23
#08210:41
#08712:13
#0871a:0000001300000000
#08718:0000000000130000
#0871b:0000000000000013
#08713:0013
#08717:0013000000000000
#08715:00230000
#08716:00000023
#09015:0000230000130013
#09018:0013001300002300
#0901b:0013
#09012:13
#0891a:0000001300000000
#08913:0013
#08918:0000000000130000
#0891b:0000000000000013
#08917:0013000000000000
#08912:13
#08915:00230000
#08916:00000023
#02114:1313
#02112:00230023
#02412:13000025
#02419:13001325
#02416:00130000
#0241b:00230000
#02319:1313
#0231b:00230023
#02913:00130013
#02912:5413
#02918:13
#0291b:0013
#03012:0013
#0301a:00230023
#0301b:0023
#03015:23
#03118:13
#03114:0000232300000000
#03119:0000232300000000
#0311a:00000024
#03112:00000024
#09119:25
#09112:25
#03214:0000232300000000
#03212:00000024
#0321a:00000024
#03219:0000232300000000
#01012:00230000
#01017:00000023
#05612:24
#0561a:00240000
#05616:00002424
#06012:0024
#06412:25
#06419:25
#0641b:0023
#07516:00242324
#07517:23
#07512:23
#08118:23
#08115:23
#0881b:00230000
#08812:00000023
#0421a:22
#04216:00220000
#04218:0022
#03910:41
#00219:00000000000000000000006200000000
#00358:0000000000000054
#00359:00220000000000000000000000000000
#01355:13
#0135b:53
#01357:0053
#0135a:00000053
#0095a:14
#01457:53
#01557:00530000
#01756:63
#01752:0063
#01856:63
#01852:0063
#0225b:53
#02257:00230000
#02558:53
#0255b:00230000
#02552:00000023
#02555:0063
#0265b:00230000
#02658:53
#02652:00000023
#02655:0063
#02952:14
#0295b:0023
#02958:53
#03452:00560000
#03458:00560000
#03658:13
#03655:1363
#03652:00000023
#03558:5353
#03555:6363
#03552:00230023
#0355b:00230023
#03755:6363
#03752:00230023
#03855:63
#0385b:00130000
#03852:00130000
#04057:0053
#0405b:00000053
#04052:0053
#04056:00000053
#04157:53
#04152:53
#04156:00130000
#0415b:00130000
#04355:53
#04358:0053
#04352:00230000
#0435b:00000023
#04556:00540064
#04552:2414
#0455a:1424
#04652:14
#0465a:14
#04756:00240024
#0475a:54000014
#04752:00146400
#0485a:54
#04856:00240000
#04852:00140000
#05054:00000035
#05552:1464
#0555a:00540054
#05656:00005464
#0575a:00540000
#05752:00640000
#05855:13
#05858:13
#05958:00530000
#05955:00630000
#06152:64
#06158:00000023
#06155:00000023
#0615a:54
#06252:0034
#0625a:0044
#06358:00140014
#0645b:0053
#06556:18
#06552:5353
#0685b:13
#06852:13
#06952:0014
#06957:0014
#0695a:64
#06955:64
#0705a:0014
#07055:0014
#07052:54
#07057:54
#07256:54241400
#0725a:5414
#07252:00240000
#0765b:13
#07652:13
#0755b:0013
#07552:13
#06757:0063
#06756:63
#07755:6414
#0775a:6414
#07757:00000024000000000000000000000000
#07752:00000024000000000000000000000000
#07852:5414
#07857:5414
#07855:00000024000000000000000000000000
#0785a:00000024000000000000000000000000
#07952:16
#07958:53
#08155:13
#08158:13
#0805b:0000005300000000
#08052:0000005300000000
#08655:0053
#08658:0053
#08652:00000014
#0865a:00000014
#0825b:00230000
#08252:00230000
#08255:53
#08258:53
#00552:14
#02452:63
#02456:00230000
#03052:0023
#03055:53
#04455:53
#04452:0000002300000000
#05157:45
#06052:14
#0605a:14
#0165b:13
#01956:00130000
#05352:14
#0735b:6363
#003390:00120000000000000000000000000000
#003380:0000000000000054
#005360:28
#006320:1323
#006340:0033003300000000
#006360:00330000
#006371:0013
#006391:0000000000330033
#0063b1:00000033
#007371:23
#0103b1:1323
#010391:0033003300000000
#010371:00330000
#010360:0013
#010340:0000000000330033
#010320:00000033
#011360:23
#0133b0:13
#013370:0033
#0133a0:00000033
#014370:33
#0143b0:0023
#015370:00130000
#0153b0:00000023
#017360:13
#017320:0033
#018360:33
#018320:0033
#019360:23
#0213b0:1333
#021370:00330033
#0223b0:3323
#022370:00530000
#023320:1333
#023360:00330033
#024320:3323
#024360:00530000
#025380:1323
#0253b0:00530000
#025351:0013
#025321:00000053
#026351:23
#026380:1323
#0263b0:00530000
#026351:0013
#026321:00000053
#027351:23
#029381:13
#0293b1:0053
#030381:23
#030350:13
#030320:0053
#031350:23
#034320:00160000
#034350:00000023
#034381:00160023
#035381:1353
#0353b1:00530053
#036381:23
#035350:1353
#035320:00530053
#036350:23
#036350:0013
#036320:00000053
#037350:5353
#037320:00530053
#038350:53
#038320:00230000
#0393b0:13230000
#039361:00132300
#039390:00001323
#039341:00000013
#040341:23
#040370:1333
#0403b0:00000033
#041370:33
#0413b0:00230000
#040321:00133300
#040361:00000033
#041321:33
#041361:00230000
#0423a1:12220000
#042360:00122200
#042381:0012
#043381:22
#043350:1323
#043320:00530000
#043381:0013
#0433b1:00000053
#044381:23
#044350:13000023
#044320:0000005300000000
#045320:1424
#045360:00540000
#0453a1:0014
#045361:00000054
#0463a1:24
#0473a1:1424
#047361:00540000
#047320:0014
#047360:00000054
#048320:24
#0483a1:1424
#048361:00540000
#051321:13
#052321:00000028
#0553a1:00140000
#055361:0024
#055320:0014
#055360:00000024
#0553a1:00000014
#056361:24
#056320:14240000
#0563a1:00142400
#056360:0014
#056320:00000034
#057320:00340000
#058350:23
#056361:00000014
#0573a1:54340000
#058381:23
#058381:00000013
#059381:00330000
#0603a1:24
#058350:00000013
#059350:00330000
#060320:24
#060320:0014
#061320:34
#061350:00000053
#062320:0024
#0613a1:14
#061381:00000053
#0623a1:0024
#0643b1:0013
#065361:28
#065320:13
#065360:00230000
#065320:0013
#065360:00000023
#067360:13
#067320:00532300
#067371:0013
#0673b1:00000053
#0683b1:23
#069351:14
#069321:0000002400000000
#0693a0:14
#069370:0000002400000000
#070370:14
#0703a0:0000002400000000
#070321:14
#070351:0000002400000000
#0713a1:00000014
#0723a1:5424
#072361:00540000
#072360:1424
#072320:00540000
#0733b0:13
#073370:00230000
#0733b0:0013
#073370:00000023
#075370:13
#075390:0033000000000000000000000000000000000000000000000000000000000000
#0753b0:00330000000000002300000000000000
#075361:0013
#075341:0000000000000000000000000000000000330000000000000000000000000000
#075321:00000000000000000033000000000000
#076321:23
#077351:1400002400000000
#077321:00000054000000000000000000000000
#0773a0:1400002400000000
#077370:00000054000000000000000000000000
#078370:1400002400000000
#0783a0:00000054000000000000000000000000
#078321:1400002400000000
#078351:00000054000000000000000000000000
#078381:00000013
#079381:33
#0793b1:00230000
#0793b1:00000013
#0803b1:0000333300000000
#081381:23
#080320:0000001300000000
#081350:23
#082350:1333
#082320:0000530000530000
#085320:56
#086350:0033
#086320:0000000000542400
#082381:1333
#0823b1:0000530000530000
#085381:56
#086381:0033
#0863a1:0000000000542400
#088321:1323
#088341:0033003300000000
#088361:00330000
#0883b0:0013
#088390:0000000000330033
#088370:00000033
#0893b0:23
#002990:00000000000000000000001200000000
#003990:000000000000000000000000000000000000000000000000000000000000000000000000000000000000000000000000000000000000000000000000000000000000000000000000000000000000000000000000000000000000000000000000000000000000000000000000005252525252525252525222000000000000000000000000000000000000000000000000000000000000000000000000000000000000000000000000000000000000000000000000000000000000000000000000000000000000000000000000000000000000000000000000000000000000000000000000000000000000000000000000000000000000000000000000000000000000000000000000000000000000000000000000000000000000000000000000000000000000000000000000000000000000000000000000000000000000000000000000000000000000000000000000000000000000000000000000000000000000000000000000000000000000000000000000000000000000000000000000000000000000000000000000000000000000000000000000000000000000000000000000000000000000000000000000000000000000000000000000000000000000000000000000000000000000000000000000000000000000000000000000000000000000000000000000000000000000000000000000000000000000000000000000000000000000000000000000000000000000000000000000000000000000000000000000000000000000000000000000000000000000000000000000000000000000000000000000000000000000000000000000000000000000000000000000000000000000000000000000000000000000000000000000000000000000000000000000000000000000000000000000000000000000000000000000000000000000000000000000000000000000000000000000000000000000000000000000000000000000000000000000000000000000000000000000000000000000000000000000000000000000000000000000000000000000000000000000000000000000000000000000000000000000000000000000000000000000000000000000000000000000000000000000000000000000000000000000000000000000000000000000000000000000000000000000000000000000000000000000000000000000000000000000000000000000000000000000000000000000000000000000000000000000000000000000000000000000000000000000000000000000000000000000000000000000000000000000000000000000000000000000000000000000000000000000000000000000000000000000000000000000000000000000000000000000000000000000000000000000000000000000000000000000000000000000000000000000000000000000000000000000000000000000000000000000000000000000000000000000000000000000000000000000000000000000000000000000000000000000000000000000000000000000000000000000000000000000000000000000000000000000000000000000000000000000000000000000000000000000000000000000000000000000000000000000000000000000000000000000000000000000000000000000000000000000000000000000000000000000000000000000000000000000000000000000000000000000000000000000000000000000000000000000000000000000000000000000000000000000000000000000000000000000000000000000000000000000000000000000000000000000000000000000000000000000000000000000000000000000000000000000000000000000000000000000000000000000000000000000000000000000000000000000000000000000000000000000000000000000000000000000000000000000000000000000000000000000000000000000000000000000000000000000000000000000000000000000000000000000000000000000000000000000000000000000000000000000000000000000000000000000000000000000000000000000000000000000000000000000000000000000000000000000000000000000000000000000000000000000000000000000000000000000000000000000000000000000000000000000000000000000000000000000000000000000000000000000000000000000000000000000000000000000000000000000000000000000000000000000000000000000000000000000000000000000000000000000000000000000000000000000000000000000000000000000000000000000000000000000000000000000000000000000000000000000000000000000000000000000000000000000000000000000000000000000000000000000000000000000000000000000000000000000000000000000000000000000000000000000000000000000000000000000000000000000000000000000000000000000000000000000000000000000000000000000000000000000000000000000000000000000000000000000000000000000000000000000000000000000000000000000000000000000000000000000000000000000000000000000000000000000
#020930:130000000000000000000000000000000000000000000000000000000000000000000000000000000000000000000000000000000000000000000000000000000000000000000000000000000000000000000000000000000000000000000000000000000000000000000000000000000000000000000000000000000000000000000000000000000000000000000000000000000000000000000000000000000000000000000000000000000000000000000000000000000000000000000000000000000000000000000000000000000000000000000000000000000000000000000000000000000000000000000000000000000000000000000000000000000000000000000000000000000000000000000000000000000000000000000000000000000000000000000000000000000000000000000000000000000000000000000000000000000000000000000000000000000000000000000000000000000000000000000000000000000000000000000000000000000000000000000000000000000000000000000000000000000000000000000000000000000000000000000000000000000000000000000000000000000000000000000000000000000000000000000000000000000000000000000000000000000000000000000000000000000000000000000000000000000000000000000000000000000000000000000000000000000000000000000000000000000000000000000000000000000000000000000000000000000000000000000000000000000000000000000000000000000000000000000000000000000000000000000000000000000000000000000000000000000000000000000000000000000000000000000000000000000000000000000000000000000000000000000000000000000000000000000000000000000000000000000000000000000000000000000000000000000000000000000000000000000000000000000000000000000000000000000000000000000000000000000000000000000000000000000000000000000000000000000000000000000000000000000000000000000000000000000000000000000000000000000000000000000000000000000000000000000000000000000000000000000000000000000000000000000000000000000000000000000000000000000000000000000000000000000000000000000000000000000000000000000000000000000000000000000000000000000000000000000000000000000000000000000000000000000000000000000000000000000000000000000000000000000000000000000000000000000000000000000000000000000000000000000000000000000000000000000000000000000000000000000000000000000000000000000000000000000000000000000000000000000000000000000000000000000000000000000000000000000000000000000000000000000000000000000000000000000000000000000000000000000000000000000000000000000000000000000000000000000000000000000000000000000000000000000000000000000000000000000000000000000000000000000000000000000000000000000000000000000000000000000000000000000000000000000000000000000000000000000000000000000000000000000000000000000000000000000000000000000000000000000000000000000000000000000000000000000000000000000000000000000000000000000000000000000000000000000000000000000000000000000000000000000000000000000000000000000000000000000000000000000000000000000000000000000000000000000000000000000000000000000000000000000000000000000000000000000000000000000000000000000000000000000000000000000000000000000000000000000000000000000000000000535353230000000000000000000000000000000000000000000000000000000000000000000000000000000000000000000000000000000000000000000000000000000000000000000000000000000000000000000000000000000000000000000000000000000000000000000000000000000000000000000000000000000000000000000000000000000000000000000000000000000000000000000000000000000000000000000000000000000000000000000000000000000000000000000000000000000000000000000000000000000000000000000000000000000000000000000000000000000000000000000000000000000000000000000000000000000000000000000000000000000000000000000000000000000000000000000000000000000000000000000000000000000000000000000000000000000000000000000000000000000000000000000000000000000000000000000000000000000000000000000000000000000000000000000000000000000000000000000000000000000000000000000000000000000000000000000000000000000000000000000000000000000000000000000000000000000000000000000000000000000000000000000000000000000000000000000000000000000000000000000000
#0279b0:130000000000000000000000000000000000000000000000000000000000000000000000000000000000000000000000000000000000000000000000000000000000000000000000000000000000000000000000000000000000000000000000000000000000000000000000000000000000000000000000000000000000000000000000000000000000000000000000000000000000000000000000000000000000000000000000000000000000000000000000000000000000000000000000000000000000000000000000000000000000000000000000000000000000000000000000000000000000000000000000000000000000000000000000000000000000000000000000000000000000000000000000000000000000000000000000000000000000000000000000000000000000000000000000000000000000000000000000000000000000000000000000000000000000000000000000000000000000000000000000000000000000000000000000000000000000000000000000000000000000000000000000000000000000000000000000000000000000000000000000000000000000000000000000000000000000000000000000000000000000000000000000000000000000000000000000000000000000000000000000000000000000000000000000000000000000000000000000000000000000000000000000000000000000000000000000000000000000000000000000000000000000000000000000000000000000000000000000000000000000000000000000000000000000000000000000000000000000000000000000000000000000000000000000000000000000000000000000000000000000000000000000000000000000000000000000000000000000000000000000000000000000000000000000000000000000000000000000000000000000000000000000000000000000000000000000000000000000000000000000000000000000000000000000000000000000000000000000000000000000000000000000000000000000000000000000000000000000000000000000000000000000000000000000000000000000000000000000000000000000000000000000000000000000000000000000000000000000000000000000000000000000000000000000000000000000000000000000000000000000000000000000000000000000000000000000000000000000000000000000000000000000000000000000000000000000000000000000000000000000000000000000000000000000000000000000000000000000000000005353230000000000000000000000000000000000000000000000000000000000000000000000000000000000000000000000000000000000000000000000000000000000000000000000000000000000000000000000000000000000000000000000000000000000000000000000000000000000000000000000000000000000000000000000000000000000000000000000000000000000000000000000000000000000000000000000000000000000000000000000000000000000000000000000000000000000000000000000000000000000000000000000000000000000000000000000000000000000000000000000000000000000000000000000000000000000000000000000000000000000000000000000000000000000000000000000000000000000000000000000000000000000000000000000000000000000000000000000000000000000000000000000000000000000000000000000000000000000000000000000000000000000000000000000000000000000000000000000000000000000000000000000000000000000000000000000000000000000000000000000000000000000000000000000000000000000000000000000000000000000000000000000000000000000000000000000000000000000000000000000000000000000000000000000000000000000000000000000000000000000000000000000000000000000000000000000000000000000000000000000000000000000000000000000000000000000000000000000000000000000000000000000000000000000000000000000000000000000000000000000000000000000000000000000000000000000000000000000000000000000000000000000000000000000000000000000000000000000000000000000000000000000000000000000000000000000000000000000000000000000000000000000000000000000000000000000000000000000000000000000000000000000000000000000000000000000000000000000000000000000000000000000000000000000000000000000000000000000000000000000000000000000000000000000000000000000000000000000000000000000000000000000000000000000000000000000000000000000000000000000000000000000000000000000000000000000000000000000000000000000000000000000000000000000000000000000000000000000000000000000000000000000000000000000000000000000000000000000000000000000000000000000000000000000000000000000000000000000000000000000
#027970:00530000
#027921:000000000000000000000000000000000000000000000000000000000000000000000000000000000000000000000000000000000000000000000000000000000000000000000000000000000000000000000000000000000000000000000000000000000000000000000000000000000000000000000000000000000000000000000000000000000000000000000000000000000000000000000000000000000000000000000000000000000000000000000000000000000000000000000000000000000000000000000000000000000000000000000000000000000000000000000000000000000000000000000000000000000000000000000000000000000000000000000000000000000000000000000000000000000000000000000000000000000000000000000000000000000000000000000000000000000000000000000000000000000000000000000000000000000000000000000000000000000000000000000000000000000000000000000000000000000000000000000000000000000000000000000000000000000000000000000000000000000000000000000000000000000000000000000000000000000000000000000000000000000000000000000000000000000000000000000000000000000000000000000000000000000000000000000000000000000000000000000000000000000000000000000000000000000000000000000000000000000000000000000000000000000000000000000000000000000000000000000000000000000000000000000000000000000000000000000000000000000000000000000000000000000000000000000000000000000000000000000000000000000000000000000000000000000000000000000000000000000000000000000000000000000000000000000000000000000000000000000000000000000000000000000000000000000000000000000000000000000000000000000000000000000000000000000000000000000000000000000000000000000000000000000000000000000000000000000000000000000000000000000000000000000000000000000000000000000000000000000000000000000000000000000000000000000000000000000000000000000000000000000000000000000000000000000000000000000000000000000000000000000000000000000000000000000000000000000000000000000000000000000000000000000000000000000000000000000000000000000000000000000000000000000000000000000000000000000000000000000000000000000000130000000000000000000000000000000000000000000000000000000000000000000000000000000000000000000000000000000000000000000000000000000000000000000000000000000000000000000000000000000000000000000000000000000000000000000000000000000000000000000000000000000000000000000000000000000000000000000000000000000000000000000000000000000000000000000000000000000000000000000000000000000000000000000000000000000000000000000000000000000000000000000000000000000000000000000000000000000000000000000000000000000000000000000000000000000000000000000000000000000000000000000000000000000000000000000000000000000000000000000000000000000000000000000000000000000000000000000000000000000000000000000000000000000000000000000000000000000000000000000000000000000000000000000000000000000000000000000000000000000000000000000000000000000000000000000000000000000000000000000000000000000000000000000000000000000000000000000000000000000000000000000000000000000000000000000000000000000000000000000000000000000000000000000000000000000000000000000000000000000000000000000000000000000000000000000000000000000000000000000000000000000000000000000000000000000000000000000000000000000000000000000000000000000000000000000000000000000000000000000000000000000000000000000000000000000000000000000000000000000000000000000000000000000000000000000000000000000000000000000000000000000000000000000000000000000000000000000000000000000000000000000000000000000000000000000000000000000000000000000000000000000000000000000000000000000000000000000000000000000000000000000000000000000000000000000000000000000000000000000000000000000000000000000000000000000000000000000000000000000000000000000000000000000000000000000000000000000000000000000000000000000000000000000000000000000000000000000000000000000000000000000000000000000000000000000000000000000000000000000000000000000000000000000000000000000000000000000000000000000000000000000000000000000000000000000000000000000000000000005353
#027961:00000053
#028921:23
#0289a0:140000000000000000000000000000000000000000000000000000000000000000000000000000000000000000000000000000000000000000000000000000000000000000000000000000000000000000000000000000000000000000000000000000000000000000000000000000000000000000000000000000000000000000000000000000000000000000000000000000000000000000000000000000000000000000000000000000000000000000000000000000000000000000000000000000000000000000000000000000000000000000000000000000000000000000000000000000000000000000000000000000000000000000000000000000000000000000000000000000000000000000000000000000000000000000000000000000000000000000000000000000000000000000000000000000000000000000000000000000000000000000000000000000000000000000000000000000000000000000000000000000000000000000000000000000000000000000000000000000000000000000000000000000000000000000000000000000000000000000000000000000000000000000000000000000000000000000000000000000000000000000000000000000000000000000000000000000000000000000000000000000000000000000000000000000000000000000000000000000000000000000000000000000000000000000000000000000000000000000000000000000000000000000000000000000000000000000000000000000000000000000000000000000000000000000000000000000000000000000000000000000000000000000000000000000000000000000000000000000000000000000000000000000000000000000000000000000000000000000000000000000000000000000000000000000000000000000000000000000000000000000000000000000000000000000000000000000000000000000000000000000000000000000000000000000000000000000000000000000000000000000000000000000000000000000000000000000000000000000000000000000000000000000000000000000000000000000000000000000000000000000000000000000000000000000000000000000000000000000000000000000000000000000000000000000000000000000000000000000000000000000000000000000000000000000000000000000000000000000000000000000000000000000000000000000000000000000000000000000000000000000000000000000000000000000000000000000000000000000005454240000000000000000000000000000000000000000000000000000000000000000000000000000000000000000000000000000000000000000000000000000000000000000000000000000000000000000000000000000000000000000000000000000000000000000000000000000000000000000000000000000000000000000000000000000000000000000000000000000000000000000000000000000000000000000000000000000000000000000000000000000000000000000000000000000000000000000000000000000000000000000000000000000000000000000000000000000000000000000000000000000000000000000000000000000000000000000000000000000000000000000000000000000000000000000000000000000000000000000000000000000000000000000000000000000000000000000000000000000000000000000000000000000000000000000000000000000000000000000000000000000000000000000000000000000000000000000000000000000000000000000000000000000000000000000000000000000000000000000000000000000000000000000000000000000000000000000000000000000000000000000000000000000000000000000000000000000000000000000000000000000000000000000000000000000000000000000000000000000000000000000000000000000000000000000000000000000000000000000000000000000000000000000000000000000000000000000000000000000000000000000000000000000000000000000000000000000000000000000000000000000000000000000000000000000000000000000000000000000000000000000000000000000000000000000000000000000000000000000000000000000000000000000000000000000000000000000000000000000000000000000000000000000000000000000000000000000000000000000000000000000000000000000000000000000000000000000000000000000000000000000000000000000000000000000000000000000000000000000000000000000000000000000000000000000000000000000000000000000000000000000000000000000000000000000000000000000000000000000000000000000000000000000000000000000000000000000000000000000000000000000000000000000000000000000000000000000000000000000000000000000000000000000000000000000000000000000000000000000000000000000000000000000000000000000000000000000000000000000000000
#028960:00540000
#028921:000000000000000000000000000000000000000000000000000000000000000000000000000000000000000000000000000000000000000000000000000000000000000000000000000000000000000000000000000000000000000000000000000000000000000000000000000000000000000000000000000000000000000000000000000000000000000000000000000000000000000000000000000000000000000000000000000000000000000000000000000000000000000000000000000000000000000000000000000000000000000000000000000000000000000000000000000000000000000000000000000000000000000000000000000000000000000000000000000000000000000000000000000000000000000000000000000000000000000000000000000000000000000000000000000000000000000000000000000000000000000000000000000000000000000000000000000000000000000000000000000000000000000000000000000000000000000000000000000000000000000000000000000000000000000000000000000000000000000000000000000000000000000000000000000000000000000000000000000000000000000000000000000000000000000000000000000000000000000000000000000000000000000000000000000000000000000000000000000000000000000000000000000000000000000000000000000000000000000000000000000000000000000000000000000000000000000000000000000000000000000000000000000000000000000000000000000000000000000000000000000000000000000000000000000000000000000000000000000000000000000000000000000000000000000000000000000000000000000000000000000000000000000000000000000000000000000000000000000000000000000000000000000000000000000000000000000000000000000000000000000000000000000000000000000000000000000000000000000000000000000000000000000000000000000000000000000000000000000000000000000000000000000000000000000000000000000000000000000000000000000000000000000000000000000000000000000000000000000000000000000000000000000000000000000000000000000000000000000000000000000000000000000000000000000000000000000000000000000000000000000000000000000000000000000000000000000000000000000000000000000000000000000000000000000000000000000000000000000000000000140000000000000000000000000000000000000000000000000000000000000000000000000000000000000000000000000000000000000000000000000000000000000000000000000000000000000000000000000000000000000000000000000000000000000000000000000000000000000000000000000000000000000000000000000000000000000000000000000000000000000000000000000000000000000000000000000000000000000000000000000000000000000000000000000000000000000000000000000000000000000000000000000000000000000000000000000000000000000000000000000000000000000000000000000000000000000000000000000000000000000000000000000000000000000000000000000000000000000000000000000000000000000000000000000000000000000000000000000000000000000000000000000000000000000000000000000000000000000000000000000000000000000000000000000000000000000000000000000000000000000000000000000000000000000000000000000000000000000000000000000000000000000000000000000000000000000000000000000000000000000000000000000000000000000000000000000000000000000000000000000000000000000000000000000000000000000000000000000000000000000000000000000000000000000000000000000000000000000000000000000000000000000000000000000000000000000000000000000000000000000000000000000000000000000000000000000000000000000000000000000000000000000000000000000000000000000000000000000000000000000000000000000000000000000000000000000000000000000000000000000000000000000000000000000000000000000000000000000000000000000000000000000000000000000000000000000000000000000000000000000000000000000000000000000000000000000000000000000000000000000000000000000000000000000000000000000000000000000000000000000000000000000000000000000000000000000000000000000000000000000000000000000000000000000000000000000000000000000000000000000000000000000000000000000000000000000000000000000000000000000000000000000000000000000000000000000000000000000000000000000000000000000000000000000000000000000000000000000000000000000000000000000000000000000000000000000000000000000000005454
#028961:00000054
#029921:24
#044971:00140000
#044991:0000000000000000002400000000000000000000000000000000000000000000
