This file was generated by Ched 2.7.0.0.
#TITLE ""
#ARTIST ""
#DESIGNER ""
#DIFFICULTY 0
#PLAYLEVEL
#SONGID ""
#WAVE ""
#WAVEOFFSET 0
#JACKET ""
#REQUEST "ticks_per_beat 480"
#00002: 4
#BPM01: 213
#00008: 01
#TIL00: ""
#VOLUME: ""
#HISPEED 00
#MEASUREHS 00
#00512:00130000
#00518:0013
#00515:00000013
#00912:16
#00915:0013
#00918:00000023
#0091b:00230000
#00910:41
#0341b:13130000
#03412:23230000
#09218:00001414
#09214:0000000000140024
#06818:00001313
#06815:0000000000130000
#06812:14
#0681a:14
#07915:0000130000130000
#07918:0000001300000000
#07912:13
#0791b:13
#0541b:13
#05412:0013
#05414:00240000
#05418:0000002400002400
#05512:14
#0551f:11
#0551a:00240024
#05515:0024
#0531b:0013
#05318:00240000
#05314:0000002400002400
#05312:24
#05310:41
#0661a:14
#06617:00140014
#06614:0014
#00318:0000000000000014
#00319:00620000000000000000000000000000
#01415:00000013
#01418:13
#0151b:13
#01515:00130000
#01615:00000013
#01618:13
#0061b:1300000000000033
#00618:0000003313000000
#00619:0000330000330000
#0061a:0033000000003300
#0131b:13
#01315:00000013
#01718:13
#0171b:0013
#01815:13
#01812:0013
#03518:13
#03515:13
#03512:0000001300000000
#0351b:0000001300000000
#03618:00000013
#03615:0013
#03812:00000013
#04015:0014
#04012:00000014
#04115:14
#04315:13
#04312:0013
#0471a:1414
#04717:00140014
#05214:14
#05216:00140000
#05218:0014
#0521a:00000014
#0571a:00140000
#06215:13
#06218:13
#06318:00130013
#06315:0013
#0671a:14
#06712:14
#06715:00140014
#06718:0014
#06912:14
#07216:00150000
#0721a:24
#08015:0000001300000000
#08018:0000001300000000
#0871b:13
#08718:0013
#08715:00000023
#08712:00230000
#00712:00130000
#00718:0013
#00715:00000013
#0081b:13000013
#00815:0013000000130000
#00818:00131300
#00812:0000001300000000
#01915:00130000
#01918:13
#02018:1313
#02015:00130000
#0201b:00000023
#02012:00000023
#02912:00160000
#02914:0016
#02916:00000016
#03016:00160000
#03014:0016
#03012:00000016
#03018:26
#03318:1313
#03315:00130013
#03715:13
#03712:0013
#03718:13
#0371b:0013
#03713:00330033
#0371a:00330033
#04812:1414
#04815:00140014
#05018:14140000
#05014:0014000000000000
#0501a:0014
#05012:0014
#05015:00000013
#05118:0013
#05112:00000014
#05916:00140000
#06512:00160016
#06518:2626
#0651f:21
#06510:0041
#0701a:14
#07618:00001313
#07615:0000000000130013
#0761a:24
#07612:24
#07412:14
#07415:00140014
#07418:0014
#07512:14
#0751a:24
#07517:00240024
#07514:0024
#0771a:14
#07318:00160016
#07312:2626
#07812:14
#07819:00000013
#08212:14
#0821a:14
#08214:0023
#08219:0023
#08210:41
#01218:0013000000130000
#01215:00231300
#0121b:0000001300000000
#01212:13000023
#01115:0013
#01118:00000023
#0111b:00230000
#01015:0000003313000000
#01012:1300000000000033
#01014:0000330000330000
#01013:0033000000003300
#09015:0013000000130000
#09018:00231300
#09012:0000001300000000
#0901b:13000023
#08918:0013
#08915:00000023
#08912:00230000
#08818:0000003313000000
#0881b:1300000000000033
#08819:0000330000330000
#0881a:0033000000003300
#0911a:24
#09112:24
#04612:0024
#0461a:0024
#02112:00240024
#03114:0000002400000000
#03118:00240000
#0311a:00000024
#03112:00000024
#03214:0000002400000000
#03212:00000024
#0321a:00000024
#03218:00240000
#04418:00240000
#0561a:00000024
#05612:2424
#05617:00240000
#06112:24
#0611a:24
#06412:25
#06419:25
#07112:24
#07114:00240000
#07116:0024
#07118:00000024
#08118:26
#08112:26
#0421b:23
#0421a:00630000
#04219:0063
#02212:00240024
#02813:00240024
#0281a:0000003400340000
#02819:00340034
#02818:0034000000000034
#0231a:00240024
#0241a:00240024
#02512:00240024
#02510:41
#02612:00240024
#02719:00240024
#02712:0000003400340000
#02713:00340034
#02714:0034000000000034
#04918:24
#04914:00240000
#05812:00000024
#06012:0024
#0601a:0024
#08612:0033
#0861b:0033
#03910:41
#00358:0000000000000054
#00359:00220000000000000000000000000000
#00952:16
#0065b:53
#00658:0053
#0135b:53
#01555:00630000
#01758:53
#0175b:0053
#01855:63
#01852:0063
#03452:00530000
#0345b:00530000
#03658:13
#03655:13
#03558:53
#03555:63
#03552:0000002300000000
#0355b:0000002300000000
#04055:0064
#04052:00000064
#04155:64
#04152:00140000
#04355:53
#04352:0063
#04757:00240024
#0475a:5454
#05552:14
#0575a:00540000
#06255:23
#06258:23
#06152:64
#0615a:54
#06952:54
#06956:0014
#07258:0016
#07256:00250000
#0725a:54
#06852:14
#0685a:14
#08152:16
#08158:16
#08058:0000005300000000
#08055:0000005300000000
#00556:18
#01458:63
#01658:13
#01955:00130000
#02958:14
#03755:63
#03752:0023
#03758:53
#0375b:0023
#03855:00130000
#03858:00130000
#04455:13
#04652:14
#0465a:14
#04852:6464
#04855:00240024
#04954:00140000
#05055:00000053
#05352:14
#05856:14
#05852:00000064
#05956:00540000
#06052:14
#06558:1616
#0705a:64
#07056:0014
#0775a:64
#07756:0014
#07852:54
#07856:0014
#07352:1616
#01055:0063
#01052:63
#08858:0053
#0885b:53
#0765a:14
#07652:14
#08652:00000013
#0865b:00000013
#003390:00120000000000000000000000000000
#003380:0000000000000054
#005360:28
#0063b0:1300000000000033
#0063a0:0033000000003300
#006390:0000330000330000
#006380:0000003333000000
#0073b0:23
#010320:1300000000000033
#010330:0033000000003300
#010340:0000330000330000
#010350:0000003333000000
#011320:23
#0133b0:13
#013380:0023
#014380:13
#0143b0:0023
#015350:00130000
#015320:00000023
#017380:13
#0173b0:0033
#018380:23
#018351:13
#018321:0033
#019351:23
#021381:14
#022381:00000024
#023341:14
#024341:00000024
#025381:14
#026381:00000024
#027341:1434000000000034
#027331:00340034
#027321:0000003434340000
#028341:24
#028380:1434000000000034
#028390:00340034
#0283a0:0000003434340000
#029380:24
#034320:00130000
#034350:00000023
#0343b1:00130000
#034381:00000023
#035381:13000053
#0353b1:0000005300000000
#036381:23
#035350:13000053
#035320:0000005300000000
#036350:23
#037350:13
#037330:00330033
#037320:0033
#038350:33230000
#037381:13
#0373a1:00330033
#0373b1:0033
#038381:33230000
#0393a1:1424
#039350:0014
#040350:24
#040391:1424
#040350:0014
#040320:00000034
#041350:34
#041320:00240000
#043350:13000053
#043320:00533300
#044350:23
#044380:0000000000000000145454545454545454545454545454542400000000000000
#044390:00000000000000000000000000000000005400540054005400540054005400540054005400540054005400540054005400000000000000000000000000000000
#045320:1454545454545454345454545454545434545454545454543454545454545454
#045330:00540054005400540054005400540054005400540054005400540054005400540054005400540054005400540054005400540054005400540054005400540054
#046320:24
#0453a1:0000000000000000000000000000000014545454545454543454545454545454
#045391:00000000000000000000000000000000000000000000000000000000000000000054005400540054005400540054005400540054005400540054005400540054
#0463a1:24
#0473a1:1434
#047371:00540054
#0483a1:24
#048320:1434
#048350:00540054
#049320:24
#050350:00000013
#051320:00230000
#0563a0:00000014
#0573a0:00340000
#058360:24
#058320:00000014
#059360:00340000
#060320:24
#061320:14
#062350:53
#063320:24
#0613a1:14
#062381:53
#0633a1:24
#069321:14
#069361:0000003424000000
#0703a1:14
#070361:0000003424000000
#0723a1:14
#072361:00550000
#072381:0026
#0773a1:14
#077361:0000003424000000
#078321:14
#078361:0000003424000000
#079381:00000013
#080381:0000003300000000
#081381:26
#080350:0000133300000000
#081320:26
#082340:0013
#083330:00000055
#085320:56
#086320:00003323
#082391:0013
#083381:00000055
#085381:56
#0863b1:00003323
#0883b1:1300000000000033
#0883a1:0033000000003300
#088391:0000330000330000
#088381:0000003333000000
#0893b1:23
#0429b0:13
#042990:000000000000000000000000000000000000000000000000000000000000000000000000000000000000000000000000000000000000000000000000000000000000000000000000000000000000000000000000000000000000000000000000000000000000000000000000000000000000000000000000000000000000000000000000000000000000000000000000000000000000000000000000000000000000000000000000000000000000000000000000000000000000000000000000000000000000000000000000000000000000000000000000000000000000000000000000000000000000000000535353230000000000000000000000000000000000000000000000000000000000000000000000000000000000000000000000000000000000000000000000000000000000000000000000000000000000000000000000000000000000000000000000000000000000000000000000000000000000000000000000000000000000000000000000000000000000000000000000000000000000000000000000000000000000000000000000000000000000000000000000000000000000000000000000000000000000000000000000000000000000000000000000000000000000000000000000000000000000000000000000
