This file was generated by Ched 2.7.0.0.
#TITLE ""
#ARTIST ""
#DESIGNER ""
#DIFFICULTY 0
#PLAYLEVEL
#SONGID ""
#WAVE ""
#WAVEOFFSET 0
#JACKET ""
#REQUEST "ticks_per_beat 480"
#00002: 4
#BPM01: 147
#00008: 01
#TIL00: "57'1680:1.0, 57'1679:10000.0"
#VOLUME: ""
#HISPEED 00
#MEASUREHS 00
#00918:14
#01014:14
#01114:14
#0261a:14
#02712:14
#02710:41
#03414:14
#0281a:14
#0281f:11
#0041a:14
#00410:41
#00512:14
#0061a:14
#00712:14
#00818:14
#02118:14
#02214:14
#02218:0014
#02314:14
#0161a:14
#01712:14
#0181a:14
#01912:14
#02018:14
#02014:0014
#02010:41
#0241a:14
#02512:14
#03012:14
#03218:14
#03618:2616
#0361f:21
#03610:0041
#03812:1616
#04012:0016
#04018:16
#04118:16
#04112:0016
#04412:0016
#04418:26
#04612:16
#04618:0016
#04818:16
#04812:0016
#04810:41
#04918:16
#04912:0016
#05118:0016
#05112:26
#05212:1616
#05318:16
#05312:0016
#05418:1616
#05512:16
#05518:0016
#05612:16
#05618:0016
#00014:24
#00218:24
#00314:24
#04312:26
#04218:26
#01210:41
#03454:54
#0285a:54
#03052:64
#03258:64
#0123a0:14
#0133a0:24
#014320:14
#015320:24
#0283a0:14
#029380:24
#030320:14
#031340:24
#032380:14
#0333a0:24
#034340:14
#035320:24
#037380:1626
#039320:1626
#042380:1626
#043320:1626
#045380:1626
#047320:1626
#050380:1626
#057320:1626
#0579d0:000000000000000000000000000000000000000000000000000000000000000000000000000000000000000000000000000000000000000000000000000000000000000000000000000000000000000000000000000000000000000000000000000000000000000000000000000000000000000000000000000000000000000000000000000000000000000000000000000000000000000000000000000000000000000000000000000000000000000000000000000000000000000000000000000000000000000000000000000000000000000000000000000000000000000000000000000000000000000000000000000000000000000000000000000000000000000000000000000000000000000000000000000000000000000000000000000000000000000000000000000000000000000000000000000000000000000000000000000000000000000000000000000000000000000000000000000000000000000000000000000000000000000000000000000000000000000000000000000000000000000000000000000000000000000000000000000000000000000000000000000000000000000000000000000000000000000000000000000000000000000000000000000000000000000000000000000000000000000000000000000000000000000000000000000000000000000000000000000000000000000000000000000000000000000000000000000000000000000000000000000000000000000000000000000000000000000000000000000000000000000000000000000000000000000000000000000000000000000000000000000000000000000000000000000000000000000000000000000000000000000000000000000000000000000000000000000000000000000000000000000000000000000000000000000000000000000000000000000000000000000000000000000000000000000000000000000000000000000000000000000000000000000000000000000000000000000000000000000000000000000000000000000000000000000000000000000000000000000000000000000000000000000000000000000000000000000000000000000000000000000000000000000000000000000000000000000000000000000000000000000000000000000000000000000000000000000000000000000000000000000000000000000000000000000000000000000000000000000000000000000000000000000000000000000000000000000000000000000000000000000000000000000000000000000000000000000000000000000000000000000000000000000000000000000000000000000000000000000000000000000000000000000000000000000000000000000000000000000000000000000000000000000000000000000000000000000000000000000000000000000000000000000000000000000000000000000000000000000000000000000000000000000000000000000000000000000000000000000000000000000000000000000000000000000000000000000000000000000000000000000000000000000000000000000000000000000000000000000000000000000000000000000000000000000000000000000000000000000000000000000000000000000000000000000000000000000000000000000000000000000000000000000000000000000000000000000000000000000000000000000000000000000000000000000000000000000000000000000000000000000000000000000000000000000000000000000000000000000000000000000000000000000000000000000000000000000000000000000000000000000000000000000000000000000000000000000000000000000000000000000000000000000000000000000000000000000000000000000000000000000000000000000000000000000000000000000000000000000000000000000000000000000000000000000000000000000000000000000000000000000000000000000000000000000000000000000000000000000000000000000000000000000000000000000000000000000000000000000000000000000000000000000000000000000000000000000000000000000000000000000000000000000000000000000000000000000000000000000000000000000000000000000000000000000000000000000000000000000000000000000000000000000000000000000000000000000000000000000000000000000000000000000000000000000000000000000000000000000000000000112100000000000000000000000000000000000000000000000000000000000000000000000000000000000000000000000000000000000000000000000000000000000000000000000000000000000000000000000000000000000000000000000000000000000000000000000000000000000000000000000000000000000000000000000000000000000000000000000000000000000000000000000000000000000000000000000000000000000000000000000000000000000000000000000000000000000000000000000000000000000000000000000000000000000000000000000000000000000000000000
