This file was generated by Ched 2.7.0.0.
#TITLE ""
#ARTIST ""
#DESIGNER ""
#DIFFICULTY 0
#PLAYLEVEL
#SONGID ""
#WAVE ""
#WAVEOFFSET 0
#JACKET ""
#REQUEST "ticks_per_beat 480"
#00002: 4
#BPM01: 140
#00008: 01
#TIL00: ""
#VOLUME: ""
#HISPEED 00
#MEASUREHS 00
#0041a:14
#0051a:14
#00612:14
#00712:14
#00818:14
#00810:41
#00918:14
#01014:14
#01114:14
#02018:2616
#0641a:14
#06512:14
#06618:14
#06714:14
#06818:14
#02112:1616
#02218:16
#02212:0016
#02412:2616
#02410:41
#02518:1616
#02612:16
#02618:0016
#0361a:14
#03712:14
#0381a:14
#03912:14
#04018:14
#04010:41
#04114:14
#04218:14
#04314:14
#05419:14
#05413:14
#05512:0016
#05518:26
#0551f:21
#05618:16
#05612:0016
#05610:41
#05818:0016
#05812:26
#05912:16
#05918:0016
#06012:16
#06018:0016
#0481f:11
#04819:0034
#06112:26
#04518:34
#04419:0034
#04714:34
#04613:0034
#05112:34
#05013:0034
#0491a:34
#01610:41
#03210:41
#0123a0:14
#0133a0:24
#014320:14
#015320:24
#016380:14
#017380:24
#018340:14
#019340:24
#023380:1626
#027320:1626
#028380:14
#0293a0:24
#030340:14
#031320:24
#0323a0:14
#033380:24
#034320:14
#035340:24
#0443a0:14
#044390:0034
#045380:3424
#046320:14
#046330:0034
#047340:3424
#048380:14
#048390:0034
#0493a0:3424
#050340:14
#050330:0034
#051320:3424
#052380:1424
#053340:1424
#057380:1626
#061320:1636
#062320:36
#063320:26
#069340:14
#070340:24
