This file was generated by Ched 2.7.0.0.
#TITLE ""
#ARTIST ""
#DESIGNER ""
#DIFFICULTY 0
#PLAYLEVEL
#SONGID ""
#WAVE ""
#WAVEOFFSET 0
#JACKET ""
#REQUEST "ticks_per_beat 480"
#00002: 4
#BPM01: 140
#00008: 01
#TIL00: ""
#VOLUME: ""
#HISPEED 00
#MEASUREHS 00
#02118:0000130000000013
#02112:0013000000000000
#02115:0000001300001300
#0211b:2323
#00512:00000013
#00518:0000000013000013
#0051a:13
#00514:0013000000000000
#00519:00130000
#00513:0000001300000000
#0061b:00131300
#00615:0000001300001300
#00618:0000000000000013
#00612:13
#00715:1300001300001300
#00718:0000130013000013
#0041a:14
#00416:00140000
#00412:0014
#0041b:00000013
#00415:0000000000000013
#00318:00000013
#00315:0000000000000013
#0111b:00000013
#01115:0000130013000013
#01118:1300001300000000
#0121b:1300000000130013
#01212:00001313
#01318:0013000000000013
#01315:13
#0131a:0014
#01312:00140013
#01316:0000001400000000
#01512:13000013
#01518:0000130000000013
#01515:0000001300000000
#0151b:0013
#01918:0000001300001300
#01915:0000130000000013
#01912:0013
#0191b:13
#02718:0000130000000013
#02715:0013000013000000
#02712:13
#0271b:0000001300000000
#03712:0013000000001400
#03715:1300001300000000
#03716:0000000000000014
#0371b:0013
#03718:00130000
#0361b:00000013
#03618:0000000000000013
#03615:13
#03612:00130000
#02015:0000000000000013
#02016:00240000
#02012:0024
#02018:00000023
#0201a:24
#02215:1300000000000013
#02212:00130000
#0221b:00000013
#05115:0013
#05118:1400001300000000
#0511b:00130000
#0091b:00000013
#00915:0000000013000013
#00913:13
#00919:0013000000000000
#00914:00130000
#0091a:0000001300000000
#01012:00131300
#01018:0000001300001300
#01015:0000000000000013
#0101b:13
#00812:14000013
#00816:00140000
#0081a:0014
#00818:0000000000000013
#00810:41
#01415:1300001300001300
#01418:0000000013000013
#0141b:00130000
#01612:1300000000130013
#0161b:00001313
#01610:41
#01715:0013000000000013
#01718:13
#01712:0014
#0171a:00140000
#01716:0000001400000000
#0171b:00000013
#01818:1300001300001300
#01815:0000000013000013
#01812:00130000
#02318:1300130000000013
#02312:0013000000000000
#02315:0000001300001300
#0231b:0013
#02515:0000130000000013
#0251b:0013000000000000
#02518:0000001300001300
#02512:2323
#02418:0000000000000013
#02416:00240000
#0241a:0024
#02415:00000023
#02412:24
#02410:41
#02615:00130000
#0261b:0000001300000000
#02614:0013
#0261a:0000000000130000
#02613:00000013
#02619:0000000000000013
#02618:23
#0291b:13
#02915:0000130000130000
#02918:0000001300000000
#02912:00000000000000000000000000330033
#02914:00000000000000000000003300000000
#03515:00131300
#03518:0000001300130000
#03512:00000013
#0351b:0000000000000013
#0381a:14140000
#03816:0000001400000014
#03812:0014
#03813:00000013
#0391a:13130000
#0391b:00000013
#03912:0000000000000013
#03916:0000001400000000
#03913:0013
#0411b:0013000000000000
#04118:1300001300000000
#04116:0000000000000014
#0411a:00000014
#04112:0013
#04115:00130000
#04012:00000013
#04015:0000000000000013
#04018:13
#0401b:00130000
#04010:41
#04212:14140000
#04216:0000001400000014
#0421a:00001413
#04312:0000000000000013
#04318:00120013
#04313:13
#04316:0012
#04418:00130013
#0441b:1300000000000013
#04415:0000000000130000
#0471b:0000000000000013
#04715:0000001300001300
#04714:14
#04712:00130000
#04718:0013
#04815:00130013
#04812:1300000000000013
#04818:0000000000130000
#0481f:11
#04515:0013000013000016
#04518:1300001300001600
#04512:00130000
#04612:16150000
#04617:0000000000000014
#0461a:00000014
#04615:0000001500000000
#04618:0015
#04915:1300001300000016
#04918:0013000013000000
#0491b:00130000
#04912:00000016
#05018:16
#05015:0000000000000014
#05012:00000014
#05016:0000001500000000
#05019:00150000
#05013:0015
#05318:0000001300000000
#05315:00131300
#0531a:14
#05512:0014000000000000
#05514:0000001400002400
#05518:0000240000000014
#0551a:2424
#0551f:21
#05616:00140000
#05614:0000000000000014
#05618:00000014
#05612:24
#05610:41
#05716:0014001400000000
#05715:00000013
#05718:0000000000000013
#0571a:2424
#05712:00240000
#05816:0000240000000014
#05812:2424
#0581a:24002424
#0591a:0014000000000000
#05918:0000001400002400
#05914:0000240000000014
#05912:2424
#06012:24130000
#06015:0000001300001300
#06018:0013
#0601b:0000000000130013
#0601a:24
#06118:1300001300000000
#06115:0013000000000000
#06112:00131300
#0611b:0000000000000013
#06318:1313
#06315:00000000130013000000000000330033
#06312:0000000000130000
#06313:00000000000000000000003300000000
#06418:00000000130013000000000000330033
#06415:0013
#0641b:0000000000130000
#0641a:00000000000000000000003300000000
#03018:0000130000130000
#03015:0000001300000000
#0301b:00000000000000000000000000330033
#03019:00000000000000000000003300000000
#03115:0000130000130000
#03118:0000001300000000
#03112:00000000000000000000000000330033
#03114:00000000000000000000003300000000
#03218:00000000130000000000000000330033
#03215:0000001300000000
#0321b:0000000000130000
#0321a:00000000000000000000003300000000
#03210:41
#03315:00000000130000000000000000330033
#03318:0000001300000000
#03312:0000000000130000
#03313:00000000000000000000003300000000
#03418:00000000130000000000000000330033
#03415:0000001300000000
#0341b:0000000000130000
#0341a:00000000000000000000003300000000
#0521a:14
#05216:00140014
#05212:0014
#02812:13
#02815:0000001300000000
#06215:13
#06212:0000001300000000
#06515:00000000130013000000000000130000
#06518:0013
#06512:0000000000130000
#06514:00000000000000000000000000000033
#06513:00000000000000000000003300000000
#0661b:00000000130013000000000000330033
#06615:0013
#06618:0000000000130000
#06619:00000000000000000000003300000000
#06712:00000000130013000000000000330033
#06715:0000000000130000
#06718:0013
#06714:00000000000000000000003300000000
#06912:0000000000120000
#06915:00000000130013000000000000520000
#06918:0013
#06917:00000000000000000000000000000052
#06916:0000000000000052
#06914:00000052
#06913:00000000000000000000005200000000
#0681b:00000000130013000000000000330033
#06815:0013
#06818:0000000000130000
#06819:00000000000000000000003300000000
#00758:0013
#0125b:63
#00558:0013
#0205a:14
#02755:0063
#02255:63
#02252:00530000
#05155:0063
#01155:0013
#00955:0013
#0135a:0014
#0155b:0013
#01652:53
#01752:0014
#01952:0013
#02452:14
#0295b:13
#02955:0000000000630000
#03052:13
#03058:0000000000530000
#03655:63
#03652:00530000
#04058:53
#0405b:00630000
#04458:00530000
#0445b:63
#04855:00630000
#04852:53
#05355:0063
#05352:00000013
#05656:00640000
#05652:5414
#06152:0053
#0585a:14
#05852:14
#0315b:13
#03155:0000000000630000
#03252:13
#0325b:0000000000630000
#03358:13
#03352:0000000000530000
#03455:13
#0345b:0000000000630000
#03558:13
#02852:53
#02855:0000006300000000
#06255:63
#06252:0000005300000000
#06352:0000000000530000
#06358:13
#06552:0000000000530000
#06555:00000000000000000000000000230000
#06558:13
#06652:13
#06658:0000000000530000
#06455:13
#0645b:0000000000630000
#06755:0000000000630000
#0675b:13
#06852:13
#06858:0000000000530000
#0695b:13
#0375b:0013
#03953:0013
#04152:0013
#04555:0013
#04758:0013
#04958:0013
#0555a:14
#05952:14
#0123b0:13
#012380:00230000
#016320:13
#016350:00230000
#022350:1323
#022320:00330000
#027350:0013
#027320:00000023
#028320:13000023
#028350:0000003300000000
#029350:0000000013330000
#029340:00000000000000000000003300000000
#029320:00000000000000000000000000330033
#030320:23
#030380:0000000013330000
#030390:00000000000000000000003300000000
#0303b0:00000000000000000000000000330033
#0313b0:23
#031350:0000000013330000
#031340:00000000000000000000003300000000
#031320:00000000000000000000000000330033
#032320:23
#0323b0:0000000013330000
#0323a0:00000000000000000000003300000000
#032380:00000000000000000000000000330033
#033380:23
#033320:0000000013330000
#033330:00000000000000000000003300000000
#033350:00000000000000000000000000330033
#034350:23
#0343b0:0000000013330000
#0343a0:00000000000000000000003300000000
#034380:00000000000000000000000000330033
#035380:23
#036350:1323
#036320:00330000
#040380:1323
#0403b0:00330000
#0443b0:1323
#044380:00330000
#048320:1323
#048350:00330000
#051350:0013
#051320:00000023
#053350:0013
#053320:00000023
#056320:1424
#056360:00340000
#061320:0013
#061350:00000023
#062350:13000023
#062320:0000003300000000
#063320:0000000000130000
#063330:00000000000000000000003300000000
#063350:00000000000000000000000000330033
#064350:23
#0643b0:0000000000130000
#0643a0:00000000000000000000003300000000
#064380:00000000000000000000000000330033
#065380:23
#065320:0000000000130000
#065330:00000000000000000000003300000000
#065350:00000000000000000000000000330000
#065340:00000000000000000000000000000033
#066320:23
#066380:0000000000130000
#066390:00000000000000000000003300000000
#0663b0:00000000000000000000000000330033
#0673b0:23
#067350:0000000000130000
#067340:00000000000000000000003300000000
#067320:00000000000000000000000000330033
#068320:23
#068380:0000000000130000
#068390:00000000000000000000003300000000
#0683b0:00000000000000000000000000330033
#0693b0:23
#069920:0000000000120000
#069970:00000000000000000000000000000022
