This file was generated by Ched 2.7.0.0.
#TITLE ""
#ARTIST ""
#DESIGNER ""
#DIFFICULTY 0
#PLAYLEVEL
#SONGID ""
#WAVE ""
#WAVEOFFSET 0
#JACKET ""
#REQUEST "ticks_per_beat 480"
#00002: 4
#BPM01: 140
#00008: 01
#TIL00: ""
#VOLUME: ""
#HISPEED 00
#MEASUREHS 00
#0041a:1414
#00414:00140000
#0521a:14
#05212:0014
#05518:0000000014000014
#05514:00000014
#05512:00140000
#0551a:24
#0551f:21
#05612:24000014
#05616:00140000
#0561a:0014
#05610:41
#00512:1414
#00518:00140000
#0061a:1414
#00614:00140014
#0071a:1414
#00714:00140000
#00812:1414
#00818:00140000
#00810:41
#0091a:1414
#00914:00140000
#01012:1414
#01018:00140014
#01112:1414
#01118:00140000
#02014:00140000
#0201a:2414
#02012:00000014
#02116:1414
#0211a:00140000
#02112:00000014
#0221a:14
#02217:00140000
#02212:00000014
#02318:14
#02314:00140000
#0231a:0014
#02418:00140000
#02412:2414
#0241a:00000014
#02410:41
#02516:1414
#02512:00140000
#0251a:00000014
#02612:14
#02618:00140014
#02614:0014
#02712:14
#02714:00140000
#02716:0014
#02718:00000014
#02914:14
#02918:00140000
#0301a:14
#03014:00140000
#03112:14
#03118:00140000
#0321a:14
#03214:00140000
#03210:41
#03312:14
#03318:00140000
#03418:14
#03414:00140000
#03514:14
#03518:00140000
#0361a:14
#03614:00140000
#03618:0014
#03612:00000014
#03718:14
#03714:00140000
#0371a:0014
#03812:14
#03818:00140000
#03814:0014
#0381a:00000014
#03914:14
#03918:00140000
#03912:0014
#04018:14
#04012:00140000
#0401a:0014
#04014:00000014
#04010:41
#0411a:14
#04112:00140000
#04118:0014
#04214:14
#0421a:00140000
#04212:0014
#04218:00000014
#04312:14
#0431a:00140000
#04314:0014
#05718:0000001400000000
#05714:00141400
#0571a:24000014
#05814:0000000014000014
#05818:00000014
#0581a:00140000
#05812:24
#0591a:24000014
#05916:00140000
#05912:0014
#06018:00140000
#06014:0014
#0601a:00000014
#06012:24
#0631a:14
#06314:00140000
#06318:00001414
#06412:14
#06418:00140000
#06414:0014
#0641a:00000014
#06512:14
#06518:00140000
#06514:00001414
#06618:14
#06612:00140000
#0661a:00001414
#06714:14
#0671a:00140000
#06712:0014
#06718:00000014
#06814:14
#0681a:00140000
#06812:00001414
#06918:1414
#06914:00140014
#05414:14
#05318:1414
#05314:00140000
#0481f:11
#06212:24
#06116:2424
#06112:00240000
#0611a:00000024
#01218:00343434
#01414:00343434
#01812:00343434
#0161a:00343434
#01610:41
#0525a:64
#05252:0054
#0225a:6414
#02257:00540000
#06252:54
#0075a:0014
#01152:0014
#0235a:0014
#0375a:0014
#03952:0014
#04158:0014
#04354:0014
#06954:00000014
#05454:64
#0123a0:14
#012380:00343434
#013380:34
#013390:00340000
#0133a0:0024
#014320:14
#014340:00343434
#015340:34
#015330:00340000
#015320:0024
#016380:14
#0163a0:00343434
#0173a0:34
#017390:00340000
#017380:0024
#018340:14
#018320:00343434
#019320:34
#019330:00340000
#019340:0024
#0223a0:1424
#022370:00340000
#0283a0:14
#028380:0024
#029340:00001424
#0303a0:00001424
#031320:00001424
#032380:00001424
#033340:00001424
#0343a0:00001424
#035320:00001424
#0443a0:14000034
#044380:00343400
#0453a0:3424
#045380:00340000
#046320:14000034
#046340:00343400
#047320:3424
#047340:00340000
#048380:14000034
#0483a0:00343400
#049380:3424
#0493a0:00340000
#050340:14000034
#050320:00343400
#051340:3424
#051320:00340000
#0523a0:14
#052380:00240000
#052320:0014
#052340:00000024
#054340:14
#054320:0024
#062320:14
#062340:0024
