This file was generated by Ched 2.7.0.0.
#TITLE ""
#ARTIST ""
#DESIGNER ""
#DIFFICULTY 0
#PLAYLEVEL
#SONGID ""
#WAVE ""
#WAVEOFFSET 0
#JACKET ""
#REQUEST "ticks_per_beat 480"
#00002: 4
#BPM01: 137
#00008: 01
#TIL00: "68'0:1, 67'1919:10000"
#VOLUME: ""
#HISPEED 00
#MEASUREHS 00
#0051a:14
#00514:0014
#0061a:14
#00712:14
#00718:0014
#0131a:14
#01412:14
#01512:14
#01618:14
#01718:14
#01814:14
#01810:41
#01914:14
#02418:14
#02414:0014
#02410:41
#02518:14
#02514:0014
#03618:0016
#03612:26
#0361f:21
#03818:16
#03812:0016
#04012:1616
#04218:1616
#04517:16
#04714:0014
#04710:41
#04818:14
#04812:0014
#0491a:14
#04914:0014
#05018:14
#05012:0014
#0511a:14
#0521a:14
#05312:14
#05412:14
#05518:14
#05514:0014
#05510:41
#05714:14
#05718:0014
#0591a:14
#05914:0014
#06018:14
#06012:0014
#0281f:11
#0121a:24
#03518:00000026
#04318:26
#0611a:00343434
#01010:41
#03710:41
#04358:56
#04557:26
#001380:1434
#002380:24
#003340:1434
#004340:24
#008320:14
#009340:34
#010340:34
#011320:24
#0203a0:14
#0213a0:24
#022320:14
#023320:24
#0263a0:14343434
#0273a0:34
#027380:0034
#0283a0:24
#029320:14
#029340:0034
#030320:24
#031380:14
#0313a0:0034
#032380:24
#033340:14
#033320:0034
#034340:24
#037320:1626
#039380:1626
#041320:1626
#043380:16
#045370:56
#047380:26
#0563a0:1424
#058320:1424
#0613a0:14343434
#062380:3424
#063320:16
#064320:0000002600000000
#0689d0:112100000000000000000000000000000000000000000000000000000000000000000000000000000000000000000000000000000000000000000000000000000000000000000000000000000000000000000000000000000000000000000000000000000000000000000000000000000000000000000000000000000000000000000000000000000000000000000000000000000000000000000000000000000000000000000000000000000000000000000000000000000000000000000000000000000000000000000000000000000000000000000000000000000000000000000000000000000000000000000000000000000000000000000000000000000000000000000000000000000000000000000000000000000000000000000000000000000000000000000000000000000000000000000000000000000000000000000000000000000000000000000000000000000000000000000000000000000000000000000000000000000000000000000000000000000000000000000000000000000000000000000000000000000000000000000000000000000000000000000000000000000000000000000000000000000000000000000000000000000000000000000000000000000000000000000000000000000000000000000000000000000000000000000000000000000000000000000000000000000000000000000000000000000000000000000000000000000000000000000000000000000000000000000000000000000000000000000000000000000000000000000000000000000000000000000000000000000000000000000000000000000000000000000000000000000000000000000000000000000000000000000000000000000000000000000000000000000000000000000000000000000000000000000000000000000000000000000000000000000000000000000000000000000000000000000000000000000000000000000000000000000000000000000000000000000000000000000000000000000000000000000000000000000000000000000000000000000000000000000000000000000000000000000000000000000000000000000000000000000000000000000000000000000000000000000000000000000000000000000000000000000000000000000000000000000000000000000000000000000000000000000000000000000000000000000000000000000000000000000000000000000000000000000000000000000000000000000000000000000000000000000000000000000000000000000000000000000000000000000000000000000000000000000000000000000000000000000000000000000000000000000000000000000000000000000000000000000000000000000000000000000000000000000000000000000000000000000000000000000000000000000000000000000000000000000000000000000000000000000000000000000000000000000000000000000000000000000000000000000000000000000000000000000000000000000000000000000000000000000000000000000000000000000000000000000000000000000000000000000000000000000000000000000000000000000000000000000000000000000000000000000000000000000000000000000000000000000000000000000000000000000000000000000000000000000000000000000000000000000000000000000000000000000000000000000000000000000000000000000000000000000000000000000000000000000000000000000000000000000000000000000000000000000000000000000000000000000000000000000000000000000000000000000000000000000000000000000000000000000000000000000000000000000000000000000000000000000000000000000000000000000000000000000000000000000000000000000000000000000000000000000000000000000000000000000000000000000000000000000000000000000000000000000000000000000000000000000000000000000000000000000000000000000000000000000000000000000000000000000000000000000000000000000000000000000000000000000000000000000000000000000000000000000000000000000000000000000000000000000000000000000000000000000000000000000000000000000000000000000000000000000000000000000000000000000000000000000000000000000000000000000000000000000000000000000000000000000000000000000000000000000000000000000000000000000000000000000000000000000000000000000000000000000000000000000000000000000000000000000000000000000000000000000000000000000000000000000000000000000000000000000000000000000000000000000000000000000000000000000000000000000000000000000000000000000000000000000000000000000000000000000000000000000000000000000000000000000000000000000000000000000000000000000000000000000000000000000000000000000000000000000000000000000000000000000000000000000000000000000000
