This file was generated by Ched 2.7.0.0.
#TITLE ""
#ARTIST ""
#DESIGNER ""
#DIFFICULTY 0
#PLAYLEVEL
#SONGID ""
#WAVE ""
#WAVEOFFSET 0
#JACKET ""
#REQUEST "ticks_per_beat 480"
#00002: 4
#BPM01: 137
#00008: 01
#TIL00: "68'0:1, 67'1919:10000"
#VOLUME: ""
#HISPEED 00
#MEASUREHS 00
#00112:1424
#00118:00130013
#0011a:2414
#00115:0000000000130000
#00212:1400000000000013
#0021b:0000000000000013
#0021a:24
#00318:1424
#00312:0000130000000013
#0031b:0000001300001300
#00314:2414
#00418:14
#00414:24000013
#00419:00000013
#00512:1424
#00518:00001300000000000013000013000000
#00515:0000130000130013
#0051b:0000001300000000
#0051a:24
#00612:14000013
#00618:0013001300000013
#00615:00000000130000001300000000000013
#0061b:0000000000130000
#0061a:24
#00715:00001300000000130000000000000000
#00718:00000013000013000000000000000000
#00712:0000130000240000
#00716:00000014
#0071a:2424
#01014:12
#01017:0012000000000000
#0101a:00120000
#01010:41
#01113:13
#01117:0012000000000000
#0111a:00130000
#01114:0013
#01119:0013
#0121b:00000000130000000000001300000000
#01212:2300001313000014
#01217:23000000000000130000000000000000
#01219:0013000000000000
#0121a:0000000000000014
#01214:0023000000000000
#01216:00230000
#0131b:00000000130000000000001300000000
#01312:2300001313000000
#01317:23000000000000130000000000000000
#01319:0013000000000000
#01316:00000000230000000000001300000000
#01314:0023000000000000
#01412:00000000130000000000001300001400
#0141b:2300001313000000
#01416:23000000000000130000000000000000
#01414:0013000000000000
#0141a:0000000000000014
#01419:0023000000000000
#01417:00230000
#01512:00000000130000000000001300000000
#0151b:2300001313000000
#01516:23000000000000130000000000000000
#01514:0013000000000000
#01517:00000000230000000000001300000000
#01519:0023000000000000
#0161b:00000000130000000000130000130000
#01612:2300001300000000
#01617:23000000000000130000000000000000
#01616:00000000230000000000001300001300
#01619:0013000000000000
#01614:0023000000000000
#0171b:0000130000130000
#01712:2300001300000000
#01717:23000000000000130000000000001300
#01719:0013000000000000
#01716:00000000230000000000001300000000
#01714:0023000000000000
#01812:00000000130000000000130000130000
#0181b:2300001300000000
#01816:23000000000000130000000000000000
#01817:00000000230000000000001300001300
#01814:0013000000000000
#01819:0023000000000000
#01810:41
#01912:0000130000130000
#0191b:2300001300000000
#01916:23000000000000130000000000001300
#01914:0013000000000000
#01917:00000000230000000000001300000000
#01919:0023000000000000
#02418:0000130000000013
#02415:0000001300001300
#0241a:2424000024240000
#02412:2424000024240000
#02410:41
#02518:0000140000000014
#02514:0000001400001400
#02512:2525000025250000
#02519:2525000025250000
#02612:15251525
#02617:0014000000000000
#02619:25152515
#02615:0000001400000000
#02616:0000000000140014
#02712:1313131300000000
#0271b:1313131300000000
#02716:0012
#02718:0000000022132415
#02714:00000014
#02715:0000000000230000
#02713:0000000000000025
#02812:16000013
#0281b:00131300
#02819:0000001300000000
#02816:00131300
#02814:0000000000000013
#02817:00000013
#0281f:11
#02818:26
#02912:1314
#02917:1300000000000014
#02914:00130000
#02919:00130000
#02916:0000001400000000
#02915:0000000000140000
#0291a:00001414
#03012:24130000
#03014:0000001300000000
#03016:00001313
#03017:00130000
#0301b:00001313
#03019:0000000000000013
#03117:1300001200000000
#03112:13000013
#03114:00130000
#0311a:0013
#03116:0000000000140000
#03113:0013
#0311b:00000013
#03115:0000000000000016
#03119:00130000
#03218:16
#03212:26131300
#03214:0000001300000000
#03217:00131300
#0321b:00000013
#03219:0000000000000013
#03216:00000013
#0331b:1300000000000013
#03316:13
#03312:0000140000000013
#0331a:00140000
#03315:0000001300000000
#03318:0000001300000000
#03314:00000013
#03319:00000013
#03413:001a
#03618:0000000013000013
#03615:00000000000000000013000000000013
#0361a:1400240000140000
#03612:24140014
#0361f:21
#03712:0013000014000000
#03714:00130000
#03716:0000001300000000
#0371a:00001414
#03718:00000000000000000000130000000013
#03715:00000000000000000000001300001300
#03710:41
#0381b:0013131300000000
#03816:00000013001300000000000000000000
#03814:0013
#03819:0013
#03812:2400000000131313
#03817:00000000000000000000001300130000
#03915:00000000000013000000001300001300
#03918:16000000260000130000130000000013
#03912:0026000024000000
#0391a:00000024
#04015:00000000000000001300130013000013
#04018:00000000000000000013001300000000
#0401b:0000000000000013
#04012:24
#0401a:24
#04118:1300000013000013
#04112:0013000013130000
#0411b:0000131300001300
#04115:00000000130000000000000013000013
#04215:0013130000000000
#04218:00000013000000002400140000000000
#0421b:0000001300000000
#04214:0000000014240000
#04212:00000014
#0421a:24000014
#04315:0014001400000000
#04314:0000000000140014
#0431a:24
#04312:24
#04413:0014001400000000
#04415:0000000000240000
#04517:0000001400000000
#04518:0000000000140014
#04614:0014001400000000
#04617:0000000000140014
#0471a:14141400
#04712:00141400
#04718:00000000000023000000001300002300
#04715:0023000000231300
#04710:41
#0481a:14141400
#04812:14141400
#04818:00000000000023000000001300002300
#04815:0023000000231300
#04912:14141414
#04918:14000000140000001400001300000000
#04915:0023000000230000
#0491b:0000002300000023
#0501a:1400000000000000140000000000000014000000000000000000001400000000
#05014:14141400
#05012:0023000000130000
#05015:00000000000000000000001600000000
#05018:0000002300000000
#05318:26000000130000000013000013000000
#05315:00000000001300001300000000130000
#05312:0026000000230000
#0531b:0000002300000023
#05213:00130013
#05217:00000000001300000000000000130000
#0521a:0013
#05216:00000000000000000013000000000000
#05212:2600002300000023
#05218:0026000000000000
#0521b:0000000000230000
#05416:00130013
#05418:00002600001300000000000000130000
#05415:00000000000000000013000000000000
#05417:0013
#05412:2600002300000023
#0541b:0000000000230000
#0511b:0000132300001323
#05116:00000000001300000000000000130000
#05112:0026000013230000
#05117:00000000000000000013000000000000
#05118:26
#05918:00000000130013000000000000130000
#05915:00000000001300000000000013001300
#05919:2525000025250000
#05912:2525000025250000
#06018:00000000130013000000000000130000
#06015:00000000001300000000000013001300
#06019:2525000025250000
#06012:2525000025250000
#06118:00001300000000130000130000000013
#06115:00000013000013000000001300001300
#06119:25250025
#06112:2525
#06212:1524132200000000
#0621a:0014000000000000
#0621c:0000001200000000
#06216:0012
#06218:0000000022132415
#06214:00000014
#06219:25
#0621b:00230000
#06215:0000000000230000
#06213:0000000000000025
#06312:16
#06318:26
#02014:0000001400140014
#02012:2424000000000000
#0201a:2424000000000000
#02118:0000001400140014
#02112:2424000000000000
#0211a:2424000000000000
#02216:0000001400140014
#0221a:2424000000000000
#02212:2424000000000000
#02316:0000001400140014
#0231a:2424000000000000
#02312:2424000000000000
#0551a:0000001300000000
#05513:0000000000130000
#05516:00000012
#05514:0000000000000013
#05519:2525000000000013
#05512:2525000000000000
#05510:41
#05613:0000001300000000
#05618:00000012
#05619:2525000000000013
#05614:0000000000000013
#05616:00120000
#0561a:0000000000130000
#05612:2525000000000000
#05716:0000001400140000
#05714:00000012
#05715:0000000000000013
#05718:0000000000000013
#0571a:00120000
#05719:2525000000000000
#05712:2525000000000000
#05816:0000001400140000
#0581a:00000012
#05818:0000000000000013
#05815:0000000000000013
#05814:00120000
#05819:2525000000000000
#05812:2525000000000000
#00814:28
#03512:00000025
#03519:00000025
#06417:0000002200000000
#00252:64
#0025a:64
#00458:64
#00454:64
#00854:18
#00756:00000024
#0115c:0000000000000012
#0125b:00000000130000000000001300000000
#01256:00000000000000000000001300000000
#01252:0063
#0135b:00000000130000000000005300000000
#01352:0063
#01356:00000000000000000000006300000000
#01452:00000000130000000000001300000000
#01457:00000000000000000000001300000000
#0145b:0053
#01552:00000000130000000000006300000000
#0155b:0053
#01557:00000000000000000000005300000000
#0165b:00130000
#01656:00000000000000000000001300000000
#0175b:00130000
#01756:00000000000000000000006300000000
#01852:00130000
#01857:00000000000000000000001300000000
#01952:00130000
#01957:00000000000000000000005300000000
#02652:3535
#02659:00450045
#02858:46
#02852:36
#02856:0013
#0285b:0013
#02952:13006434
#02957:1300000000000024
#02955:0000000000240000
#0295a:00001454
#03052:34
#0305a:44
#03056:0013
#0305b:0013
#03157:13
#03152:13
#03258:46
#03252:3613
#03257:0013
#0335b:13
#03356:13
#03355:0000006300000000
#03358:0000005300000000
#03453:002a
#03557:12
#03552:00000035
#03559:00000045
#0365a:1400000000440000
#03652:00140034
#03758:00160000
#0375a:00000014
#03752:0014
#03852:14
#03952:0016000000000000
#03958:16160000
#0405a:00140000
#04052:00140000
#04158:1313
#04155:00130013
#0425a:14000014
#04252:00000014
#04355:0014001400000000
#04354:0000000000140014
#04453:0014001400000000
#04557:0014001400000000
#04558:0000000000140014
#04654:0014001400000000
#04657:0000000000140014
#0505a:0000000000000000000000000000000014000000000000000000002400000000
#05055:00000000000000000000006600000000
#05158:16
#05152:0016000000000000
#05252:16
#05258:0016000000000000
#05358:16
#05352:0016000000000000
#05452:16
#05458:0016000000000000
#06152:3535
#06159:00450045
#06358:46
#06352:36
#06457:0000001200000000
#05554:0000000000000013
#05559:0000000000000013
#05659:0000000000000013
#05654:0000000000000013
#05755:0000000000000013
#05758:0000000000000013
#05858:0000000000000013
#05855:0000000000000013
#002320:14
#002350:0023
#0023a1:14
#002381:0023
#004381:14
#0043b1:0023
#004340:14
#004320:0023
#007360:00000014
#008340:28
#010350:00000000000000001200002200000000
#010391:00000000000000001200002200000000
#0113c1:0000000000001222
#012321:0013
#012361:00000000000000000000002300000000
#013321:0000000013000023
#013361:00000000000000000000003300000000
#0133b0:00000000000000000000001300000000
#013370:0000000000000023
#0143b0:0013
#014370:00000000000000000000002300000000
#0153b0:0000000013000023
#015370:00000000000000000000003300000000
#015321:00000000000000000000001300000000
#015361:0000000000000023
#016321:0013
#016361:0000000000230000
#017321:0013
#017361:0000000000230000
#017361:00000000000000000000001300000000
#017321:0000000000000023
#0183b1:0013
#018371:0000000000230000
#0193b1:0013
#019371:0000000000230000
#019371:00000000000000000000001300000000
#0193b1:0000000000000023
#020381:0000123232323222
#020391:00000000003200320032003200320000
#021361:0000123232323222
#021351:00000000003200320032003200320000
#0223a1:0000123232323222
#0223b1:00000000003200320032003200320000
#023341:0000123232323222
#023331:00000000003200320032003200320000
#029321:00001424
#029351:0000000000540000
#0293a0:00000014
#029370:0000000000000054
#0303a0:24
#033350:0000001300000000
#033320:0000000000230000
#033381:0000001300000000
#0333b1:0000000000230000
#034371:120000000000000000000000000000000000000000000000000000000000000000000000000000000000000000000000000000000000000000000000000000000000000000000000000000000000000000000000000000000000000000000000000000000000000000000000000000000000000000000000000000000000000000000000000000000000000000000000000000000000000000000000000000000000000000000000000000000000000000000000000000000000000000000000000000000000000000000000000000000000000000000000000000000000000000000000000000000000000000000000000000000000000000000000000000000000000000000000000000000000000000000000000000000000000000000000000000000000000000000000000000000000000000000000000000000000000000000000000000000000000000000000000000000000000000000000000000000000000000000000000000000000000000000000000000000000000000000000000000000000000000000000000000000000000000000000000000000000000000000000000000000000000000000000000000000000000000000000000000000000000000000000000000000000000000000000000000000000000000000000000000000000000000000000000000000000000000000000000000000000000000000000000000000000000000000000000000000000000000000000000000000000000000000000000000000000000000000000000000000000000000000000000000000000000000000000000000000000000000000000000000000000000000000000000000000000000000000000000000000000000000000000000000000000000000000000000000000000000000000000000000000000000000000000000000000000000000000000000000000000000000000000000000000000000000000000000000000000000000000000000000000000000000000000000000000000000000000000000000000000000000000000000000000000000000000000000000000000000000000000000000000000000000000000000000000000000000000000000000000000000000000000000000000000000000000000000000000000000000000000000000000000000000000000000000000000000000000000000000000000000000000000000000000000000000000000000000000000000000000000000000000000000000000000000000000000000000000000000000000000000000000000000000000000000000000000000000000000000000000052000000000000000000000000000000000000000000000000000000000000000000000000000000000000000000000000000000000000000000000000000000000000000000000000000000000000000000000000000000000000000000000000000000000000000000000000000000000000000000000000000000000000000000000000000000000000000000000000000000000000000000000000000000000000000000000000000000000000000000000000000000000000000000000000000000000000000000000000000000000000000000000000000000000000000000000000000000000000000000000000000000000000000000000000000000000000000000000000000000000000000000000000000000000000000000000000000000000000000000000000000000000000000000000000000000000000000000000000000000000000000000000000000000000000000000000000000000000000000000000000000000000000000000000000000000000000000000000000000000000000000000000000000000000000000000000000000000000000000000000000000000000000000000000000000000000000000000000000000000000000000000000000000000000000000000000000000000000000000000000000000000000000000000000000000000000000000000000000000000000000000000000000000000000000000000000000000000000000000000000000000000000000000000000000000000000000000000000000000000000000000000000000000000000000000000000000000000000000000000000000000000000000000000000000000000000000000000000000000000000000000000000000000000000000000000000000000000000000000000000000000000000000000000000000000000000000000000000000000000000000000000000000000000000000000000000000000000000000000000000000000000000000000000000000000000000000000000000000000000000000000000000000000000000000000000000000000000000000000000000000000000000000000000000000000000000000000000000000000000000000000000000000000000000000000000000000000000000000000000000000000000000000000000000000000000000000000000000000000000000000000000000000000000000000000000000000000000000000000000000000000000000000000000000000000000000000000000000000000000000000000000000000000000000000000000000000000000000000000000000000
#034331:003a
#035371:22
#0373b1:13
#037381:00260000
#0403a1:14000034240000000000000000000000
#040320:14000034240000000000000000000000
#0433a0:14545454545454545400000000000000
#043390:0054005400540054005400540054005400005500550055005500550055005500
#043380:0000000000000000000000000000000000550055005500550055005500550055
#044390:55
#044370:0056005600560056005600560000000000000000000000000000000000000000
#044380:00565656565626000000000000000000
#044350:000000000000000000000000000000000000000000000000000000000000000000000000000000000000000000000000000000000000000000000000000000000000000000000000000000000000000000000000000000000000000000000000000000000000000000000000000000000000000000000000000000000000000000000000000000000000000000000000000000000000000000000000000000000000000000000000000000000000000000000000000000000000000000000000000000000000000000000000000000000000000000000000000000000000000000000000000000000000000000000000000000000000000000000000000000000000000000000000000000000000000000000000000000000000000000000000000000000000000000000000000000000000000000000000000000000000000000000000000000000000000000000000000000000000000000000000000000000000000000000000000000000000000000000000000000000000000000000000000000000000000000000000000000000000000000000000000000000000000000000000000000000000000000000000000000000000000000000000000000000000000000000000000000000000000000000000000000000000000000000000000000000000000000000000000000000000000000000000000000000000000000000000000000000000000000000000000000000000000000000000000000000000000000000000000000000000000000000000000000000000000000000000000000000000000000000000000000000000000000000000000000000000000000000000000000000000000000000000000000000000000000000000000000000000000000000000000000000000000000000000000000000000000000000000000000000000000000000000000000000000000000000000000000000000000000000000000000000000000000000000000000000000000000000000000000000000000000000000000000000000000000000000000000000000000000000000000000000000000000000000000000000000000000000000000000000000000000000000000000000000000000000000000000000000000000000000000000000000000000000000000000000000000000000000000000000000000000000000000000000000000000000000000000000000000000000000000000000000000000000000000000000000000000000000000000000000000000000000000000000000000000000000000000000000000000000000000000000000000000000000000000000000000000000000000000000000000000000000000000000000000000000000000000000000000000000000000000000000000000000000000000000000000000000000000000000000000000000000000000000000000000000000000000000000000000000000000000000000000000000000000000000000000000000000000000000000000000000000000000000000000000000000000000000000000000000000000000000000000000000000000000000000000000000000000000000000000000000000000000000000000000000000000000000000000000000000000000000000000000000000140000000000000000000000000000000000000000000000000000000000000000000000000000000000000000000000000000000000000000000000000000000000000000000000000000000000000000000000000000000000000000000000000000000000000000000000000000000000000000000000000000000000000000000000000000000000000000000000000000000000000000000000000000000000000000000000000000000000000000000000000000000000000000000000000000000000000000000000000000000000000000000000000000000000000000000000000000000000000000000054000000000000000000000000000000000000000000000000000000000000000000000000000000000000000000000000000000000000000000000000000000000000000000000000000000000000000000000000000000000000000000000000000000000000000000000000000000000000000000000000000000000000000000000000000000000000000000000000000000000000000000000000000000000000000000000000000000000000000000000000000000000000000000000000000000000000000000000000000000000000000000000000000000000000000000000000000000000000000000000000000000000000000000000000000000000000000000000000000000000000000000000000000000000000000000000000000000000000000000000000000000000000000000000000000000000000000000000000000000000000000000000000000000000000000000000000000000000000000000000000000000000000000000000000000000000000000000000000000000000000000000000000000000000000000000000000000000000000000000000000000000000000000000000000000000000000000000000000000000000000000000000000000000000000000000000000000000000000000000000000
#044340:000000000000000000000000000000000000000000000000000000000000000000000000000000000000000000000000000000000000000000000000000000000000000000000000000000000000000000000000000000000000000000000000000000000000000000000000000000000000000000000000000000000000000000000000000000000000000000000000000000000000000000000000000000000000000000000000000000000000000000000000000000000000000000000000000000000000000000000000000000000000000000000000000000000000000000000000000000000000000000000000000000000000000000000000000000000000000000000000000000000000000000000000000000000000000000000000000000000000000000000000000000000000000000000000000000000000000000000000000000000000000000000000000000000000000000000000000000000000000000000000000000000000000000000000000000000000000000000000000000000000000000000000000000000000000000000000000000000000000000000000000000000000000000000000000000000000000000000000000000000000000000000000000000000000000000000000000000000000000000000000000000000000000000000000000000000000000000000000000000000000000000000000000000000000000000000000000000000000000000000000000000000000000000000000000000000000000000000000000000000000000000000000000000000000000000000000000000000000000000000000000000000000000000000000000000000000000000000000000000000000000000000000000000000000000000000000000000000000000000000000000000000000000000000000000000000000000000000000000000000000000000000000000000000000000000000000000000000000000000000000000000000000000000000000000000000000000000000000000000000000000000000000000000000000000000000000000000000000000000000000000000000000000000000000000000000000000000000000000000000000000000000000000000000000000000000000000000000000000000000000000000000000000000000000000000000000000000000000000000000000000000000000000000000000000000000000000000000000000000000000000000000000000000000000000000000000000000000000000000000000000000000000000000000000000000000000000000000000000000000000000000000000000000000000000000000000000000000000000000000000000000000000000000000000000000000000000000000000000000000000000000000000000000000000000000000000000000000000000000000000000000000000000000000000000000000000000000000000000000000000000000000000000000000000000000000000000000000000000000000000000000000000000000000000000000000000000000000000000000000000000000000000000000000000000000000000000000000000000000000000000000000000000000000000000000000000000000000000000000000000000000000000000000000000000000000000000000000000000000000000000000000000000000000000000000000000000000000000000000000000000000000000000000000000000000000000000000000000000000000000000000000000000000000000000000000000000000000000000000000000000000000000000000000000000000000000000000000000000000000000000000000000000000000000000000000000000000000000000000000000000000000000000000000000000000000000000000000000000000000000000000000000000000000000000000000000000000000000000000000000355400000000000000000000000000000000000000000000000000000000000000000000000000000000000000000000000000000000000000000000000000000000000000000000000000000000000000000000000000000000000000000000000000000000000000000000000000000000000000000000000000000000000000000000000000000000000000000000000000000000000000000000000000000000000000000000000000000000000000000000000000000000000000000000000000000000000000000000000000000000000000000000000000000000000000000000000000000000000000000054000000000000000000000000000000000000000000000000000000000000000000000000000000000000000000000000000000000000000000000000000000000000000000000000000000000000000000000000000000000000000000000000000000000000000000000000000000000000000000000000000000000000000000000000000000000000000000000000000000000000000000000000000000000000000000000000000000000000000000000000000000000000000000000000000000000000000000000000000000000000000000000000000000000000000000000000000000000000000000000000
#044330:000000000000000000000000000000000000000000000000000000000000000000000000000000000000000000000000000000000000000000000000000000000000000000000000000000000000000000000000000000000000000000000000000000000000000000000000000000000000000000000000000000000000000000000000000000000000000000000000000000000000000000000000000000000000000000000000000000000000000000000000000000000000000000000000000000000000000000000000000000000000000000000000000000000000000000000000000000000000000000000000000000000000000000000000000000000000000000000000000000000000000000000000000000000000000000000000000000000000000000000000000000000000000000000000000000000000000000000000000000000000000000000000000000000000000000000000000000000000000000000000000000000000000000000000000000000000000000000000000000000000000000000000000000000000000000000000000000000000000000000000000000000000000000000000000000000000000000000000000000000000000000000000000000000000000000000000000000000000000000000000000000000000000000000000000000000000000000000000000000000000000000000000000000000000000000000000000000000000000000000000000000000000000000000000000000000000000000000000000000000000000000000000000000000000000000000000000000000000000000000000000000000000000000000000000000000000000000000000000000000000000000000000000000000000000000000000000000000000000000000000000000000000000000000000000000000000000000000000000000000000000000000000000000000000000000000000000000000000000000000000000000000000000000000000000000000000000000000000000000000000000000000000000000000000000000000000000000000000000000000000000000000000000000000000000000000000000000000000000000000000000000000000000000000000000000000000000000000000000000000000000000000000000000000000000000000000000000000000000000000000000000000000000000000000000000000000000000000000000000000000000000000000000000000000000000000000000000000000000000000000000000000000000000000000000000000000000000000000000000000000000000000000000000000000000000000000000000000000000000000000000000000000000000000000000000000000000000000000000000000000000000000000000000000000000000000000000000000000000000000000000000000000000000000000000000000000000000000000000000000000000000000000000000000000000000000000000000000000000000000000000000000000000000000000000000000000000000000000000000000000000000000000000000000000000000000000000000000000000000000000000000000000000000000000000000000000000000000000000000000000000000000000000000000000000000000000000000000000000000000000000000000000000000000000000000000000000000000000000000000000000000000000000000000000000000000000000000000000000000000000000000000000000000000000000000000000000000000000000000000000000000000000000000000000000000000000000000000000000000000000000000000000000000000000000000000000000000000000000000000000000000000000000000000000000000000000000000000000000000000000000000000000000000000000000000000000000000000000000000000000000000000000000000000000000000000000000000000000000000000000000000000000000000000000000000000000000000000000000000000000000000000000000000000000000000000000000000000000000000000000000000000000000000000000000000000000000000000000000000000000000000000000000000000000000000000000000000000000000000000000000000000000000000000000000000000000000000000000000000000000000000000000000000000000000000000000000000000000000000000000000000000000000000000000000000000000000000000000000000000000355400000000000000000000000000000000000000000000000000000000000000000000000000000000000000000000000000000000000000000000000000000000000000000000000000000000000000000000000000000000000000000000000000000000000000000000000000000000000000000000000000000000000000000000000000000000000000000000000000000000000000000000000000000000000000000000000000000000000000000000000000000000000000000000000000000000000000000000000000000000000000000000000000000000000000000000000000000000000000000054
#045320:34545454545454545455555555555555
#045330:0054005400540054005400540054005400550055005500550055005500550055
#046320:25
#0443a1:000000000000000000000000000000000000000000000000000000000000000000000000000000000000000000000000000000000000000000000000000000000000000000000000000000000000000000000000000000000000000000000000000000000000000000000000000000000000000000000000000000000000000000000000000000000000000000000000000000000000000000000000000000000000000000000000000000000000000000000000000000000000000000000000000000000000000000000000000000000000000000000000000000000000000000000000000000000000000000000000000000000000000000000000000000000000000000000000000000000000000000000000000000000000000000000000000000000000000000000000000000000000000000000000000000000000000000000000000000000000000000000000000000000000000000000000000000000000000000000000000000000000000000000000000000000000000000000000000000000000000000000000000000000000000000000000000000000000000000000000000000000000000000000000000000000000000000000000000000000000000000000000000000000000000000000000000000000000000000000000000000000000000000000000000000000000000000000000000000000000000000000000000000000000000000000000000000000000000000000000000000000000000000000000000000000000000000000000000000000000000000000000000000000000000000000000000000000000000000000000000000000000000000000000000000000000000000000000000000000000000000000000000000000000000000000000000000000000000000000000000000000000000000000000000000000000000000000000000000000000000000000000000000000000000000000000000000000000000000000000000000000000000000000000000000000000000000000000000000000000000000000000000000000000000000000000000000000000000000000000000000000000000000000000000000000000000000000000000000000000000000000000000000000000000000000000000000000000000000000000000000000000000000000000000000000000000000000000000000000000000000000000000000000000000000000000000000000000000000000000000000000000000000000000000000000000000000000000000000000000000000000000000000000000000000000000000000000000000000000000000000000000000000000000000000000000000000000000000000000000000000000000000000000000000000000000000000000000000000000000000000000000000000000000000000000000000000000000000000000000000000000000000000000000000000000000000000000000000000000000000000000000000000000000000000000000000000000000000000000000000000000000000000000000000000000000000000000000000000000000000000000000000000000000000000000000000000000000000000000000000000000000000000000000000000000000000000000000000000000000140000000000000000000000000000000000000000000000000000000000000000000000000000000000000000000000000000000000000000000000000000000000000000000000000000000000000000000000000000000000000000000000000000000000000000000000000000000000000000000000000000000000000000000000000000000000000000000000000000000000000000000000000000000000000000000000000000000000000000000000000000000000000000000000000000000000000000000000000000000000000000000000000000000000000000000000000000000000000000000054000000000000000000000000000000000000000000000000000000000000000000000000000000000000000000000000000000000000000000000000000000000000000000000000000000000000000000000000000000000000000000000000000000000000000000000000000000000000000000000000000000000000000000000000000000000000000000000000000000000000000000000000000000000000000000000000000000000000000000000000000000000000000000000000000000000000000000000000000000000000000000000000000000000000000000000000000000000000000000000000000000000000000000000000000000000000000000000000000000000000000000000000000000000000000000000000000000000000000000000000000000000000000000000000000000000000000000000000000000000000000000000000000000000000000000000000000000000000000000000000000000000000000000000000000000000000000000000000000000000000000000000000000000000000000000000000000000000000000000000000000000000000000000000000000000000000000000000000000000000000000000000000000000000000000000000000000000000000000000000000
#044391:000000000000000000000000000000000000000000000000000000000000000000000000000000000000000000000000000000000000000000000000000000000000000000000000000000000000000000000000000000000000000000000000000000000000000000000000000000000000000000000000000000000000000000000000000000000000000000000000000000000000000000000000000000000000000000000000000000000000000000000000000000000000000000000000000000000000000000000000000000000000000000000000000000000000000000000000000000000000000000000000000000000000000000000000000000000000000000000000000000000000000000000000000000000000000000000000000000000000000000000000000000000000000000000000000000000000000000000000000000000000000000000000000000000000000000000000000000000000000000000000000000000000000000000000000000000000000000000000000000000000000000000000000000000000000000000000000000000000000000000000000000000000000000000000000000000000000000000000000000000000000000000000000000000000000000000000000000000000000000000000000000000000000000000000000000000000000000000000000000000000000000000000000000000000000000000000000000000000000000000000000000000000000000000000000000000000000000000000000000000000000000000000000000000000000000000000000000000000000000000000000000000000000000000000000000000000000000000000000000000000000000000000000000000000000000000000000000000000000000000000000000000000000000000000000000000000000000000000000000000000000000000000000000000000000000000000000000000000000000000000000000000000000000000000000000000000000000000000000000000000000000000000000000000000000000000000000000000000000000000000000000000000000000000000000000000000000000000000000000000000000000000000000000000000000000000000000000000000000000000000000000000000000000000000000000000000000000000000000000000000000000000000000000000000000000000000000000000000000000000000000000000000000000000000000000000000000000000000000000000000000000000000000000000000000000000000000000000000000000000000000000000000000000000000000000000000000000000000000000000000000000000000000000000000000000000000000000000000000000000000000000000000000000000000000000000000000000000000000000000000000000000000000000000000000000000000000000000000000000000000000000000000000000000000000000000000000000000000000000000000000000000000000000000000000000000000000000000000000000000000000000000000000000000000000000000000000000000000000000000000000000000000000000000000000000000000000000000000000000000000000000000000000000000000000000000000000000000000000000000000000000000000000000000000000000000000000000000000000000000000000000000000000000000000000000000000000000000000000000000000000000000000000000000000000000000000000000000000000000000000000000000000000000000000000000000000000000000000000000000000000000000000000000000000000000000000000000000000000000000000000000000000000000000000000000000000000000000000000000000000000000000000000000000000000000000000000000000000000000000000355400000000000000000000000000000000000000000000000000000000000000000000000000000000000000000000000000000000000000000000000000000000000000000000000000000000000000000000000000000000000000000000000000000000000000000000000000000000000000000000000000000000000000000000000000000000000000000000000000000000000000000000000000000000000000000000000000000000000000000000000000000000000000000000000000000000000000000000000000000000000000000000000000000000000000000000000000000000000000000054000000000000000000000000000000000000000000000000000000000000000000000000000000000000000000000000000000000000000000000000000000000000000000000000000000000000000000000000000000000000000000000000000000000000000000000000000000000000000000000000000000000000000000000000000000000000000000000000000000000000000000000000000000000000000000000000000000000000000000000000000000000000000000000000000000000000000000000000000000000000000000000000000000000000000000000000000000000000000000000000
#044381:000000000000000000000000000000000000000000000000000000000000000000000000000000000000000000000000000000000000000000000000000000000000000000000000000000000000000000000000000000000000000000000000000000000000000000000000000000000000000000000000000000000000000000000000000000000000000000000000000000000000000000000000000000000000000000000000000000000000000000000000000000000000000000000000000000000000000000000000000000000000000000000000000000000000000000000000000000000000000000000000000000000000000000000000000000000000000000000000000000000000000000000000000000000000000000000000000000000000000000000000000000000000000000000000000000000000000000000000000000000000000000000000000000000000000000000000000000000000000000000000000000000000000000000000000000000000000000000000000000000000000000000000000000000000000000000000000000000000000000000000000000000000000000000000000000000000000000000000000000000000000000000000000000000000000000000000000000000000000000000000000000000000000000000000000000000000000000000000000000000000000000000000000000000000000000000000000000000000000000000000000000000000000000000000000000000000000000000000000000000000000000000000000000000000000000000000000000000000000000000000000000000000000000000000000000000000000000000000000000000000000000000000000000000000000000000000000000000000000000000000000000000000000000000000000000000000000000000000000000000000000000000000000000000000000000000000000000000000000000000000000000000000000000000000000000000000000000000000000000000000000000000000000000000000000000000000000000000000000000000000000000000000000000000000000000000000000000000000000000000000000000000000000000000000000000000000000000000000000000000000000000000000000000000000000000000000000000000000000000000000000000000000000000000000000000000000000000000000000000000000000000000000000000000000000000000000000000000000000000000000000000000000000000000000000000000000000000000000000000000000000000000000000000000000000000000000000000000000000000000000000000000000000000000000000000000000000000000000000000000000000000000000000000000000000000000000000000000000000000000000000000000000000000000000000000000000000000000000000000000000000000000000000000000000000000000000000000000000000000000000000000000000000000000000000000000000000000000000000000000000000000000000000000000000000000000000000000000000000000000000000000000000000000000000000000000000000000000000000000000000000000000000000000000000000000000000000000000000000000000000000000000000000000000000000000000000000000000000000000000000000000000000000000000000000000000000000000000000000000000000000000000000000000000000000000000000000000000000000000000000000000000000000000000000000000000000000000000000000000000000000000000000000000000000000000000000000000000000000000000000000000000000000000000000000000000000000000000000000000000000000000000000000000000000000000000000000000000000000000000000000000000000000000000000000000000000000000000000000000000000000000000000000000000000000000000000000000000000000000000000000000000000000000000000000000000000000000000000000000000000000000000000000000000000000000000000000000000000000000000000000000000000000000000000000000000000000000000000000000000000000000000000000000000000000000000000000000000000000000000000000000000000000000000000000000000000000000000000000000000000000000000000000000000000000000000000000000000000000000000000355400000000000000000000000000000000000000000000000000000000000000000000000000000000000000000000000000000000000000000000000000000000000000000000000000000000000000000000000000000000000000000000000000000000000000000000000000000000000000000000000000000000000000000000000000000000000000000000000000000000000000000000000000000000000000000000000000000000000000000000000000000000000000000000000000000000000000000000000000000000000000000000000000000000000000000000000000000000000000000054
#045371:355400000000000000000000000000000000000000000000000000000000000000000000000000000000000000000000000000000000000000000000000000000000000000000000000000000000000000000000000000000000000000000000000000000000000000000000000000000000000000000000000000000000000000000000000000000000000000000000000000000000000000000000000000000000000000000000000000000000000000000000000000000000000000000000000000000000000000000000000000000000000000000000000000000000000000000000000000000000000000000000240000000000000000000000000000000000000000000000000000000000000000000000000000000000000000000000000000000000000000000000000000000000000000000000000000000000000000000000000000000000000000000000000000000000000000000000000000000000000000000000000000000000000000000000000000000000000000000000000000000000000000000000000000000000000000000000000000000000000000000000000000000000000000000000000000000000000000000000000000000000000000000000000000000000000000000000000000000000000000000000000000000000000000000000000000000000000000000000000000000000000000000000000000000000000000000000000000000000000000000000000000000000000000000000000000000000000000000000000000000000000000000000000000000000000000000000000000000000000000000000000000000000000000000000000000000000000000000000000000000000000000000000000000000000000000000000000000000000000000000000000000000000000000000000000000000000000000000000000000000000000000000000000000000000000000000000000000000000000000000000000000000000000000000000000000000000000000000000000000000000000000000000000000000000000000000000000000000000000000000000000000000000000000000000000000000000000000000000000000000000000000000000000000000000000000000000000000000000000000000000000000000000000000000000000000000000000000000000000000000000000000000000000000000000000000000000000000000000000000000000000000000000000000000000000000000000000000000000000000000000000000000000000000000000000000000000000000000000000000000000000000000000000000000000000000000000000000000000000000000000000000000000000000000000000000000000000000000000000000000000000000000000000000000000000000000000000000000000000000000000000000000000000000000000000000000000000000000000000000000000000000000000000000000000000000000000000000000000000000000000000000000000000000000000000000000000000000000000000000000000000000000000000000000000000000000000000000000000000000000000000000000000000000000000000000000000000000000000000000000000000000000000000000000000000000000000000000000000000000000000000000000000000000000000000000000000000000000000000000000000000000000000000000000000000000000000000000000000000000000000000000000000000000000000000000000000000000000000000000000000000000000000000000000000000000000000000000000000000000000000000000000000000000000000000000000000000000000000000000000000000000000000000000000000000000000000000000000000000000000000000000000000000000000000000000000000000000000000000000000000000000000000000000000000000000000000000000000000000000000000000000000000000000000000000000000000000000000000000000000000000000000000000000000000000000000000000000000000000000000000000000000000000000000000000000000000000000000000000000000000000000000000000000000000000000000000000000000000000000000000000000000000000000000000000000000000000000000000000000000000000000000000000000000000000000000000000000000000000000000000000000000000000000000000000000000000000000000000000000000000000000000000000000000000000000000000000000000000000000000000000000000000000000000000000000000000000000000000000000000000000000000000000000000000000000000000000000000000000000000000000000000000000000000000000000000000000000000000000000000000000000000000000000000000000000000000000000000000000000000000000000000000000000000000000000000000000000000000000000000000000000000000000000000000000000000000000000000000000000000000000000000000000000000000000000000000000000000000000000000000
#046391:15555555555555552500000000000000
#046381:0055005500550055005500550055005500000000000000000000000000000000
#046320:00000000000000001454545454545454
#046330:0000000000000000000000000000000000540054005400540054005400540054
#047320:24
#050350:00000000000000000000001600000000
#0503a0:0000000000000000000000000000000000000000000000000000005400000000
#051380:26
#055360:0000123222000000
#055350:00000000003200320000000000000000
#055381:0000000012322200
#055391:00000000000000000032003200000000
#056381:0000123222000000
#056391:00000000003200320000000000000000
#056360:0000000012322200
#056350:00000000000000000032003200000000
#057340:0000123222000000
#057330:00000000003200320000000000000000
#0573a1:0000000012322200
#0573b1:00000000000000000032003200000000
#0583a1:0000123222000000
#0583b1:00000000003200320000000000000000
#058340:0000000012322200
#058330:00000000000000000032003200000000
#0689d0:112100000000000000000000000000000000000000000000000000000000000000000000000000000000000000000000000000000000000000000000000000000000000000000000000000000000000000000000000000000000000000000000000000000000000000000000000000000000000000000000000000000000000000000000000000000000000000000000000000000000000000000000000000000000000000000000000000000000000000000000000000000000000000000000000000000000000000000000000000000000000000000000000000000000000000000000000000000000000000000000000000000000000000000000000000000000000000000000000000000000000000000000000000000000000000000000000000000000000000000000000000000000000000000000000000000000000000000000000000000000000000000000000000000000000000000000000000000000000000000000000000000000000000000000000000000000000000000000000000000000000000000000000000000000000000000000000000000000000000000000000000000000000000000000000000000000000000000000000000000000000000000000000000000000000000000000000000000000000000000000000000000000000000000000000000000000000000000000000000000000000000000000000000000000000000000000000000000000000000000000000000000000000000000000000000000000000000000000000000000000000000000000000000000000000000000000000000000000000000000000000000000000000000000000000000000000000000000000000000000000000000000000000000000000000000000000000000000000000000000000000000000000000000000000000000000000000000000000000000000000000000000000000000000000000000000000000000000000000000000000000000000000000000000000000000000000000000000000000000000000000000000000000000000000000000000000000000000000000000000000000000000000000000000000000000000000000000000000000000000000000000000000000000000000000000000000000000000000000000000000000000000000000000000000000000000000000000000000000000000000000000000000000000000000000000000000000000000000000000000000000000000000000000000000000000000000000000000000000000000000000000000000000000000000000000000000000000000000000000000000000000000000000000000000000000000000000000000000000000000000000000000000000000000000000000000000000000000000000000000000000000000000000000000000000000000000000000000000000000000000000000000000000000000000000000000000000000000000000000000000000000000000000000000000000000000000000000000000000000000000000000000000000000000000000000000000000000000000000000000000000000000000000000000000000000000000000000000000000000000000000000000000000000000000000000000000000000000000000000000000000000000000000000000000000000000000000000000000000000000000000000000000000000000000000000000000000000000000000000000000000000000000000000000000000000000000000000000000000000000000000000000000000000000000000000000000000000000000000000000000000000000000000000000000000000000000000000000000000000000000000000000000000000000000000000000000000000000000000000000000000000000000000000000000000000000000000000000000000000000000000000000000000000000000000000000000000000000000000000000000000000000000000000000000000000000000000000000000000000000000000000000000000000000000000000000000000000000000000000000000000000000000000000000000000000000000000000000000000000000000000000000000000000000000000000000000000000000000000000000000000000000000000000000000000000000000000000000000000000000000000000000000000000000000000000000000000000000000000000000000000000000000000000000000000000000000000000000000000000000000000000000000000000000000000000000000000000000000000000000000000000000000000000000000000000000000000000000000000000000000000000000000000000000000000000000000000000000000000000000000000000000000000000000000000000000000000000000000000000000000000000000000000000000000000000000000000000000000000000000000000000000000000000000000000000000000000000000000000000000000000000000000000000000000000000000000000000000000000000000000000000000000000000000000000000000000000000000000000000000000000000000000000000000000000000000000000000000000000000000000
