This file was generated by Ched 2.7.0.0.
#TITLE ""
#ARTIST ""
#DESIGNER ""
#DIFFICULTY 0
#PLAYLEVEL
#SONGID ""
#WAVE ""
#WAVEOFFSET 0
#JACKET ""
#REQUEST "ticks_per_beat 480"
#00002: 4
#BPM01: 137
#00008: 01
#TIL00: ""
#VOLUME: ""
#HISPEED 00
#MEASUREHS 00
#0011a:24141400
#00117:00000000000000000034340000000000
#00212:24141400
#00218:0000001300000000
#00215:00000000000000000000343400000000
#00315:00000000130000000000343414000000
#00318:0000001300000000
#00312:00000000000000001400000000003434
#0031a:24
#00418:0013001300001300
#00415:00131300
#00515:0000130000000013
#00518:0000001300001300
#00512:0014
#0061a:14
#00615:00130013
#00618:0000001300000013
#00612:0013
#0061b:0000000000130000
#00712:14
#00718:00130000
#00715:0000001300000000
#0071a:0000000024240000
#01215:0013
#01218:0000000000000013
#01212:24
#01216:0024000000000000
#0121a:00240000
#01315:0013
#01312:24000000000000000000001300000000
#01316:0024000000000000
#0131a:00240000
#01418:0013
#01415:0000000000000013
#0141a:24
#01416:0024000000000000
#01412:00240000
#01518:0013
#0151b:00000000000000000000001300000000
#0151a:24
#01516:0024000000000000
#01512:00240000
#01618:00000000000000001300000000000013
#01615:0000001300000013
#01612:24
#01616:0024000000000000
#0161a:00240000
#01718:0013
#01715:0000001300000013
#01712:24
#01716:0024000000000000
#0171a:00240000
#01815:00000000000000001300000000000013
#01818:0000001300000013
#0181a:24
#01816:0024000000000000
#01812:00240000
#01810:41
#01915:0013
#01918:0000001300000013
#0191a:24
#01916:0024000000000000
#01912:00240000
#02016:0024001400140014
#02012:23
#02116:0024001400140014
#0211b:23
#02218:0000001400000014
#02216:0024000000140000
#02212:23
#02314:0000001400000014
#02316:0024000000140000
#0231b:23
#02416:0024001400240014
#02412:23
#0241b:0023
#02410:41
#02516:0024001400240014
#02512:23
#0251b:0023
#02712:0014001400000000
#0271a:24140000
#02714:0000000000140014
#02718:00002414
#02812:0014
#02818:00000013
#02815:0000000000000013
#0281f:11
#0281a:24
#0291b:1300003313000000
#02918:00130000
#02917:00000013
#03012:0014
#03018:0000000000000013
#03112:1300003313000033
#03115:00130000
#03116:0000000000331300
#03218:0000001300000000
#03214:0014
#0331b:1300003300133333
#03312:0000003300133333
#03315:00130000
#03318:00130000
#03417:0012
#03612:0014
#03618:24240000
#0361f:21
#03615:00000000000000000034340000000000
#0371a:1414
#03715:0013001300000000
#03718:00130000
#03717:00000000000000000000343400000000
#03710:41
#03812:1414
#03818:0013000000130000
#03815:00130013
#0381b:0000001300000013
#03912:14000014
#0391a:00140014
#03918:0014
#03914:0014
#04015:0014
#04012:00000000240000000034340000000000
#0401a:00240000
#0411a:1400000000341400
#04115:0013000000000000
#04119:00130000
#04113:0000001300000000
#04117:00000000000000001400000000003434
#04212:0013000000130000
#0421b:00130023
#04215:0000001300000000
#04218:0013
#04217:0000000000000014
#04314:0014000000001400
#04318:0000140000140000
#04312:0000001500000000
#04319:0000000000000015
#04414:0014000000002500
#04418:00140000
#04412:0000001500000000
#04419:0000000000250000
#04417:0000000000000025
#04518:0014000000001400
#04514:0000140000140000
#04519:0000001500000000
#04512:2500000000000015
#04618:0014000000001400
#04614:0000140000140014
#04619:0000001500000000
#0471b:00130000
#04717:00000000000000001300001300000000
#0471a:0000000000000000000000000000000000000013000000000000000000000000
#04718:24
#04710:41
#04917:00130000
#0491b:00000000000000001300001300000000
#04918:0000000000000000000000000000000000000013000000000000000000000000
#0491a:24
#04812:00130000
#04816:00000000000000001300001300000000
#04813:0000000000000000000000000000000000000013000000000000000000000000
#04814:24
#05016:00130000
#05012:2413
#0501b:0013
#05112:0024001400140014
#05118:23
#0521a:0024001400140014
#05215:23
#05312:0024001400140014
#05318:23
#0541a:0024001400140014
#05415:23
#05518:23130013
#05515:0023001300000013
#05510:41
#05618:00130013
#05615:0000001300000000
#0561b:2313
#05612:0023000000130000
#05715:23130013
#05718:0023001300000013
#05815:00130013
#05818:0000001300000000
#05812:2313
#0581b:0023000000130000
#05915:00130000
#0591b:0000001300000000
#05918:2424000000001300
#05912:0000000000000013
#05914:0000000024240000
#06015:00130000
#0601b:0000001300000000
#06018:2424000000001300
#06012:0000000000000013
#06014:0000000024240000
#06218:2616000026160000
#06212:0000261600002600
#02612:24
#02614:00240000
#02616:0024
#02618:00000024
#03512:00000024
#0351a:00000024
#06118:26
#06116:00260000
#06114:0026
#06112:00000026
#06418:0000002200000000
#06416:0000002200000000
#01014:0032320000000000
#01016:00000000000000000000003200003200
#01010:41
#0111a:0032320000000000
#0681c:62
#06812:62
#00252:0064
#0015a:0064
#00352:0064
#00355:00000064
#00455:0013
#00458:00000063
#0055a:14
#00552:0014
#0065a:14
#00752:14
#0085a:14
#0115a:0012
#01252:00000000000000000000001300000000
#01255:0063
#01355:0063
#01352:00000000000000000000006300000000
#01458:0053
#0145b:00000000000000000000001300000000
#01558:0053
#0155b:00000000000000000000005300000000
#01658:0053
#0165b:00000000000000000000001300000000
#01758:0053
#0175b:00000000000000000000001300000000
#01855:0063
#01852:00000000000000000000001300000000
#01955:0063
#01952:00000000000000000000001300000000
#0285a:14
#02852:0014
#0305a:14
#03052:0014
#0295b:6363
#02958:00630000
#02957:00000063
#03152:5353
#03155:00530000
#03156:00000053
#03252:14
#03254:0014
#03458:13
#03455:13
#0335b:6300000000230000
#03352:0000000000230000
#03355:00630000
#03358:00630000
#03552:00000014
#0355a:00000014
#03655:00000014
#03652:0064
#0375a:0054
#03757:00000014
#04054:14
#04058:14
#04055:0054
#04052:00000014
#03952:64000064
#0395a:00640064
#03958:0064
#03954:0064
#04157:0064
#0415a:00000064
#04257:1400000000000024
#0425b:00000063
#04359:4500000000000045
#04352:0000003500000000
#04452:0000003500000000
#04552:3500000000000035
#04559:0000004500000000
#04659:0000004500000000
#04758:64
#0475b:00230000
#04757:00000000000000006300006300000000
#0475a:0000000000000000000000000000000000000023000000000000000000000000
#04957:00230000
#0495b:00000000000000005300005300000000
#04958:0000000000000000000000000000000000000023000000000000000000000000
#0495a:54
#04852:00230000
#04856:00000000000000005300005300000000
#04853:0000000000000000000000000000000000000023000000000000000000000000
#04854:54
#05056:00230000
#05052:6463
#05054:00000000000000000000001400000000
#05058:00000000000000000000001400000000
#0505b:0063
#05555:0000005300000000
#05658:00000063
#05758:0000006300000000
#05855:00000053
#06355:16
#06252:00000066
#06456:0000006200000000
#06458:0000006200000000
#0013a0:0014
#001370:00000000000000000034340024000000
#002320:0014
#002350:00000000000000000000343424000000
#003320:00000000000000001400000000003434
#003350:00000000000000000000343434000000
#004320:24
#004380:00000013
#0053a0:24
#0073a0:0000000000140000
#0083a0:24
#010360:12000000000000000000003200003200
#010340:0032320032000000
#011360:22
#011381:12
#0113a1:0032320022000000
#012351:0013
#012321:00000000000000000000002300000000
#013351:0000000013000023
#013321:00000000000000000000003300000000
#014381:0013
#0143b1:00000000000000000000002300000000
#015381:0000000013000023
#0153b1:00000000000000000000003300000000
#016381:0013
#0163b1:00000000000000000000002300000000
#017381:0013
#0173b1:00000000000000000000002300000000
#018351:0013
#018321:00000000000000000000002300000000
#019351:0013
#019321:00000000000000000000002300000000
#020321:13
#021321:23
#0213b0:13
#0223b0:23
#022321:13
#023321:23
#0233b0:13
#0243b0:23
#024321:1323
#0243b0:0013
#0253b0:23
#025321:1323
#0253b0:0013
#0263b0:23
#0293b0:1300003333000000
#029380:00330000
#029370:00000033
#0303a0:24
#031320:1300003333000033
#031350:00330000
#031360:0000000000333300
#032320:24
#0333b0:1300003300333333
#033380:00330000
#034380:23
#033351:00130000
#033321:0000003300333333
#034351:23
#035371:1222
#036321:0014
#036351:00000000000000000034340024000000
#0373a1:0014
#037371:00000000000000000000343424000000
#039321:14000000000000000000343434000000
#039341:00003400540000003400000000003434
#040341:24
#0393a0:00000000140000000000343434000000
#039380:00000000000034343400000000003434
#040380:24
#040350:0014
#040320:00000000000000000034340024000000
#041370:00000000000000001400000000003434
#0413a0:0000000000343400
#042370:24
#0423b0:00000013
#042370:0000000000000054
#043390:25
#047380:14
#0473b0:0000330000000023
#047370:00000000000000003300003300000000
#0473a0:0000000000000000000000000000000000000053000000000000000000000000
#048340:14
#048320:0000330000000023
#048360:00000000000000003300003300000000
#048330:0000000000000000000000000000000000000053000000000000000000000000
#0493a0:14
#049370:0000330000000023
#0493b0:00000000000000003300003300000000
#049380:0000000000000000000000000000000000000053000000000000000000000000
#050320:1433
#050360:00330000
#050340:00000000000000000000002400000000
#0503b1:0013
#050381:00000000000000000000002400000000
#051381:13
#052381:23
#052350:13
#053350:23
#053381:13
#054381:23
#054350:13
#055350:23
#055350:0000001300000000
#055320:0000000000230000
#056380:00000013
#0573b0:23
#057380:0000001300000000
#0573b0:0000000000230000
#058350:00000013
#059320:23
#062320:00000016
#063350:26
#064380:0000001200000000
#0683c0:22
#064361:0000001200000000
#068321:22
