This file was generated by Ched 2.7.0.0.
#TITLE ""
#ARTIST ""
#DESIGNER ""
#DIFFICULTY 0
#PLAYLEVEL
#SONGID ""
#WAVE ""
#WAVEOFFSET 0
#JACKET ""
#REQUEST "ticks_per_beat 480"
#00002: 4
#BPM01: 137
#00008: 01
#TIL00: ""
#VOLUME: ""
#HISPEED 00
#MEASUREHS 00
#0011a:14
#00114:0014
#0021a:14
#00312:14
#00318:0014
#00412:14
#0051a:1414
#00712:1414
#01212:1414
#01318:1414
#01414:1414
#0151a:1414
#01612:14
#01618:0014
#01714:14
#0171a:0014
#01812:14
#01818:0014
#01810:41
#01914:14
#0191a:0014
#0281a:0014
#0281f:11
#02914:1414
#02918:00140000
#0301a:14
#03012:0014
#03118:1414
#03114:00140000
#03212:14
#0321a:0014
#03314:1414
#03318:00140000
#03618:00160000
#03612:26
#0361f:21
#03718:16
#03712:00160000
#03710:41
#03812:14140000
#0381a:00001414
#03914:1414
#03918:00140014
#04012:16
#04018:00260000
#04118:16
#04112:00160000
#04212:14
#0421a:00140000
#04214:0024
#04218:0000000000240000
#04318:00140014
#04314:0014
#04312:26
#04414:1414
#04418:00140014
#04512:1414
#0451a:00140014
#04614:1414
#04618:00140014
#04712:14140000
#04710:41
#0481a:14140000
#04914:14140000
#05018:14140000
#05118:0014
#05114:00000014
#05112:24
#05214:0014
#05218:00000014
#0521a:14
#05318:0014
#05314:00000014
#05312:14
#05414:0014
#05418:00000014
#0541a:14
#05518:00140000
#05514:0014
#0551a:00000014
#05512:24
#05510:41
#05618:00140000
#05614:24
#05714:00140000
#05718:0014
#05712:00000014
#0571a:24
#05814:00140000
#05818:24
#02018:0014
#02012:24
#02214:0014
#0221a:24
#02318:2414
#02114:2414
#05918:00140000
#0591a:00000014
#05912:24
#05914:0024
#06018:00140000
#0601a:00000014
#06012:24
#06014:0024
#06412:0000001600000000
#00812:24
#0101a:24
#01010:41
#02612:24
#0261a:00240000
#02614:0024
#02618:00000024
#02412:24
#0241a:0024
#02410:41
#02514:24
#02518:0024
#06112:24240000
#06118:00002424
#06214:24240000
#0621a:00002424
#06312:26
#02712:0034000000000034
#02714:0000003400340000
#06812:63
#02852:14
#0285a:0014
#0305a:14
#03052:0014
#03252:14
#0325a:0014
#0355a:00000014
#04352:16
#05152:14
#0525a:14
#05352:14
#0545a:14
#05652:00000014
#0585a:00000014
#06452:0000006600000000
#0063a0:1424
#008320:14
#009340:3424
#0103a0:14
#011380:3424
#027320:1434000000000034
#027330:00340034
#027340:0000003434340000
#028320:24
#0343a0:14
#034380:0034
#0353a0:34343424
#036320:00001626
#037380:00001626
#040320:00001626
#041380:00001626
#047320:00001424
#0483a0:00001424
#049340:00001424
#050380:00001424
#056320:00001424
#0583a0:00001424
#063320:16
#064320:0000003600000000
#068320:23
