This file was generated by Ched 2.7.0.0.
#TITLE ""
#ARTIST ""
#DESIGNER ""
#DIFFICULTY 0
#PLAYLEVEL
#SONGID ""
#WAVE ""
#WAVEOFFSET 0
#JACKET ""
#REQUEST "ticks_per_beat 480"
#00002: 4
#BPM01: 192
#00008: 01
#TIL00: ""
#VOLUME: ""
#HISPEED 00
#MEASUREHS 00
#0681f:11
#00812:14
#00918:14
#0121a:14
#01210:41
#0131a:14
#01412:14
#01512:14
#01618:14
#01718:14
#01814:14
#01914:14
#0201a:14
#02114:14
#02218:14
#02312:14
#03612:0016
#03618:26
#03610:41
#03718:16
#03712:0016
#03818:16
#03812:0016
#03918:16
#03912:0016
#04018:16
#04012:0016
#04118:16
#04112:0016
#04418:0016
#04412:26
#04512:16
#04518:0016
#04612:16
#04618:0016
#04712:16
#04718:0016
#04812:16
#04818:0016
#04810:41
#04912:16
#04918:0016
#05012:16
#05018:0016
#0601a:14
#06010:41
#0561a:14
#06112:14
#06218:14
#06314:14
#07212:14
#07318:14
#07414:14
#0751a:14
#07612:14
#07718:14
#08012:0016
#0801f:21
#08018:26
#08118:16
#08112:0016
#08218:16
#08212:0016
#08318:16
#08312:0016
#08310:41
#08418:16
#08412:0016
#08518:16
#08512:0016
#08618:16
#08612:0016
#09212:14
#0921a:0014
#09314:14
#09318:0014
#05218:26
#05212:0026
#05318:26
#05312:0026
#05418:26
#05412:0026
#08812:26
#08818:0026
#08912:26
#08918:0026
#09012:26
#09018:0026
#0061a:34
#0051a:34
#00218:34
#00118:34
#02410:41
#0003a0:14
#001380:34
#002380:34
#003380:34
#004380:34
#0053a0:34
#0063a0:34
#0073a0:24
#010340:14
#011340:24
#024390:14
#025390:24
#026330:14
#027330:24
#0283a0:14
#029380:34
#0303a0:34
#031380:24
#032320:14
#033340:34
#034320:34
#035340:24
#042380:16
#043380:36362600
#051320:1626
#054320:0000000016000036
#055320:00362600
#064380:16
#066350:56
#068380:36
#069360:36
#070380:36
#071360:26
#078340:14
#079340:24
#087380:1626
#090380:0000000016000036
#091380:00362600
#094340:14
#095340:34
#095320:0000000000000054
#096320:00340000
#100320:00000024
