This file was generated by Ched 2.7.0.0.
#TITLE ""
#ARTIST ""
#DESIGNER ""
#DIFFICULTY 0
#PLAYLEVEL
#SONGID ""
#WAVE ""
#WAVEOFFSET 0
#JACKET ""
#REQUEST "ticks_per_beat 480"
#00002: 4
#BPM01: 192
#00008: 01
#TIL00: "64'2:1, 64'0:10000"
#VOLUME: ""
#HISPEED 00
#MEASUREHS 00
#0681f:11
#06815:13
#06812:00130013
#0681b:00130013
#06816:0000000000140000
#0001a:1212
#00014:00120000
#00016:00000012
#00018:0000000000000012
#00116:1200000000120012
#0011a:0012001200001200
#00114:00120000
#00218:0012001200001200
#00214:00120000
#00216:0000000000120012
#0031a:12
#00318:0012000000120012
#00316:00120012
#00314:0000001200000000
#00414:1212
#0041a:00120000
#00418:00000012
#00416:0000000000000012
#00518:1200000000120012
#00514:0012001200001200
#0051a:00120000
#00616:0012000000000012
#00614:0000001200120000
#0061a:00121200
#00618:00000012
#00712:2424001400000000
#00714:0000000000140000
#00716:0000002400000014
#0071a:1414000000000024
#00718:0000000000240000
#00818:0013000023000000
#0081b:00130023
#00815:2300000000130000
#00812:00230013
#0091b:13
#00912:13000025
#00919:0000000000250000
#01012:0000000000000014
#01016:0012001200120000
#01018:1200120012000022
#0121b:0013001300000000
#01214:00130000
#01215:0000000000000013
#01218:00000013
#01216:0013
#01212:23
#01210:41
#0131b:13000013
#01312:0013001300000000
#01319:00130000
#01317:0013
#01315:00000013
#01412:1313
#01417:0013131300000000
#0141b:0000000000130000
#01415:00000013
#01418:0000000000000013
#01512:1300000000000013
#01518:00130013
#01516:0013
#01515:0013000000000000
#0151b:0000001300000000
#0161b:1300000013000013
#01618:00130000
#01615:0013001300000000
#01612:00000013
#01712:1313
#01715:00130000
#01718:0013001300000000
#0171b:00000013
#01716:00000013
#01817:13
#01812:0013131300000013
#0181b:0000000013000023
#01815:0000000000130000
#01818:00000013
#01912:0023000013000000
#0191b:0013000023000000
#01915:00230000
#01918:0000002300000000
#02115:00130013
#02112:1313
#0211b:00130013
#02119:0013001300000000
#02118:0000000000130013
#02212:1313001300130013
#02214:00130013
#02218:00130013
#0221b:1313
#0201b:2313001300130013
#02019:00130013
#02015:00130013
#02012:2313
#02318:00130013
#0231b:1313
#02312:00130013
#02314:0013001300000000
#02315:0000000000130013
#02815:0000002300130000
#02812:13
#0281b:13
#02818:00230016
#02918:0000002300130000
#0291b:13
#02912:13000016
#02915:00230000
#03015:0000002300130000
#03012:13
#0301b:13
#03018:00230016
#03118:0000002300130000
#0311b:1313000000000000
#03112:1313000000001600
#03115:00230000
#03212:13000016
#0321b:13
#03218:0000160000130013
#03215:0000001300000000
#03318:0000160000130000
#03315:0013001300000000
#03312:00000016
#0361b:1300000013000013
#03618:0013001300130000
#03612:2300000013000013
#03615:00130013
#03610:41
#03712:0013000000002400
#03716:0000001300000000
#0371b:0000131300000000
#03717:0000000000000013
#0371a:0000000000240000
#03816:0000001300000000
#03812:0013000000001300
#0381b:0000130000130000
#03818:0000000000000013
#04018:0013001300001300
#04015:1300000013130000
#0401b:2300000013000013
#04012:0000130000000013
#04112:0013001300002400
#0411b:0000001300000000
#04117:00130000
#0411a:0000000000242400
#05512:0024142414000000
#0551a:0000241424000000
#05312:2424000014000000
#0531a:1400000024240000
#05317:00240000
#05315:00000024
#05217:14240000
#05215:00001424
#05212:2424000000000000
#0521a:0000000024240000
#05415:0014
#05417:14
#05416:0000000000000024
#0541a:0000240024240000
#05412:2424000000002400
#06918:13
#06915:0013000000000000
#06912:00130013
#0691b:00130013
#06916:0000001400140000
#07015:13
#0701b:00130013
#07012:00130013
#07016:0000000000140000
#07212:25130000
#07218:0013
#07219:25
#07312:0000000000130000
#07415:00000013
#0741b:0000000000130000
#07518:0013
#07515:0000001300000013
#07512:00000013
#07612:0013000013000000
#0761b:0013000013000013
#07615:0000130000130000
#07618:2300001300001300
#07718:1300001300130000
#07712:0013000000000000
#07715:23131313
#0771b:0013
#07818:0000001300000000
#06014:00140000
#06016:0014
#06018:00000014
#06012:24
#06010:41
#0611a:14
#06114:00140000
#06116:0014
#06118:00000014
#06112:24
#06214:00140000
#06216:0014
#06218:00000014
#06212:24
#06314:00001424
#06318:0000000000140000
#06312:24
#0631a:24
#05016:13240024
#0501b:13
#05017:0013
#05012:0013
#04912:0000001300242400
#0491b:0013001300000000
#04916:00130000
#0491a:00000024
#04415:0013001300130000
#04412:1300000013000013
#0441b:2300000013000013
#04418:00130013
#0841b:0013000013000013
#08412:1300000000130024
#08415:00131300
#08418:2300001300001300
#08218:0000000000000013
#0821b:0000130000130000
#08212:0013000000001300
#08216:0000001300000000
#08117:0000000000000013
#0811b:0000131300000000
#08112:0013000000002400
#0811a:0000000000240000
#08116:0000002400000000
#0801b:1313
#08018:0013000000130000
#08015:00131313
#08012:2300001300000013
#0801f:21
#0801a:0000000000000024
#08812:14240000
#0881a:00001424
#08817:2424000000000000
#08815:0000000024240000
#08912:15250000
#08919:00001525
#08918:2525000000000000
#08913:0000000025250000
#09012:1600260026260000
#09018:2626000016002600
#09016:0000000000000024
#0911a:0024142414000000
#09112:0000241424000000
#09215:0013000023000000
#09212:00130023
#09218:2300000000130000
#0921b:00230013
#09312:1300000000250000
#0931b:13
#09319:00000025
#09418:0012001200120000
#09416:1200120012000012
#0941a:0000000000000014
#09618:00160000
#09612:00160000
#02618:0000162600000026
#02612:2400002600260000
#0261a:24
#02416:0000001400001400
#0241a:2400142400000000
#02412:14
#02410:41
#02516:0000001400001400
#02512:2400142400000000
#0251a:14
#0451b:0013000000000000
#04516:0000000000000013
#04512:0000131300240000
#04517:0000001300000000
#0451a:00000024
#04617:0000001300000000
#0461b:0013000000001300
#04612:0000130000130000
#04615:0000000000000013
#04815:0013001300001300
#04818:1300000013130000
#04812:2300000013000013
#0481b:0000130000000013
#04810:41
#0511b:13
#05116:23
#0871a:14
#08716:24
#08616:14241424
#0861a:24
#08612:0024
#02712:0026002600000000
#02718:00262600
#06418:26
#04318:0000002200000000
#04316:00220000
#04319:0022000000000000
#04315:22
#07916:0000002200000000
#07918:00220000
#07915:0022000000000000
#07919:22
#05612:26
#05618:26
#08312:0000000024240000
#08317:0000000024240000
#0831a:2424000000000000
#08315:2424000000000000
#08310:41
#0851a:0024002400002400
#08512:0000002400242400
#08516:00240000
#0341c:22
#0341a:00220022
#03418:0022
#0351c:22
#0351a:00220000
#03518:0022
#03912:0000000024240000
#03918:0000000024240000
#0391a:2424000000000000
#03914:2424000000000000
#0471a:0000000024240000
#04714:0000000024240000
#04712:2424000000000000
#04718:2424000000000000
#0111c:32323200
#09512:3232323232323200
#00852:00130000
#0085b:00000013
#0095b:53
#00952:63000015
#00959:0000000000150000
#01052:0000000000000014
#01058:0000000000000052
#01256:0053
#01252:13
#01357:0063
#0135b:00000053
#01556:0053
#0165b:0053
#01752:0063
#01756:00000053
#0175b:00000013
#01952:0053
#0195b:0053
#02052:13
#02652:1400001600000016
#02658:0000000000160000
#0265a:14
#02852:13
#0285b:13
#02858:00000016
#02952:00000016
#03058:00000016
#03152:00000016
#03258:00160000
#03252:00000016
#03358:00160000
#03352:00000016
#03652:13
#0365b:0000000000000053
#03756:0000005300000000
#03757:0000000000000063
#0375b:0000001300000000
#03752:00000034
#03856:0000005300000000
#0405b:0000000000000053
#04055:13
#04152:0000006300003400
#0415b:0000001300000000
#05257:00140000
#05255:00000014
#05452:00000014
#0545a:00140000
#05456:0000000000000054
#05357:00140000
#05355:00000014
#07252:15
#07259:15
#04357:00000012
#07957:00000012
#05658:56
#0445b:13
#04452:0000000000000063
#05056:53140014
#05057:0063
#0495b:0000005300000000
#0495a:00000044
#04952:0000001300000000
#08256:0000005300000000
#08157:0000000000000063
#08156:0000005400000000
#0815b:0000001300000000
#08152:00000034
#08052:13
#0805a:0000000000000054
#08852:00140000
#0885a:00000014
#08952:00150000
#08959:00000015
#09052:00160000
#09058:00000016
#09056:0000000000000064
#09352:6300000000150000
#0935b:53
#09359:00000015
#0925b:00130000
#09252:00000013
#0945a:0000000000000014
#09456:0000000000000052
#08452:1300000000000064
#0855a:0000005400004400
#08552:0000001400000000
#09658:00560000
#09652:00660000
#0245a:1400001400000000
#02452:54
#02456:0000005400000000
#0255a:64
#02556:0000006400000000
#02552:1400001400000000
#04556:0000000000000053
#04557:0000006300000000
#04552:0000001300000000
#0455a:00000044
#04657:0000006300000000
#04852:0000000000000063
#04858:13
#08756:54
#0875a:54
#08656:64145414
#0515b:53
#05156:53
#0093b0:13
#009380:0000002300000000
#009321:13
#009351:0000002300000000
#010381:0000000000000012
#0113c1:32323232
#0123c1:22
#012361:0013
#012321:00000023
#013371:0013
#0133b1:00000033
#014371:23
#015361:0013
#015321:00000023
#0163b1:0013
#016371:00000023
#017321:0013
#017361:00000033
#018321:23
#019321:0013
#019351:00000023
#0193b0:0013
#019380:00000023
#024320:14000024
#024360:0000003400000000
#0253a0:14000024
#025360:0000003400000000
#026380:0000001600260000
#026321:0000000000160026
#026380:0000000000000016
#027380:0026000000000000
#034320:165656565656565656565656
#034330:005400540054005400540054005400540054005400540054
#035320:26
#0363b0:0000000000000013
#037370:0023000000000000
#037360:0000001300000000
#037320:0000000000230000
#037370:0000000000000013
#0383b0:0023000000000000
#038360:0000001300000000
#038320:0000000000230000
#0403b0:0000000000000013
#041370:0023000000000000
#041320:0000001300000000
#041360:0000000000230000
#042330:12322200
#042340:0032003200000000
#0423a1:00001232
#0423b1:0000000000320032
#0433a1:22
#043371:00001222
#044321:0000000000000013
#045361:0023000000000000
#045371:0000001300000000
#0453b1:0000000000230000
#045361:0000000000000013
#046321:0023000000000000
#046371:0000001300000000
#0463b1:0000000000230000
#048321:0000000000000013
#049361:0023000000000000
#0493b1:0000001300000000
#049371:0000000000230000
#050361:13
#050321:00230000
#050371:0013
#0503b1:00000023
#051361:13
#051321:00000023
#0513b0:13
#051370:00000023
#054360:0000000000000014
#0553a0:0024000000000000
#056380:16
#0603c0:22
#0623a0:1424
#064320:165600000000000000000000000000000000000000000000000000000000000000000000000000000000000000000000000000000000000000000000000000000000000000000000000000000000000000000000000000000000000000000000000000000000000000000000000000000000000000000000000000000000000000000000000000000000000000000000000000000000000000000000000000000000000000000000000000000000000000000000000000000000000000000000000000000000000000000000000000000000000000000000000000000000000000000000000000000000000000000000000000000000000000000000000000000000000000000000000000000000000000000000000000000000000000000000000000000000000000000000000000000000000000000000000000000000000000000000000000000000000000000000000000000000000000000000000000000000000000000000000000000000000000000000000000000000000000000000000000000000000000000000000000000000000000000000000000000000000000000000000000000000000000000000000000000000000000000000000000000000000000000000000000000000000000000000000000000000000000000000000000000000000000000000000000000000000000000000000000000000000000000000000000000000000000000000000000000000000000000000000000000000000000000000000000000000000000000000000000000000000000000000000000000000000000000000000000000000000000000000000000000000000000000000000000000000000000000000000000000000000000000000000000000000000000000000000000000000000000000000000000000000000000000000000000000000000000000000000000000000000000000000000000000000000000000000000000000000000000000000000000000000000000000000000000000000000000000000000000000000000000000000000000000000000000000000000000000000000000000000000000000000000000000000000000000000000000000000000000000000000000000000000000000000000000000000000000000000000000000000000000000000000000000000000000000000000000000000000000000000000000000000000000000000000000000000000000000000000000000000000000000000000000000000000000000000000000000000000000000000000000000000000000000000000000000000000000000000000000000000
#064380:005600000000000000000000000000005600000000000000000000000000000056000000000000000000000000000000560000000000000000000000000000005600000000000000000000000000000056000000000000000000000000000000560000000000000000000000000000005600000000000000000000000000000056000000000000000000000000000000560000000000000000000000000000005600000000000000000000000000000056000000000000000000000000000000560000000000000000000000000000005600000000000000000000000000000056000000000000000000000000000000560000000000000000000000000000005600000000000000000000000000000056000000000000000000000000000000560000000000000000000000000000005600000000000000000000000000000056000000000000000000000000000000560000000000000000000000000000005600000000000000000000000000000056000000000000000000000000000000
#064390:005400540054005400540054005400540054005400540054005400540054005400540054005400540054005400540054
#065380:565656565656565656565656565656565656565656565656
#065390:005400540054005400540054005400540054005400540054005400540054005400540054005400540054005400540054
#066380:565656565656565656565656565656565656565656565656
#066390:005400540054005400540054005400540054005400540054005400540054005400540054005400540054005400540054
#067380:565656565656565656565656565656565656260000000000
#067390:005400540054005400540054005400540054005400540054005400540054005400540054000000000000000000000000
#064381:165600000000000000000000000000000000000000000000000000000000000000000000000000000000000000000000000000000000000000000000000000000000000000000000000000000000000000000000000000000000000000000000000000000000000000000000000000000000000000000000000000000000000000000000000000000000000000000000000000000000000000000000000000000000000000000000000000000000000000000000000000000000000000000000000000000000000000000000000000000000000000000000000000000000000000000000000000000000000000000000000000000000000000000000000000000000000000000000000000000000000000000000000000000000000000000000000000000000000000000000000000000000000000000000000000000000000000000000000000000000000000000000000000000000000000000000000000000000000000000000000000000000000000000000000000000000000000000000000000000000000000000000000000000000000000000000000000000000000000000000000000000000000000000000000000000000000000000000000000000000000000000000000000000000000000000000000000000000000000000000000000000000000000000000000000000000000000000000000000000000000000000000000000000000000000000000000000000000000000000000000000000000000000000000000000000000000000000000000000000000000000000000000000000000000000000000000000000000000000000000000000000000000000000000000000000000000000000000000000000000000000000000000000000000000000000000000000000000000000000000000000000000000000000000000000000000000000000000000000000000000000000000000000000000000000000000000000000000000000000000000000000000000000000000000000000000000000000000000000000000000000000000000000000000000000000000000000000000000000000000000000000000000000000000000000000000000000000000000000000000000000000000000000000000000000000000000000000000000000000000000000000000000000000000000000000000000000000000000000000000000000000000000000000000000000000000000000000000000000000000000000000000000000000000000000000000000000000000000000000000000000000000000000000000000000000000000000000000000000000000
#064321:005600000000000000000000000000005600000000000000000000000000000056000000000000000000000000000000560000000000000000000000000000005600000000000000000000000000000056000000000000000000000000000000560000000000000000000000000000005600000000000000000000000000000056000000000000000000000000000000560000000000000000000000000000005600000000000000000000000000000056000000000000000000000000000000560000000000000000000000000000005600000000000000000000000000000056000000000000000000000000000000560000000000000000000000000000005600000000000000000000000000000056000000000000000000000000000000560000000000000000000000000000005600000000000000000000000000000056000000000000000000000000000000560000000000000000000000000000005600000000000000000000000000000056000000000000000000000000000000
#064331:005400540054005400540054005400540054005400540054005400540054005400540054005400540054005400540054
#065321:565656565656565656565656565656565656565656565656
#065331:005400540054005400540054005400540054005400540054005400540054005400540054005400540054005400540054
#066321:565656565656565656565656565656565656565656565656
#066331:005400540054005400540054005400540054005400540054005400540054005400540054005400540054005400540054
#067321:565656565656565656565656565656565656260000000000
#067331:005400540054005400540054005400540054005400540054005400540054005400540054000000000000000000000000
#071341:1535353535352500
#071321:00350035003500350035003500000000
#072321:00000013
#073321:00230000
#072380:0000000000000013
#073380:00230000
#0733b0:00000013
#0743b0:00230000
#073351:0000000000000013
#074351:00230000
#074381:0000000000000013
#075381:00230000
#0753b1:0000000000132300
#077321:0000000000000013
#078321:00230000
#0773b0:0000000000000013
#0783b0:00230000
#078350:00000000000000130000000023000000
#078381:00001323
#079371:00001222
#0803a1:0000000000000014
#081361:0024000000000000
#081361:0000001400000000
#081321:0000000000240000
#081371:0000000000000013
#0823b1:0023000000000000
#082361:0000001300000000
#082321:0000000000230000
#084321:0000000000000014
#085361:0024000000000000
#0853a1:0000001400000000
#085361:0000000000240000
#086361:14
#086321:00240000
#086361:0014
#0863a1:00000024
#0873a1:14
#087361:00000024
#087360:14
#087320:00000024
#090360:0000000000000014
#091320:0024000000000000
#093320:13
#093350:0000002300000000
#0933b1:13
#093381:0000002300000000
#094361:0000000000000012
#095321:3232323232323222
#096381:00160000
#1003a1:00000022
#096320:00160000
#100340:00000022
