This file was generated by Ched 2.7.0.0.
#TITLE ""
#ARTIST ""
#DESIGNER ""
#DIFFICULTY 0
#PLAYLEVEL
#SONGID ""
#WAVE ""
#WAVEOFFSET 0
#JACKET ""
#REQUEST "ticks_per_beat 480"
#00002: 4
#BPM01: 192
#00008: 01
#TIL00: ""
#VOLUME: ""
#HISPEED 00
#MEASUREHS 00
#0681f:11
#06812:13
#0681b:13
#06815:00130013
#06818:0013
#0001b:1313
#00012:00130013
#00118:1313
#00115:00130013
#0021b:13
#00212:00130013
#00218:0013
#0031b:13
#00315:00130013
#00318:0013
#0041b:1313
#00412:00130013
#00518:1313
#00515:00130013
#0061b:13
#00618:00130000
#00615:0013
#00612:00000013
#00818:1300000000130000
#00815:0013000013000000
#0081b:00230000
#00812:00000023
#0091a:14000024
#00912:0000000000240000
#0121b:00130000
#01212:23
#01210:41
#0131b:13
#01312:00130000
#01318:00000013
#01418:00130000
#01415:0013
#01412:00000013
#01518:13131300
#01515:0013001300000000
#01615:13
#01618:00130000
#01718:13
#01715:00130000
#01815:00130000
#0181b:00000013
#01818:0013
#01812:0000000000000023
#02012:00130000
#02018:0013
#02015:00000013
#0201b:23
#0211b:13
#02112:00130000
#02118:0013
#02218:0013001300000000
#02212:00131300
#0221b:00000013
#02315:13131300
#02318:0013001300000000
#02816:13
#0281b:13
#02812:0000333300000000
#02817:0000333300000000
#02917:13
#02912:13
#0291b:0000333300000000
#02916:0000333300000000
#03016:13
#0301b:13
#03012:0000333300000000
#03017:0000333300000000
#03117:13
#03112:13
#0311b:0000333300000000
#03116:0000333300000000
#0321b:13
#03212:00130000
#03215:00000013
#03218:0013
#0331b:13
#03312:00130000
#03315:00000013
#03318:0013
#03615:0013001300000013
#03618:00130013
#0361b:2313
#03612:0000000000130000
#03610:41
#03712:0013000000000000
#0371b:0000000000130013
#03715:00330013
#03812:0013001300000000
#03818:00130000
#03815:00000013
#0381b:0000000000130000
#01012:13
#01015:0033333333000000
#04418:0013001300000013
#04415:00130013
#04412:2313
#0441b:0000000000130000
#0451b:0013000000000000
#04512:0000000000130013
#04518:00330013
#0461b:0013001300000000
#04615:00130000
#04618:00000013
#04612:0000000000130000
#04012:0013001300000013
#0401b:00130000
#04018:2313
#04115:0013000000001300
#04118:0000000000130000
#04112:00330000
#0481b:0013001300000013
#04812:00130000
#04815:2313
#04810:41
#04918:0013000000001300
#04915:0000000000130000
#0491b:00330000
#05015:13
#05018:0013
#05012:00230000
#0501b:00000023
#0511b:13
#05112:23
#06016:0014
#06010:41
#06116:0014
#0611a:14
#06112:24
#06315:0013
#06318:00000013
#06312:24
#0631a:24
#0691b:13
#06918:00130013
#06915:0013
#06912:13
#07012:13
#07015:00130013
#07018:0013
#0701b:13
#0721b:00130000
#07218:0013
#07215:00000013
#07212:25
#07315:0000000000130000
#07318:00000013
#07418:0000000000130000
#07415:00000013
#07515:0000001300000000
#07518:0000000000000033
#0751b:0000000000330000
#07618:0013001300000000
#07612:13130000
#07615:00001313
#0761b:0000000000130013
#07712:1313
#07718:0013000000130000
#07715:00130013
#0771b:0000001300000013
#07818:0013
#09215:1300000000130000
#09218:0013000013000000
#09212:00230000
#0921b:00000023
#09312:14000024
#0931a:0000000000240000
#0941b:13
#09418:0033333333000000
#09515:13
#09512:0033333333333300
#08015:0013001300000013
#08018:00130013
#0801b:2313
#08012:0000000000130000
#0801f:21
#08112:0013000000000000
#08118:0000000000130000
#0811b:0000000000000013
#08115:00330013
#08215:0013000000001300
#08212:0000001300000000
#08218:0000130000130000
#08412:0013001300000023
#0841b:00130000
#08418:2313
#08515:0013000000001300
#08518:0000000000130000
#08512:00330000
#08712:13
#0871b:23
#06212:14
#0621a:24
#00718:24
#00714:0024000000000000
#0071a:0000002400000000
#00716:0000000000240000
#00712:0000000000000024
#01918:0023002300000000
#01915:00232300
#02415:23
#02412:0000002300000000
#0241b:23
#02418:0000002300000000
#02410:41
#02518:23
#0251b:0000002300000000
#02512:23
#02515:0000002300000000
#02612:23
#0261b:23
#02618:0000002300000023
#02615:0000000000230000
#02712:0023002300000000
#0271b:00232300
#0341b:23
#03415:00230000
#03418:0023
#03412:00000023
#0351a:24
#03516:00240000
#03512:0024
#03918:2424000000000000
#03914:0000000024240000
#01118:23
#0111b:00333300
#04316:24
#04714:2424000000000000
#04718:0000000024240000
#0521a:24240000
#05214:0024000000000000
#05212:00002424
#05218:0000000000240000
#05318:00240000
#05312:0024000024000000
#0531a:2400000000240000
#05314:00000024
#0541a:0000240000240000
#05412:0024000000002400
#05418:2400000000000024
#05414:0024
#05514:00242400
#05518:0000002400000000
#0561a:24
#05612:24
#0641a:24
#07916:24
#0831a:2424000000000000
#08312:0000000024240000
#08310:41
#0861b:00230000
#08612:00000023
#08618:23
#08615:0023
#08812:24240000
#08818:0024000000000000
#0881a:00002424
#08814:0000000000240000
#08914:00240000
#0891a:0024000024000000
#08912:2400000000240000
#08918:00000024
#09012:0000240000240000
#0901a:0024000000002400
#09014:2400000000000024
#09018:0024
#09118:00242400
#09114:0000002400000000
#04212:0000000000333333
#04218:0033333300000000
#0085b:00130000
#00852:00000013
#0095a:64000014
#00952:0000000000140000
#01358:00000053
#01558:0063
#02355:0053
#0205b:13
#02455:13
#02452:0000001300000000
#0245b:13
#02458:0000001300000000
#02558:13
#0255b:0000001300000000
#02552:13
#02555:0000001300000000
#02652:13
#0265b:13
#02658:0000001300000013
#02655:0000000000130000
#02852:00000013
#02856:53
#0285b:53
#02857:00000013
#02957:63
#02952:63
#0295b:00000013
#02956:00000013
#03056:53
#0305b:53
#03052:00000013
#03057:00000013
#03157:63
#03152:63
#0315b:00000013
#03156:00000013
#03252:00130000
#03255:00000013
#03352:00130000
#03355:00000013
#01252:13
#03752:0053000000000000
#03755:0000001300000000
#03655:0000000000000053
#0365b:13
#01158:53
#01055:0000000000000013
#01052:53
#0175b:00000013
#0455b:0063000000000000
#04558:0000001300000000
#04458:0000000000000063
#04452:13
#04058:0063
#04052:0000000000000063
#04155:0063000000000000
#04152:0000001300000000
#04855:0053
#0485b:0000000000000053
#04958:0053000000000000
#0495b:0000001300000000
#05055:53
#05052:00130000
#05058:0063
#0505b:00000013
#0515b:53
#05152:63
#0525a:00140000
#05252:00000014
#05358:00140000
#05354:00000014
#0545a:00140000
#0565a:54
#05652:64
#07252:15
#07858:0053
#0775b:0000000000000053
#09352:54000014
#0935a:0000000000140000
#0945b:63
#09458:0000000000000013
#09252:00130000
#0925b:00000013
#09555:63
#08152:0053000000000000
#08155:0000001300000000
#08055:0000000000000053
#0805b:13
#08458:0063
#08452:0000000000000053
#08555:0063000000000000
#08552:0000001300000000
#08752:63
#0875b:53
#0865b:00130000
#08652:00000013
#08658:53
#08655:0053
#08852:00140000
#0885a:00000014
#08954:00140000
#08958:00000014
#09052:00140000
#06252:54
#0625a:54
#0093a0:14
#009360:0000002400000000
#010320:13
#010350:0033333333330023
#011380:13
#0113b0:00333323
#012350:00001323
#013380:00001333
#0143b0:23
#015380:0013
#0153b0:00000023
#016320:00001323
#0173b0:00001323
#021350:00000013
#022350:23
#023350:0013
#023320:00000023
#028360:13
#028320:0000333300332300
#0283b1:13
#028371:0000333300332300
#029371:13
#0293b1:0000333300332300
#029320:13
#029360:0000333300332300
#030360:13
#030320:0000333300332300
#0303b1:13
#030371:0000333300332300
#031371:13
#0313b1:0000333300332300
#031320:13
#031360:0000333300332300
#036350:0000000000000013
#037320:0033000000000000
#037350:0000332300000000
#040380:0013
#0403b0:00000023
#040320:0000000000000013
#041350:0033000000000000
#041320:0000332300000000
#0423b0:13
#042380:0033333323000000
#042351:0013
#042321:0000000000333333
#043321:23
#043360:1434343434002400
#044380:0000000000000013
#0453b0:0033000000000000
#045380:0000332300000000
#048350:0013
#048320:00000023
#0483b0:0000000000000013
#049380:0033000000000000
#0493b0:0000332300000000
#050350:13
#050320:00230000
#050380:0013
#0503b0:00000023
#0513b0:13
#051380:0023
#051321:13
#051351:0023
#054381:0000000000000014
#055381:0024000000000000
#0563a1:14
#060381:22
#056320:14
#060360:22
#062320:14
#062340:0024
#0623a1:14
#062381:0024
#0643a1:1454545454545454
#064391:00540054005400540054005400540054
#0653a1:5454545454545454
#065391:00540054005400540054005400540054
#0663a1:5454545454545454
#066391:00540054005400540054005400540054
#0673a1:5454545454542400
#067391:00540054005400540054005400000000
#064320:1454545454545454
#064330:00540054005400540054005400540054
#065320:5454545454545454
#065330:00540054005400540054005400540054
#066320:5454545454545454
#066330:00540054005400540054005400540054
#067320:5454545454542400
#067330:00540054005400540054005400000000
#071390:1555555555552500
#0713a0:00530053005300530053005300000000
#0723b0:0000000000000013
#0733b0:0023
#073320:0000000000000013
#074320:0023
#074380:0000000000000013
#075380:00230000
#075380:0000000013000033
#0753b0:0000000000333300
#076380:23
#0773b0:0000000000000013
#078380:00000000000033333300000000000000
#0793b0:23
#079361:1434343434002400
#080351:0000000000000013
#081321:0033000000000000
#081351:0000332300000000
#084381:0013
#0843b1:00000023
#084321:0000000000000013
#085351:0033000000000000
#085321:0000332300000000
#086381:13
#0863b1:00230000
#086351:0013
#086321:00000023
#087321:13
#087351:0023
#0873b0:13
#087380:0023
#090340:0000000000000014
#091340:0024000000000000
#093320:14
#093360:0000002400000000
#0943b0:13
#094380:0033333333330023
#095350:13
#095320:0033333333333323
#096320:00130000
#100320:00000022
#0963b1:00130000
#1003c1:00000022
