This file was generated by Ched 2.7.0.0.
#TITLE ""
#ARTIST ""
#DESIGNER ""
#DIFFICULTY 0
#PLAYLEVEL
#SONGID ""
#WAVE ""
#WAVEOFFSET 0
#JACKET ""
#REQUEST "ticks_per_beat 480"
#00002: 4
#BPM01: 192
#00008: 01
#TIL00: ""
#VOLUME: ""
#HISPEED 00
#MEASUREHS 00
#0681f:11
#06812:14
#0681a:0014
#0081a:0014
#01214:0014
#01210:41
#0131a:14
#01314:0014
#01418:14
#01412:0014
#01518:14
#01512:0014
#0161a:14
#01614:0014
#01718:14
#01712:0014
#0181a:14
#02018:0014
#02112:14
#02118:0014
#02214:14
#0221a:0014
#02314:14
#0231a:0014
#02818:14
#02914:14
#03018:14
#03114:14
#0321a:00140000
#03212:00000014
#0331a:00140000
#03312:00000014
#03618:00140000
#03614:0014
#0361a:00000014
#03612:24
#03610:41
#03712:14
#03716:00140014
#0371a:0014
#03812:14140000
#0381a:00001414
#04414:00140000
#04418:0014
#04412:00000014
#0441a:24
#0451a:14
#04516:00140014
#04512:0014
#0461a:14140000
#04612:00001414
#0401a:00140014
#04014:0014
#04012:24
#04112:14
#04118:00140014
#04114:0014
#04812:00140014
#04818:0014
#0481a:24
#04810:41
#0491a:14
#04914:00140014
#04918:0014
#0511a:14
#06913:14
#06919:0014
#07014:14
#07018:0014
#07214:0014
#0721a:24
#0731a:14
#07314:00140000
#07319:0014
#07313:00000014
#07418:14
#07412:0014
#07518:14
#07519:0014
#07512:00140000
#07513:00000014
#0761a:14140000
#07614:00001414
#07718:14140000
#07712:00001414
#08018:00140000
#08014:0014
#0801a:00000014
#0801f:21
#08012:24
#08112:14
#08116:00140014
#0811a:0014
#08212:14140000
#0821a:00001414
#0841a:00140014
#08414:0014
#08412:24
#08512:14
#08518:00140014
#08514:0014
#08712:14
#09212:0014
#0921a:24
#00914:00000024
#00714:24
#02412:24
#02410:41
#0251a:24
#02614:24
#03418:24
#03914:24
#03918:0024
#04718:24
#04714:0024
#0501a:00240000
#05012:00000024
#05212:24
#05218:24
#05214:0024
#0521a:0024
#05312:24
#05318:24
#05314:0024
#0531a:0024
#05412:2400000000000024
#05418:24
#05414:0024
#0541a:0000000024000024
#05612:24
#0561a:24
#06012:24
#0601a:24
#06010:41
#06113:24
#06119:24
#06212:24
#0621a:24
#06316:24
#06418:26
#08314:24
#08318:0024
#08310:41
#08612:00240000
#0861a:00000024
#0881a:24
#08814:24
#08818:0024
#08812:0024
#0891a:24
#08914:24
#08918:0024
#08912:0024
#0901a:2400000000000024
#09014:24
#09018:0024
#09012:0000000024000024
#09318:00000024
#00018:00343434
#00118:34343400
#00214:00343434
#00314:34343400
#00418:00343400
#00514:00343400
#0061a:00343400
#0111a:00343400
#01912:0034343400000000
#09512:00343400
#04215:00343434
#07817:00343434
#00954:00000014
#0125a:14
#02052:14
#02452:0000001400000000
#0255a:0000001400000000
#0285a:00000014
#02858:54
#02954:64
#02952:00000014
#03058:54
#0305a:00000014
#03154:64
#03152:00000014
#03352:00000014
#0335a:00140000
#03252:00000014
#0325a:00140000
#0505a:00140000
#05052:00000014
#0515a:54
#06458:56
#0725a:14
#08752:64
#08652:00140000
#0865a:00000014
#08354:14
#08358:0014
#04758:14
#04754:0014
#03954:14
#03958:0014
#09358:00000014
#0925a:14
#0003a0:14
#000380:00343434
#001380:34343424
#002320:14
#002340:00343434
#003340:34343424
#0043a0:14
#004380:00343424
#005320:14
#005340:00343424
#006380:14
#0063a0:00343424
#007340:1434003400000000
#007330:0000000000340000
#007320:0000000000000034
#008320:24
#009340:1400000000342400
#010380:14
#011380:34
#0113a0:00343434
#0123a0:24
#018340:0000000014000034
#019320:0034343434000000
#020320:24
#024320:1400002400000000
#0253a0:1400002400000000
#026340:1400003400000000
#026330:0000000000340000
#026320:0000000000000034
#027320:0034343424000000
#028380:14
#0283a0:00000024
#029340:14
#029320:00000024
#030380:14
#0303a0:00000024
#031340:14
#031320:00000024
#034380:1434
#034390:00340034
#035380:3424
#035390:00340000
#042320:14
#042350:00343434
#043350:3434343434002400
#0503a0:14240000
#050320:00001424
#0513a0:14
#051380:0024
#054320:0000000000000014
#055320:0034343434002400
#0543a1:0000000000000014
#0553a1:0034343434002400
#062321:1424
#0623a0:1424
#064380:16
#067350:0026
#071320:14000024
#0783a0:14
#078370:00343434
#079370:3434343434002400
#086320:14240000
#0863a0:00001424
#087320:14
#087340:0024
#0903a0:0000000000000014
#0913a0:0034343434002400
#090321:0000000000000014
#091321:0034343434002400
#093381:1400000000342400
#094341:14
#095341:34
#095321:00343434
#096321:00340000
#100321:00000023
