This file was generated by Ched 2.7.0.0.
#TITLE ""
#ARTIST ""
#DESIGNER ""
#DIFFICULTY 0
#PLAYLEVEL
#SONGID ""
#WAVE ""
#WAVEOFFSET 0
#JACKET ""
#REQUEST "ticks_per_beat 480"
#00002: 4
#BPM01: 150
#00008: 01
#TIL00: ""
#VOLUME: ""
#HISPEED 00
#MEASUREHS 00
#00017:0000131313000000
#00016:1300000000000013
#00012:0013
#0001b:2300000000000013
#00112:0000000000130013
#00117:00000013
#0021b:1300000013000013
#00218:0013000000130000
#00215:13130013
#00212:0000001300000013
#00316:0013001300001300
#00312:00130000
#0031b:0013001300001300
#00317:00131300
#00412:14241424
#0041b:00130013
#00417:0013
#0051a:14241424
#00512:00130013
#00516:1313
#00616:2414241400000000
#00612:00000000000000000013001300000000
#0061b:0000000023230000
#00618:0000000000002323
#00615:00000000000000000000000000230023
#00717:0000001200001200
#00719:0012
#00718:26
#00815:12
#00912:24141414
#00917:13000013000013000000130000000000
#00918:0000000000000013
#0101a:24141414
#01016:13000013000013000000130000000000
#01014:0000000000000013
#01116:24141414
#01112:13000013000013000000130000000000
#0111b:0000000000000013
#01212:000000000000000000000000000000000000230000000000000000000000000000000000240000000000000000000014160000000000000000000000000000000000000000000000000000000000000000000000000000000000000000000000
#0121a:000000000000000000000000000000000000000000000000000000000000000000000000240000000000000000000014000000000000000000000000000000000000000000000000000000000000000000000000000000000000000000000000
#01218:0016
#01216:24000024000000000000000000000000
#0121b:23
#01418:0000640000000000000000000000000000640000000000001400000000000000
#0141a:2400000000000000000000002400000000000064000000000000000000000000
#01412:00000024000000240000000000000000
#01417:0000006400000000000000000000000024000000000000000000000000000000
#01414:00000000640000000000002400000000
#01419:0064000000000000000000000000000000006400000000000000000000000000
#01413:0000000000000064000000000000000000000000000000000000000000000000
#01415:0000000000000000006400000000000000000000000000000000000000000000
#01516:1212
#01518:00120000
#01517:00000012
#0151a:12000000005200001200000000000000
#01514:00520000120000000052000000000000
#01515:0052000000000000000000000000000000520000000000000000000000000000
#01513:0000005200000000000000000000000000000052000000000000000000000000
#01512:0052000000520000
#01519:0000000000000000005200000000000000000000000000000000000000000000
#0151b:0000000000000000000000520000000000000000000000000000000000000000
#0151c:0000005200000000
#0161b:00130013
#01617:0000001300000000
#01615:0000000013130000
#01618:00000000000000000013000000000000
#01612:24130013
#0161a:24
#0171b:1313000000001313
#01712:1300000000001313
#01715:0000131300000000
#01718:0000000013130000
#01814:0013001300000000
#01819:0013001300000000
#0181b:00131300
#01812:00131300
#01818:0000000000130000
#01815:0000000000130000
#02018:2400000013130000
#02015:00000000000014000013000000001300
#02012:00240024
#0201a:00240024
#02112:1313000000001313
#0211b:1300000000002313
#02118:0000231300000000
#02115:0000000013130000
#02217:13
#02216:0013000000000000
#02212:0000001300000000
#02214:00231313
#02219:00131323
#0221b:0000000000130000
#02312:00000013
#0231b:00000013
#02412:00140024
#02415:00000000000000001300130000000013
#02418:24000000000000000013000000001300
#0241a:00240014
#02414:24
#02410:41
#0251b:1313000000000000
#02516:00000013000000000000000000000000
#02514:00000000001300000000000000000000
#02517:0000001300140000
#02512:00000000000000130000000024000000
#02515:0000000000000013
#02518:00000000000000000000000000000013
#0251a:0014
#02519:00230000
#02612:1313000014000000
#02617:00000013000000000000000000000064
#02619:00000000001300000000000000640000
#02616:0000001300000000
#0261b:00000000000000130000000000000000
#02615:0000000000140000
#02614:00230000
#0261a:00000024
#02618:0000000000000064
#0281a:24140024
#02815:00000000000000130013000000001300
#02818:00000000000013001300130000000013
#02812:24240014
#0291b:13
#0291a:00130000
#02919:0013
#02918:00000013
#02912:14141414
#0301a:14000024
#03012:14000000000000130000000000000000
#0301b:0000001300000000
#03018:0024000013130000
#03015:00000000000000000013001300000000
#03016:0000000000000000000000000000000000000000000000000035353515353535
#03014:00240000
#03112:16
#03116:0016
#03218:16
#03214:0016
#03312:1613
#03318:16
#0331b:0013
#03418:16320000
#03412:16
#03416:00320000
#03518:0000001300000000
#03515:00000000000000130000000000000000
#03519:25000000000000002500002500002500
#03512:25000000000000002500002500002500
#03510:41
#03615:0013001300000015
#03618:00130000
#03616:0000000000150000
#03619:0025
#03612:00002525
#03816:1500000000140014
#03819:0015000025002500
#03815:0000001300000000
#03818:00130000
#03812:00002525
#0391a:0012
#03916:00000000000000000012000000002400
#03919:2500000000120000
#03915:00000000000000000000001200000000
#03918:00000012
#03914:00000000000000000000000000120000
#03912:25
#04117:0000000000120000
#04118:26
#04112:26000024000000000000000000000000
#0411a:00000024000000000000000000000000
#04113:0000002a
#04216:1400000000150000
#04215:0000000000000015
#04212:0025250000002500
#04219:0025250025000000
#04318:00001300000000130000000000000000
#04315:00000013000013000000000000000000
#0431f:11
#04312:0000000014000014
#0431a:00000000140000000000001400000000
#04319:25
#04417:0000001300001300
#04412:00000000000013000033003300000000
#04416:0013000013000000
#0441b:000000130000000000000000130000000000000033003300
#04419:00130000
#04414:00130000
#04512:0013000000000000
#0451b:0000001300001300
#04518:0000000000130013
#04515:2424
#04517:00240000
#04612:0014
#04616:0000000000140000
#0461a:00000014
#04713:00140000
#04714:0014
#04715:00000014
#0471a:24242424
#04819:00140000
#04818:0014
#04817:00000014
#0481a:14
#04812:24242424
#04912:0014001400000000
#04918:0000000024140000
#04914:0000000000002414
#0491a:24240000
#05012:0000130000001300000000000000000000000000000000000034343434343434
#0501b:2313000000000000
#05014:00000000001300130000000000000000
#05019:0000231300000000
#05016:00002424
#0501a:0000000000000000000000000000000000343434343434340000000000000000
#05116:0014000000000000
#05115:00000000000014000000002300002300
#05112:00241400
#0511a:1400000024000014
#05118:0000000000131300
#0511f:00210000
#05217:0014001400000000
#0521a:0000140000000024
#05215:0000230000131300
#05212:0023000024000014
#05218:00000000000000000000002300000000
#05210:41
#0531a:1400140024000014
#05317:0014000000000000
#05315:00000000000014000000002300000000
#05312:2400240014000024
#05318:0000000000131300
#05415:0014001400140000
#05412:00141400
#05417:0014
#0541a:0000000000240014
#0541b:0023002300000000
#05418:00230000
#05517:0000001400000000
#0551a:00241400
#05512:25000000140000002400000000341400
#0551b:00000013
#05516:00000014
#05518:00000000000000000000000000332300
#05519:25
#05615:00001400000014000000002300000000
#05612:0000140000000024
#05618:0000230000131300
#0561a:0000000024000014
#0561b:0023000000000000
#05712:1400140024000014
#05715:0014000000131300
#05717:0000001400000000
#0571a:2400240014000024
#05718:00000000000000000000002300000000
#05817:0014001400140000
#0581a:00141400
#05815:00231400
#05812:0023002300240014
#05918:0016261626001600
#05912:0026162616002600
#06012:16000013
#06016:00000000000000001300000000000013
#0601a:0014
#0601b:0000000000000013
#06018:26
#06010:41
#0611b:13000013000000000000000000000000
#06116:0013000000001400
#06112:00000000001300130000240000001300
#06117:0000001300000000
#0611a:0024
#0621b:1313000000000000
#06216:00130013000000130000000014000000
#06212:0000000000240014
#0621a:0000000024000014
#06217:00000000001300000000000000000000
#06417:00000000000000001300000000000013
#06412:2600140014000013
#0641b:00000013
#0641a:00140000
#06419:0000001300000000
#06418:26
#06512:13000013000000002400000000000000
#06517:0013000000000000
#0651b:00000000001300130000000000001300
#06516:00000000000013000000000014000013
#0651a:0000000000240000
#06616:0013000000001400
#06612:0000001324000014
#0661b:13000013000000000000000000000000
#06617:00000000000000130000000000000000
#06614:00130000
#06619:00000000001300000000000000000000
#0661a:0000000000240024
#06712:14
#06717:000000000000000000000000000000000000000000000000000000000000000000000000000000000000000000000000000000000000000000000000000000000000000000000000000000000000000000000000000000000000000000000000000000000000000000000000000000000000000000000000000000000000000000000000000000000000000000000000000000000000000000000000000000000000000000000000000000000000000000000000000000000000000000000000000000000000000000000000000000000000000000000000000000000000000000000000000000000000000000000000000000000000000000000000000000000000000000000000000000000000000000000000000000000000000000000000000000000000000000000000000000000000000000000000000000000000000000000000000000000000000000000000000000000000000000000000000000000000000000000000000000000000000000000000000000000000000000000000000000000000000000000000000000000000000000000000000000000000000000000000000000000000000000000000000000000000000000000000000000000000000000000000000000000000000000000000000000000000000000000000000000000000000000000000000000000000000000000000000000000000000000000000000000000000000000000000000000000000000000000000000000000000000000000000000000000000000000000000000000000000000000000000000000000000000000000000000000000000000000000000000000000000000000000000000000000000000000000000000000000000000000000000000000000000000000000000000000000000000000000000000000000000000000000000000000000000000000000000000000000000000000000000000000000000000000000000000000000000000000000014000000000000000000000000000000000000000000000000000000000000000000000000000000000000000000000000000000000000000000000000000000000000000000000000000000000000000000000000000000000000000000000000000000000000000000000000000000000000000000000000000000000000000000000000000000000000000000000000000000000000000000000000000000000000000000000000000000000000000000000000000000000000000000000000000000000000000000000000000000000000000000000000000000000000000000000000000000000000000000000000000000000000000000000000000000000000000000000000000000000000000000000000000000000000000000000000000000000000000000000000000000000000000000000000000000000000000000000000000000000000000000000000000000000000000000000000000000000000000000000000000000000000000000000000000000000000000000000000000000000000000000000000000000000000000000000000000000000000000000000000000000000000000000000000000000000000000000000000000000000000000000000000000000000000000000000000000000000000000000000000000000000000000000000000000000000000000000000000000000000000000000000000000000000000000000000000000000000000000000000000000000000000000000000000000000000000000000000000000000000000000000000000000000000000000000000000000000000000000000000000000000000000000000000000000000000000000000000000000000000000000000000000000000000000000000000000000000000000000000000000000000000000000000000000000000000000000000000000000000000000000000000000000000000000000000000000000000000000000000000000000000000000000000000000000000000000000000000000000000000000000000000000000000000000000000000000000000000000000000000000000000000000000000000000000000000000000000000000000000000000000000000000000000000000000000000000000000000000000000000000000000000000000000000000000000000000000000000000000000000000000000000000000000000000000000000000000000000000000000000000000000000000000000000000000000000000000000000000000000000000000000000000000000000000000000000000000000000000000000000000000000000000000000000000000000000000000000000000000000000000000000000000000000000000000000000000000000000000000000000000000000000000000000000000000000000000000000000000000000000000000000000000000000000000000000000000000000000000000000000000000000000000000000000000000000000000000000000000000000000000000000000000000000000000000000000000000000000000000000000000000000000000000000000000000000000000000000000000000000000000000000000000000000000000000000000000000000000000000000000000
#06715:0000001400000000
#0671a:24
#06816:000000001400001400000000
#06812:260000000014000014000000
#06818:26000026
#0681a:00242400
#06810:41
#0701b:0013131313000000
#07015:00000013001300130000000000000000
#07012:0000000000131313
#07018:00000000000000000000001300130013
#07019:24
#0711b:00130000001300000000000000000000
#07115:0013001300260000
#07118:00000013000000130000000026000000
#07112:23132600
#06916:000000001400001400000000
#0691a:000000000014000014000000
#06913:24
#06912:00242426
#07216:000000001400001400000000
#0721a:000000000014000014000000
#07212:26242426
#07412:0013131313000000
#07418:00000013001300130000000000000000
#0741b:0000000000131313
#07415:00000000000000000000001300130013
#07413:24
#07512:00130000001300000000000026000000
#07518:0013001326000000
#07515:00000013000000130000260000000000
#0751b:23130000
#07316:000000001400001400000000
#07312:000000000014000014000000
#07319:24
#07318:00000026
#0731a:00242400
#0131a:24
#01312:24000000000000000023002300000000
#01318:0023232300002323
#01315:00000023002300230000000000230023
#0131b:0000000023230000
#01310:41
#01918:2424242424242424
#01914:00240024002400240024002400240024
#02712:0024240000240000
#02717:00000024000000000000002400000000
#0271a:00000000000024002400000000240000
#02715:00000000000000240000000000002400
#03719:25000000000000000000002500002500
#03712:00000000000000002500002500002500
#03716:00353535000000000000000000000000
#04018:00002600002600002600000026000000
#04012:00000026000000260000002600002600
#06318:0026260000260000
#06315:00000026000000260000000000000000
#06312:00000000000026002600002600000000
#06313:0000000000000026
#06317:00000000000000000000000000260000
#07618:26
#0005b:13000000000000000000001300005300
#00056:63000000000000000000001300005300
#00052:0063
#00057:0063
#00157:00130000
#00152:00130000
#00356:0063002300000000
#00352:00633300
#00357:0063
#0035b:00000023
#00252:0000000000000063
#0025b:0000000000000013
#0045b:00130013
#00552:00130013
#00758:16
#00855:12
#01258:00006613
#01255:00000013
#01252:000000000000000000000000000000000000000000000000000000000000000000000000000000000000000000000064560000000000000000000000000000000000000000000000000000000000000000000000000000000000000000000000
#0125a:000000000000000000000000000000000000000000000000000000000000000000000000000000000000000000000024000000000000000000000000000000000000000000000000000000000000000000000000000000000000000000000000
#01557:00000012
#0165b:00630000
#01657:0000002300000000
#01652:14
#0165a:14
#01752:0000000000000013
#0175b:0000000000000013
#0185b:00006313
#01858:0000000000630000
#01852:00005313
#01855:0000000000530000
#02058:14
#02055:0000002400000000
#02052:00640000
#02152:0000000000000013
#0215b:1300000000000063
#02257:23
#02254:00000013
#02259:00130000
#0235c:0012
#02352:0012
#02458:14
#02454:14
#0255a:00006414
#02557:0000000000640000
#0285a:14
#02852:14
#02952:14141414
#03058:0014000000000000
#03054:00140000
#0305a:00000064
#03056:0000000000000025
#03158:46
#03152:66
#03156:0026
#03258:56
#03254:0026
#03352:6623
#03358:66
#0335b:0023
#03458:66000012
#03452:66
#03456:00000012
#03659:00006545
#03656:0000000000250000
#03652:00003555
#03655:0000000000000025
#03752:35000000000000000000001500006500
#03759:0000000015000015
#03552:15000000000000000000001500000000
#03559:1500000015000015
#03856:25
#03859:0015
#03852:00000015
#03953:00130000
#03952:25
#03959:25
#0395a:00130000
#03956:0000000000000014
#04058:00001616
#04158:16
#04152:16000014000000000000000000000000
#0415a:00000014000000000000000000000000
#04153:0000001a
#04157:0000000000220000
#04252:0035000035005500
#04259:00456545
#04256:0000000000250000
#04255:0000000000000025
#04352:3500000014000014
#0435a:00000000140000000000001400000000
#04456:0063
#04452:00000013
#04457:00000053
#0445b:0013
#0455b:13
#04552:00000013
#04555:0064
#04752:14
#04753:00140000
#04754:0014
#04755:00000014
#04859:00140000
#04858:0014
#04857:00000014
#0485a:14
#05156:0024000000000000
#05158:00460000
#0515a:6400000000000064
#05155:0000000000000013
#05152:0034
#05257:0064002400000000
#0525a:00644400
#0535a:0000440000000014
#05352:3400000034000064
#05056:00006454
#05455:0054006400640000
#05452:00546400
#05457:0064
#0545a:0000000000140000
#05552:1500340064000054
#05558:0000000000000013
#05559:15
#0555a:0044
#0555b:00000063
#05556:00000064
#05655:0054002400000000
#05652:00543400
#05752:0000340000000014
#0575a:4400000044000054
#05857:0064005400640000
#0585a:00645400
#05855:0054
#05852:0000000000140000
#05952:00001616
#05958:00001616
#06058:66
#06052:66130000
#0605b:00130000
#06056:0033
#0605a:0064
#0615b:13000063000000000000000000000000
#06156:00000014
#06152:0000000000000063
#06256:00000063000000000000000014000000
#06257:00000000006300000000000000000000
#06457:0043
#06452:3654
#06458:46
#06552:13000053000000000000000000000000
#06556:00000014
#06656:00000014
#0665b:13
#0675a:64000044
#06752:64000034
#06757:000000000000000000000000000000000000000000000000000000000000000000000000000000000000000000000000000000000000000000000000000000000000000000000000000000000000000000000000000000000000000000000000000000000000000000000000000000000000000000000000000000000000000000000000000000000000000000000000000000000000000000000000000000000000000000000000000000000000000000000000000000000000000000000000000000000000000000000000000000000000000000000000000000000000000000000000000000000000000000000000000000000000000000000000000000000000000000000000000000000000000000000000000000000000000000000000000000000000000000000000000000000000000000000000000000000000000000000000000000000000000000000000000000000000000000000000000000000000000000000000000000000000000000000000000000000000000000000000000000000000000000000000000000000000000000000000000000000000000000000000000000000000000000000000000000000000000000000000000000000000000000000000000000000000000000000000000000000000000000000000000000000000000000000000000000000000000000000000000000000000000000000000000000000000000000000000000000000000000000000000000000000000000000000000000000000000000000000000000000000000000000000000000000000000000000000000000000000000000000000000000000000000000000000000000000000000000000000000000000000000000000000000000000000000000000000000000000000000000000000000000000000000000000000000000000000000000000000000000000000000000000000000000000000000000000000000000000000000000000000024000000000000000000000000000000000000000000000000000000000000000000000000000000000000000000000000000000000000000000000000000000000000000000000000000000000000000000000000000000000000000000000000000000000000000000000000000000000000000000000000000000000000000000000000000000000000000000000000000000000000000000000000000000000000000000000000000000000000000000000000000000000000000000000000000000000000000000000000000000000000000000000000000000000000000000000000000000000000000000000000000000000000000000000000000000000000000000000000000000000000000000000000000000000000000000000000000000000000000000000000000000000000000000000000000000000000000000000000000000000000000000000000000000000000000000000000000000000000000000000000000000000000000000000000000000000000000000000000000000000000000000000000000000000000000000000000000000000000000000000000000000000000000000000000000000000000000000000000000000000000000000000000000000000000000000000000000000000000000000000000000000000000000000000000000000000000000000000000000000000000000000000000000000000000000000000000000000000000000000000000000000000000000000000000000000000000000000000000000000000000000000000000000000000000000000000000000000000000000000000000000000000000000000000000000000000000000000000000000000000000000000000000000000000000000000000000000000000000000000000000000000000000000000000000000000000000000000000000000000000000000000000000000000000000000000000000000000000000000000000000000000000000000000000000000000000000000000000000000000000000000000000000000000000000000000000000000000000000000000000000000000000000000000000000000000000000000000000000000000000000000000000000000000000000000000000000000000000000000000000000000000000000000000000000000000000000000000000000000000000000000000000000000000000000000000000000000000000000000000000000000000000000000000000000000000000000000000000000000000000000000000000000000000000000000000000000000000000000000000000000000000000000000000000000000000000000000000000000000000000000000000000000000000000000000000000000000000000000000000000000000000000000000000000000000000000000000000000000000000000000000000000000000000000000000000000000000000000000000000000000000000000000000000000000000000000000000000000000000000000000000000000000000000000000000000000000000000000000000000000000000000000000000000000000000000000000000000000000000000000000000000000000000000000000000000000000000000000000000000000000
#06755:0000002400000000
#06858:16
#07052:16
#0705b:0013
#07252:16
#07452:0013
#07458:16
#07652:36
#07658:46
#02652:00005414
#02655:0000000000540000
#000360:13000000000000000000002300000000
#000320:0033
#000371:0013
#0003b1:00000000000000000000002300000000
#0003b1:0000000000000013
#001371:00230000
#000360:0000000000000013
#001320:00230000
#002320:0000000000000013
#003360:0033003300000000
#003320:00332300
#003371:0013
#0033b1:00000053
#004371:23
#0123a1:000000000000000000000000000000000000000000000000000000000000000000000000140000000000000000000054000000000000000000000000000000000000000000000000000000000000000000000000000000000000000000000000
#012381:000000000000000000000000000000000000000000000000000000000000000000000000000000000000000000000000365300000000000000000000000000000000000000000000230000000000000000000000000000000000000000000000
#012320:000000000000000000000000000000000000000000000000000000000000000000000000140000000000000000000054360000000000000000000000000000000000000000000000000000000000000000000000000000000000000000000000
#012350:000000000000000000000000000000000000000000000000000000000000000000000000000000000000000000000000005300000000000000000000000000000000000000000000230000000000000000000000000000000000000000000000
#0163b0:00132300
#016370:0000005300000000
#0183b0:00001323
#018380:0000000000330000
#018321:00001323
#018351:0000000000330000
#020321:00142400
#020351:0000005400000000
#0213b1:0000000000000013
#022371:53
#0223b1:0023000000000000
#023381:16
#0233c1:0022
#023320:1622
#0253a0:00001424
#025370:0000000000340000
#026320:00001424
#026350:0000000000340000
#0303a0:00000014
#030360:0000000000000000000000000000000000000000000000000035353535353535
#031380:26
#031321:16
#031361:0056
#032321:26
#032380:16
#032340:0056
#033380:36
#0333b0:0053
#034380:36323222
#033321:1653
#034321:36
#034361:00323222
#036391:00001525
#036361:0000000000550000
#036320:00000015
#036350:0000000000000055
#037320:25
#037391:15000000000000000000000000000000000000000055005500550055005500552500000000000000000000000000000000000000000000000000000000000000
#037361:00353535350000000000000000000000
#037381:00000000000000000000000000000000005500550000550055005500550055000000000000000000000000000000000000000000000000000000000000000000
#037371:0000000000000000005555000000000000000000000000000000000000000000
#037321:0000000000000015
#038361:55
#038321:0025000000000000
#039321:15
#039331:00230000
#039390:15
#0393a0:00230000
#041370:0000000012520000
#041330:0000002a
#042320:00152500
#042391:00001525
#042361:0000000000550000
#042320:00000015
#042350:0000000000000055
#043320:25
#044360:0013
#044320:00000000000000000033003323000000
#044371:00000013
#0443b1:000000000000000000003333
#0453b1:23
#045351:0014
#045321:00000023
#046351:13330033230000000000000000000000
#046380:0000133323000000
#046320:00000000000000000000000014003434
#047320:24
#050360:0014
#0503a0:0000000000000000000000000000000000343434343434342400000000000000
#050361:00000014
#050321:0000000000000000000000000000000000000000000000000034343434343434
#051321:24
#0513a0:14
#051360:0054000000000000
#051380:00260000
#0513a0:0000000000000014
#052370:0034005400000000
#0523a0:00342400
#053320:0000000000000014
#054350:0034003400340000
#054320:0000340034000024
#054371:0014
#0543a1:0000000000240000
#055320:00000000000000001400000000343400
#055360:00000034
#056350:0034005400000000
#056320:00342400
#0553b1:00000013
#055381:00000000000000000000000000332300
#0573a0:0000000000000014
#058370:0034003400340000
#0583a0:0000340034000024
#058351:0014
#058321:0000000000240000
#060380:16
#0603b0:00230000
#060321:16230000
#0603a1:0014
#060371:00000023
#0613b1:00000013000000000000000000000000
#061371:00000000002300000000000000000000
#061321:0000000000000013
#062361:23
#062361:00000013000000000000000000000000
#062321:00000000002300000000000000000000
#062370:00000000001300000000000000000000
#0623b0:00000000000000230000000000000000
#064320:0014
#064360:00000023
#065320:00000013000000000000000000000000
#065360:00000000002300000000000000000000
#0673a0:14000024
#067370:000000000000000000000000000000000000000000000000000000000000000000000000000000000000000000000000000000000000000000000000000000000000000000000000000000000000000000000000000000000000000000000000000000000000000000000000000000000000000000000000000000000000000000000000000000000000000000000000000000000000000000000000000000000000000000000000000000000000000000000000000000000000000000000000000000000000000000000000000000000000000000000000000000000000000000000000000000000000000000000000000000000000000000000000000000000000000000000000000000000000000000000000000000000000000000000000000000000000000000000000000000000000000000000000000000000000000000000000000000000000000000000000000000000000000000000000000000000000000000000000000000000000000000000000000000000000000000000000000000000000000000000000000000000000000000000000000000000000000000000000000000000000000000000000000000000000000000000000000000000000000000000000000000000000000000000000000000000000000000000000000000000000000000000000000000000000000000000000000000000000000000000000000000000000000000000000000000000000000000000000000000000000000000000000000000000000000000000000000000000000000000000000000000000000000000000000000000000000000000000000000000000000000000000000000000000000000000000000000000000000000000000000000000000000000000000000000000000000000000000000000000000000000000000000000000000000000000000000000000000000000000000000000000000000000000000000000000000000000000000054000000000000000000000000000000000000000000000000000000000000000000000000000000000000000000000000000000000000000000000000000000000000000000000000000000000000000000000000000000000000000000000000000000000000000000000000000000000000000000000000000000000000000000000000000000000000000000000000000000000000000000000000000000000000000000000000000000000000000000000000000000000000000000000000000000000000000000000000000000000000000000000000000000000000000000000000000000000000000000000000000000000000000000000000000000000000000000000000000000000000000000000000000000000000000000000000000000000000000000000000000000000000000000000000000000000000000000000000000000000000000000000000000000000000000000000000000000000000000000000000000000000000000000000000000000000000000000000000000000000000000000000000000000000000000000000000000000000000000000000000000000000000000000000000000000000000000000000000000000000000000000000000000000000000000000000000000000000000000000000000000000000000000000000000000000000000000000000000000000000000000000000000000000000000000000000000000000000000000000000000000000000000000000000000000000000000000000000000000000000000000000000000000000000000000000000000000000000000000000000000000000000000000000000000000000000000000000000000000000000000000000000000000000000000000000000000000000000000000000000000000000000000000000000000000000000000000000000000000000000000000000000000000000000000000000000000000000000000000000000000000000000000000000000000000000000000000000000000000000000000000000000000000000000000000000000000000000000000000000000000000000000000000000000000000000000000000000000000000000000000000000000000000000000000000000000000000000000000000000000000000000000000000000000000000000000000000000000000000000000000000000000000000000000000000000000000000000000000000000000000000000000000000000000000000000000000000000000000000000000000000000000000000000000000000000000000000000000000000000000000000000000000000000000000000000000000000000000000000000000000000000000000000000000000000000000000000000000000000000000000000000000000000000000000000000000000000000000000000000000000000000000000000000000000000000000000000000000000000000000000000000000000000000000000000000000000000000000000000000000000000000000000000000000000000000000000000000000000000000000000000000000000000000000000000000000000000000000000000000000000000000000000000000000000000000000000000000000000000000000000
#067321:14000024
#067351:0000005400000000
#068321:16260000
#068381:000000000000000000163600
#069381:36260000
#069321:000000000000000000163600
#070321:26
#071381:00000000000000000000000016360000
#072381:36260000
#071320:00000000000000000000000016360000
#072320:26
#072321:000000000000000000163600
#073321:36260000
#073381:000000000000000000163600
#074381:26
#075321:0000000000001636
#076321:26
#075380:0000000000001636
#076380:26
#0149a0:14
#014970:000000000000000000000000000000000000000000000000000000000000000000000000000000000000000000000000000000000000000000000000000000000000000000000000000000000000000000000000000000000000000000000000000000000000000000000000000000000000000000000000000000000000000000000000000000000000000000000000000000000000000000000000000000000000000000000000000000000000000000000054240000000000000000000000000000000000000000000000000000000000000000000000000000000000000000000000000000000000000000000000000000000000000000000000000000000000000000000000000000000000000000000000000000000000000000000000000000000000000000000000000000000000000000000000000000000000000000000000000000000000000000000000000000000000000000000000000000000000000000000000000000000000000000000000000000000000000000000000000000000000000000000000000000000000000000000000000000000000000000000000000000000000000000000000000000000000000000000000000000000000000000000000000000000000000000000000000000000000000000000000000000000000000000000000000000000000000000000000000000000000000000000000000000000000000000000000000000000000000000000000000000000000000000000000000000000000000000000000000000000000000000000000000000000000000000000000000000000000000000000000000000000000000000000000000000000000000000000000000000000000000000000000000000000000000000000000000000000000000000000000000000000000000000000000000000000000000000000000000000000000000000000000000000000000000000000000000000000000000000000000000000000000000000000000000000000000000000000000000000000000000000000000000000000000000000000000000000000000000000000000000000000000000000000000000000000000000000000000000000000000000000000000000000000000000000000000000000000000000000000000000000000000000000000000000000000000000000000000000000000000000000000000000000000000000000000000000000000000000000000000000000000000000000000000000000000000000000000000000000000000000000000000000000000000000000000000000000000000000000000000000000000000000000000000000000000000000000000000000000000000000000000000000000000000000000000000000000000000000000000000000000000000000000000000000000000000000000000000000000000000000000000000000000000000000000000000000000000000000000000000000000000000000000000000000000000000000000000000000000000000000000000000000000000000000000000000000000000000000000000000000000000000000000000000000000000000000000000000000000000000000000000000000000000000000000000000000000000000000000000000000000000000000000000000000000000000000000000000000000000000000000000000000000000000000000000000000000000000000000000000000000000000000000000000000000000000000000000000000000000000000000000000000000000000000000000000000000000000000000000000000000000000000000000000000000000000000000000000000000000000000000000000000000000000000000000000000000000000000000000000000000000000000000000000000000000000000000000000000000000000000000000000000000000000000000000000000000000000000000000000000000000000000000000000000000000000000000000000000000000000000000000000000000000000000000000000000000000000000000000000000000000000000000000000000000000000000000000000000000000000000000000000000000000000000000000000000000000000000000000000000000000000000000000000000000000000000000000000000000000000000000000000000000000000000000000000000000000000000000000000000000000000000000000000000000000000000000000000000000000000000000000000000000000000000000000000000000000000000000000000000000000000000000000000000000000000000000000000000000000000000000000000000000000000000000000000000000000000000000000000000000000000000000000000000000000000000000000000000000000000000000000000000000000000000000000000000000000000000000000000000000000000000000000000000000000000000000000000000000000000000000000000000000000000000000000000000000000000000000000000000000000000000000000000000000000000000000000000000000000000000000000000000000000000000000000000000000000000000000000000
#014920:00000014000000000000000000000000
#014950:000000000000000000000000000000000000000000000000000000000000000000000000000000000000000000000000000000000000000000000000000000000000000000000000000000000000000000000000000000000000000000000000000000000000000000000000000000000000000000000000000000000000000000000000000000000000000000000000000000000000000000000000000000000000000000000000000000000000000000000000000000000000000000000000000000000000000000000000000000000000000000000000000000000000000000000000000000000000000000000000000000000000000000000000000000000000000000000000000000000000000000000000000000000000000000000000000000000000000000000000000000000000000000000000000000000000000000000000000000000000000000000000000000000000000000000000000000000000000000000000000000000000000000000000000000000000000000000000000000000000000000000000000000000000000000000000000000000000000000000000000000000000000000000000000000000000000000000000000000000000000000000000000000000000000000000000000000000000000000000000000000000000000000000000000000000000000000000000000000000000000000000000000000000000000000000000000000000000000000000054240000000000000000000000000000000000000000000000000000000000000000000000000000000000000000000000000000000000000000000000000000000000000000000000000000000000000000000000000000000000000000000000000000000000000000000000000000000000000000000000000000000000000000000000000000000000000000000000000000000000000000000000000000000000000000000000000000000000000000000000000000000000000000000000000000000000000000000000000000000000000000000000000000000000000000000000000000000000000000000000000000000000000000000000000000000000000000000000000000000000000000000000000000000000000000000000000000000000000000000000000000000000000000000000000000000000000000000000000000000000000000000000000000000000000000000000000000000000000000000000000000000000000000000000000000000000000000000000000000000000000000000000000000000000000000000000000000000000000000000000000000000000000000000000000000000000000000000000000000000000000000000000000000000000000000000000000000000000000000000000000000000000000000000000000000000000000000000000000000000000000000000000000000000000000000000000000000000000000000000000000000000000000000000000000000000000000000000000000000000000000000000000000000000000000000000000000000000000000000000000000000000000000000000000000000000000000000000000000000000000000000000000000000000000000000000000000000000000000000000000000000000000000000000000000000000000000000000000000000000000000000000000000000000000000000000000000000000000000000000000000000000000000000000000000000000000000000000000000000000000000000000000000000000000000000000000000000000000000000000000000000000000000000000000000000000000000000000000000000000000000000000000000000000000000000000000000000000000000000000000000000000000000000000000000000000000000000000000000000000000000000000000000000000000000000000000000000000000000000000000000000000000000000000000000000000000000000000000000000000000000000000000000000000000000000000000000000000000000000000000000000000000000000000000000000000000000000000000000000000000000000000000000000000000000000000000000000000000000000000000000000000000000000000000000000000000000000000000000000000000000000000000000000000000000000000000000000000000000000000000000000000000000000000000000000000000000000000000000000000000000000000000000000000000000000000000000000000000000000000000000000000000000000000000000000000000000000000000000000000000000000000000000000000000000000000000000000000000000000000000000000000000000000000000000000000000000000000000000000000000000000000000000000000000000000000000000000000000000000000000000000000000000000000000000000000000000000000000000000000000000000000000000000000000000000000000000000000000000000000000000000000000000000000000000000000000000000000000000000000000000000000000000000000000000000000000000000000000000000000000
#014970:0014
#0149a0:000000000000000000000000000000000000000000000000000000000000000000000000000000000000000000000000000000000000000000000000000000000000000000000000000000000000000000000000000000000000000000000000000000000000000000000000000000000000000000000000000000000000000000000000000000000000000000000000000000000000000000000000000000000000000000000000000000000000000000000000000000000000000000000000000000000000000000000000000000000000000000000000000000000000000000000000000000000000000000000000000000000000000000000000000000000000000000000000000000000000000000000000000000000000000000000000000000000000000000000000000000000000000000000000000000000000000000000000000000000000000000000000000000000000000000000000000000000000000000000000000000000000000000000000000000000000000000000000000000000000000000000000000000000000000000000000000000000000000000000000000000000000000000000000000000000000000000000000000000000000000000000000000000000000000000000000000000000000000000000000000000000000000000000000000000000000000000000000000000000000000000000000000000000000000000000000000000000000000000000000000000000000000000000000000000000000000000000000000000000000000000000000000000000000000000000000000000000000000000000000000000000000000000000000000000000000000000000000000000000000000000000000000000000000000000000000000000000000000000000000000000000000000000000000000000000000000000000000000000000000000000000000000000000000000000000000000000000000000000000000000000000000000000000000000000000000000000000000000000000000000000000000000000000000000000000000000000000000000000000000000000000000000000000000000000000000000000000000000000000000000000000000000000000000000000000000000000000000000000000000000000000000000000000000000000000000000000000000000000000000000000000000000000000000000000000000000000000000000000000000000000000000000000000000000000000000000000000000000000000000000000000000000000000000000000000000000000000000000000000000000000000000000000000000000000000000000000000000000000000000000000000000000000000000000000000000000000000000000000000000000000000000000000000000000000000000000000000000000000000000000000000000000000000000000000000000000000000000000000000000000000000000000000000000000000000000000000000000000000000000000000000000000000000000000000000000000000000000000000000054240000000000000000000000000000000000000000000000000000000000000000000000000000000000000000000000000000000000000000000000000000000000000000000000000000000000000000000000000000000000000000000000000000000000000000000000000000000000000000000000000000000000000000000000000000000000000000000000000000000000000000000000000000000000000000000000000000000000000000000000000000000000000000000000000000000000000000000000000000000000000000000000000000000000000000000000000000000000000000000000000000000000000000000000000000000000000000000000000000000000000000000000000000000000000000000000000000000000000000000000000000000000000000000000000000000000000000000000000000000000000000000000000000000000000000000000000000000000000000000000000000000000000000000000000000000000000000000000000000000000000000000000000000000000000000000000000000000000000000000000000000000000000000000000000000000000000000000000000000000000000000000000000000000000000000000000000000000000000000000000000000000000000000000000000000000000000000000000000000000000000000000000000000000000000000000000000000000000000000000000000000000000000000000000000000000000000000000000000000000000000000000000000000000000000000000000000000000000000000000000000000000000000000000000000000000000000000000000000000000000000000000000000000000000000000000000000000000000000000000000000000000000000000000000000000000000000000000000000000000000000000000000000000000000000000000000000000000000000000000000000000000000000000000000000000000000000000000000000000000000000000000000000000000000000000000000000000000000000000000000
#015960:12
#015920:0022000000000000
#015980:00120000
#0159c0:0000002200000000
#015960:0012
#015920:0000000000220000
#0269a0:00000014
#026970:000000000000000000000000000000000000000000000000000000000000000000000000000000000000000000000000000000000000000000000000000000000000000000000000000000000000000000000000000000000000000000000000000000000000000000000000000000000000000000000000000000000000000000000000000000000000000000000000000000000000000000000000000000000000000000000000000000000000000000000000000000000000000000000000000000000000000000000000000000000000000000000000000000000000000000000000000000000000000000000000000000000000000000000000000000000000000000000000000000000000000000000000000000000000000000000000000000000000000000000000000000000000000000000000000000000000000000000000000000000000000000000000000000000000000000000000000000000000000000000000000000000000000000000000000000000000000000000000000000000000000000000000000000000000000000000000000000000000000000000000000000000000000000000000000000000000000000000000000000000000000000000000000000000000000000000000000000000000000000000000000000000000000000000000000000000000000000000000000000000000000000000000000000000000000000000000000000000000000000000000000000000000000000000000000000000000000000000000000000000000000000000000000000000000000000000000000000000000000000000000000000000000000000000000000000000000000000000000000000000000000000000000000000000000000000000000000000000000000000000000000000000000000000000000000000000000000000000000000000000000000000000000000000000000000000000000000000000000000000000000000000000000000000000000000000000000000000000000000000000000000000000000000000000000000000000000000000000000000000000000000000000000000000000000000000000000000000000000000000000000000000000000000000000000000000000000000000000000000000000000000000000000000000000000000000000000000000000000000000000000000000000000000000000000000000000000000000000000000000000000000000000000000000000000000000000000000000000000000000000000000000000000000000000000000000000000000000000000000000000000000000000000000000000000000000000000000000000000000000000000000000000000000000000000000000000000000000000000000000000000000000000000000000000000000000000000000000000000000000000000000000000000000000000000000000000000000000000000000000000000000000000000000000000000000000000000000000000000000000000000000000000000000000000000000000000000000000000000000000000000000000000000000000000000000000000000000000000000000000000000000000000000000000000000000000000000000000000000000000000000000000000000000000000000000000000000000000000000000000000000000000000000000000000000000000000000000000000000000000000000000000000000000000000000000000000000000000000000000000000000000000000000000000000000000000000000000000000000000000000000000000000000000000000000000000000000000000000000000000000000000000000000000000000000000000000000000000000000000000000000000000000000000000000000000000000000000000000000000000000000000000000000000000000000000000000000000000000000000000000000000000000000000000000000000000000000000000000000000000000000000000000000000000000000000000000000000000000000000000000000000000000000000000000000000000000000000000000000000000000000000000000000000000000000000000000000000000000000000000000000000000000000000000000000000000000000000000000000000000000000000000000000000000000000000000000000000000000000000000000000000000000000000000000000000000000000000000000000000000000000000000000000000000000000000000000000000000000000000000000000000000000000000000000000000000000000000000000000000000000000000000000000000000000000000000000000000000000000000000000000000000000000000000000000000000000000000000000000000000000000000000000000000000000000000000000000000000000000000000000054240000000000000000000000000000000000000000000000000000000000000000000000000000000000000000000000000000000000000000000000000000000000000000000000000000000000000000000000000000000000000000000000000000000000000000000000000000000000000000000000
