This file was generated by Ched 2.7.0.0.
#TITLE ""
#ARTIST ""
#DESIGNER ""
#DIFFICULTY 0
#PLAYLEVEL
#SONGID ""
#WAVE ""
#WAVEOFFSET 0
#JACKET ""
#REQUEST "ticks_per_beat 480"
#00002: 4
#BPM01: 150
#00008: 01
#TIL00: ""
#VOLUME: ""
#HISPEED 00
#MEASUREHS 00
#0001a:14
#00012:14
#00018:0000130000000013
#00015:0000001300000000
#00118:00130013
#00115:0000000000130013
#0011b:0013000000000000
#0021b:1313
#00218:0013000000130000
#00215:00130013
#00212:0000001300000013
#00312:00130000
#00315:0013001300000000
#00415:0000130000000013
#00418:0000001300000000
#0041a:24
#00412:24
#00515:00130013
#00518:0000000000130013
#00512:0013000000000000
#00714:0000001200000000
#0071a:0012
#00716:00000012
#00912:00000014000000001400000000003400
#00917:0000001400000000
#00915:0000000000341400
#00918:26
#0101a:00000014000000001400000000003400
#01015:0000001400000000
#01017:0000000000341400
#01112:00000014000000001400000000003400
#01117:0000001400000000
#01115:0000000000341400
#0121a:00000014000000000000000000000000
#01212:0000001400000000
#01215:00000026
#01312:25001515151515150000000000000000
#01313:00000000000000130000001300000013000000130000001300000013000000130000000000000000000000000000000000000000000000000000000000000000
#01319:00000000000000002515151515151515
#0131a:00000000000000000000000000000000000000000000000000000000000000000000001300000013000000130000001300000013000000130000001300000013
#01310:41
#01412:2535150015001535150015001500150015351500150015000000000000000000
#01413:00000013000000130000001300000013000000130000001300000013000000130000001300000013000000130000001300000000000000000000000000000000
#01419:0000000000000000000000000000000025351500150015000000000000000000
#0141a:00000000000000000000000000000000000000000000000000000000000000000000001300000013000000130000001300000000000000000000000000000000
#0161b:00130000
#01615:0013000000130013
#01618:26000013
#0171b:13
#01718:0013000013000000
#01715:0000130000130000
#01712:0000001300001300
#0171a:0000000000000014
#01815:0013001300000000
#01818:00130000
#0181b:0013
#01812:0000000000130000
#02018:0000000000130013
#02012:00130000
#02015:00000023
#02112:1300000000000014
#02115:0013000013000000
#0211b:0000001300002300
#02118:0000230000130000
#02218:0013001300000000
#02212:0013
#0221b:0000000000130000
#02215:00230000
#02315:13
#02318:0013000013000000
#0231b:0000001300000000
#02418:00000000000013001300000000000013
#02415:0000000000000013
#02412:24
#02410:41
#02512:13
#02515:00003333133333330000000000000013
#02518:0000000000000013
#0261b:13
#02618:00003333133333330000000000000000
#0281b:0000001313000000
#02815:0000000000000013
#02818:00000000000000000000000000000013
#02812:24
#02915:13000000000000000000000000000013
#02912:00003333133333330000000000000000
#02918:0000000000000013
#03018:13
#0301b:00003333133333330000000000000000
#03214:12
#0331a:12
#03416:12
#03418:12
#0361a:0014000024000000
#03616:00140000
#03612:0000001400002400
#0381b:13
#03818:0013000013130000
#03815:0000130000001313
#03812:0000001300000000
#03912:0013
#03918:26
#03915:0000000000000024
#03916:00000000000000000033333333330000
#04118:24001424
#04119:0000000000120000
#04212:14
#0421a:0000001400000000
#04218:0024000000002400
#04214:00242400
#04718:0014
#0471a:00240000
#04712:00002424
#04814:14
#04818:0014
#0481a:24240000
#04812:00002424
#04914:0014001400000000
#04912:0000000000140014
#0491a:24240000
#04918:00002424
#05016:00343434343434341400000000000000
#0501a:14000000000000000034343434343434
#05115:0013
#05118:0000000000000013
#05112:00240000
#0511a:00240000
#0511f:00210000
#0521b:0013000000000000
#05218:00130013
#05215:0000000000130013
#05210:41
#05318:0013000000000000
#05315:00130000
#05312:0000001300002400
#0531b:13
#05316:0000000000240000
#0531a:0000000024000024
#05417:0014001400000000
#0541a:00140000
#05414:0000000000140000
#05418:00000014
#05412:0000000000000014
#05512:00130000
#05515:0000001300000013
#05518:0013
#0551a:14
#05612:0013000000000000
#05615:00130013
#05618:0000000000130013
#05715:0013000000000000
#05718:00130000
#0571b:0000001300000000
#05712:1300000024000024
#0571a:00000024
#05716:0000000000240000
#05815:0014001400000000
#05812:00140000
#05818:0000000000140000
#05814:00000014
#0581a:0000000000000014
#06018:00000000000014001400000000000013
#06015:0000000000000013
#0601a:0000000000140000
#06010:41
#06112:14
#06115:00003434143434340000000000000013
#06118:0000000000000013
#0621a:14
#06217:00343434143400340000000000000000
#0641a:00140000
#06412:2414
#06417:0000000000000014
#06414:0000000000140000
#06512:0000000000000014
#0651a:00003434143434340000000000000014
#06517:14
#06615:14
#06612:00003434143434340000000000000000
#0431f:11
#04312:24
#04318:24
#04314:0024
#0431a:0024
#04313:00240000
#04319:00240000
#00612:2424
#0061a:0024000000000000
#00614:00240000
#00618:0000002400000000
#00616:00000000000000000034343434343434
#0151b:23
#01518:00230000
#01515:0023
#01512:00000023
#01918:26
#02712:0023000000000000
#0271b:0000002300000000
#02715:00000000000000000000230000230000
#02718:00000000000000000000002300002300
#02713:00000063000000000000000000000000
#02714:00630000
#0271a:00000000000000630000000000000000
#02719:0063
#03118:23
#03512:24
#0351a:24
#03514:0000000024000024
#03518:00000000000000000000002400000000
#03510:41
#03718:24
#03714:00000024
#0401a:0024000000000000
#04012:00000024
#04514:00242400
#0451a:00242400
#04518:00000000000000000000003400000000
#04512:00000000000000000000003400000000
#04618:00002400240000002400003400003400
#04612:00002400240000002400003400003400
#05919:0025252525002500
#05912:0025252525002500
#06315:00002300230000000000230000230000
#06318:00000023000000000000002300002300
#0631b:0000002323000000
#06312:00000000000000230000000000000000
#0671a:24
#0681a:24240000
#06812:24
#06810:41
#07212:24240064
#0721a:24
#07213:006464
#07214:000000000064006400000000
#07215:0064
#0761a:24
#07612:24
#04412:0024240024000000
#04418:0024240024000000
#06912:00240000
#0701b:23
#07012:0023
#0711b:23
#07115:0000000000230000
#07118:00000023
#0731a:00240064
#07319:006464
#07318:000000000064006400000000
#07317:0064
#07412:23
#0741b:0023
#07413:00630000000000000000000000000000
#07414:0063000000000000
#07415:00000063000000000000000000000000
#07416:00630000
#0741a:00000000000000000063000000000000
#07419:0000000000630000
#07418:00000000000000000000006300000000
#07417:00000063
#07512:2363
#07518:0000000000230000
#07515:00000063006300000000000023000000
#07513:00630000000000630000000000000000
#07514:0063006300000000
#07516:00630000
#00052:00000000000000000000001300000000
#00058:0000000000000063
#00158:00630000
#0015b:0063000000000000
#00352:00631300
#00355:0063006300000000
#00252:0000000000000063
#0045b:00000000000000000000001300000000
#00455:0000000000000053
#00555:00530000
#00552:0053000000000000
#00756:14
#00652:0064
#00958:16
#00955:00000064
#00952:0064
#01052:14
#01057:00000054
#0105a:0054
#0115a:14
#01155:00000064
#01152:0064
#01252:1400001400000000
#0125a:00000014000000000000000000000000
#01255:00000016
#01352:65006565656565650000000000000000
#01353:00000000000000230000002300000023000000230000002300000023000000230000000000000000000000000000000000000000000000000000000000000000
#01359:00000000000000006555555555555555
#0135a:00000000000000000000000000000000000000000000000000000000000000000000002300000023000000230000002300000023000000230000002300000023
#01452:55656565656565656555555515000000
#01453:00000023000000230000002300000023000000230000002300000023000000230000002300000023000000230000002300000000000000000000000000000000
#01459:00000000000000006555555515000000
#0145a:00000000000000000000000000000000000000000000000000000000000000000000002300000023000000230000002300000000000000000000000000000000
#01658:16
#0165b:00530000
#0175a:0000000000000014
#01852:0000000000130000
#0185b:0013
#02058:16
#02052:00630000
#02152:0000000000000014
#02252:0013
#0225b:0000000000130000
#02358:0063000063000000
#0235b:0000006300000000
#0235a:00000014
#02452:14
#02458:0063
#02555:00230000
#02552:6300000000130000
#0265b:5300000000130000
#02658:00230000
#02852:14
#0285b:0053
#02955:5300000000130000
#02952:00230000
#03058:63
#0305b:00230000
#03158:13
#03254:62
#0335a:52
#03456:52
#03458:62
#03552:14
#0355a:14
#03554:0000000014000014
#03558:00000000000000000000001400000000
#0365a:0014
#03652:00000014
#03758:0014
#03754:00000014
#0395a:00120000
#03958:66
#03955:0000000000000014
#03952:0063
#0405a:0014
#04052:00000014
#04158:00006414
#04159:0000000000220000
#04254:0014
#04258:00000014
#04354:0000000000000014
#0435a:0000000000000014
#04558:1400000000000014
#04552:1400000000000014
#0455a:0064
#04554:0064
#04754:14
#0475a:14
#04652:0064
#04658:0064
#05056:0064
#0505a:64
#05152:00000000140000000000001300000000
#0515a:00140000
#05155:0063
#05158:0000000000000063
#0525b:0063000000000000
#05258:00630000
#05457:0064006400000000
#0545a:00640000
#0535a:0000000000000064
#05558:0053
#05555:0000000000000053
#0555b:00000013
#0555a:14
#05652:0053000000000000
#05655:00530000
#05855:0054005400000000
#05852:00540000
#05752:0000000000000054
#06059:15
#06052:15
#06058:0064
#0605a:0000000000240000
#06152:6400000000140000
#06155:00240000
#0625a:5400000000140000
#06257:00240000
#06452:1454
#06454:0000000000240000
#06557:6400000000140000
#0655a:00240000
#06655:54
#06652:00240000
#0685a:14000014
#06852:14
#06952:00000014
#07252:14000014
#0725a:14
#0765a:14
#07652:14
#0735a:00000014
#000320:00000000000000001300002300000000
#000380:0000000000000013
#0013b0:0033000023000000
#001380:00330000
#002320:0000000000000013
#003350:0033003300000000
#003320:00332300
#0043b0:00000000000000001300002300000000
#004350:0000000000000013
#005320:0033000023000000
#005350:00330000
#006320:0014
#006360:00000000000000000034343434343434
#007360:24
#008380:12
#009380:26
#009320:0000000014000034
#009350:0000000000343400
#010320:24
#0103a0:0000000014000034
#010370:0000000000343400
#0113a0:24
#011320:0000000014000034
#011350:0000000000343400
#012320:24
#013320:15003535353535352500000000000000
#013330:00000000000000530000005300000053000000530000005300000053000000530000000000000000000000000000000000000000000000000000000000000000
#013391:00000000000000001535353535353535
#0133a1:00000000000000000000000000000000000000000000000000000000000000000000005300000053000000530000005300000053000000530000005300000053
#014391:25
#014320:1535350035003535350035003500350035353500350035002500000000000000
#014330:00000053000000530000005300000053000000530000005300000053000000530000005300000053000000530000005300000000000000000000000000000000
#014391:0000000000000000000000000000000015353500350035002500000000000000
#0143a1:00000000000000000000000000000000000000000000000000000000000000000000005300000053000000530000005300000000000000000000000000000000
#0163b1:00130000
#016381:0023
#019381:1636363636363636
#019361:00360036003600360036003600360036
#020381:26
#020321:00130000
#020351:0023
#023381:0013000033000000
#0233b1:0000003300000000
#0233a1:00000024
#024381:0013
#0243b1:00000023
#025321:1300000033230000
#025351:00003333533333330000000000000000
#0263b1:1300000033230000
#026381:00003333533333330000000000000000
#0283b1:0013
#028381:00000023
#029351:1300000033230000
#029321:00003333533333330000000000000000
#030381:13003333
#0303b1:00003333533333330000330000003300
#031381:23
#032341:12
#033361:32
#034361:32
#034341:00000022
#0333a0:12
#034380:32
#0343a0:00000022
#037380:1400000000000000345454545454545424000000000000000000000000000000
#037390:00000000000000000000000000000000005400540054005400540054005400540000000000000000000000000000000000000000000000000000000000000000
#039380:16
#0393a0:00220000
#039320:0013
#039360:00000000000000000033333333330000
#039350:0000000000000024
#0403a0:00001434003400342400000000000000
#041380:14000034000034003400000024000000
#041390:0000000000520000
#043340:00000000000000001400003400002400
#0433a1:00000000000000001400003400002400
#044381:00000000000000001400003400003400
#045381:24
#044320:00000000000000001400003400003400
#045320:24
#045340:0014
#045320:00000000000000000000003400002400
#0453a1:0014
#045381:00000000000000000000003400002400
#046321:00000000000000001400003400003400
#047341:24
#046380:00000000000000001400003400003400
#0473a0:24
#0503a0:14000000000000000034343434343434
#050360:00343434343434343400000000000000
#0513a0:34240000
#051321:14240000
#051351:0013
#051321:00000000000000000000002300000000
#051381:0000000000000013
#0523b1:0033000023000000
#052381:00330000
#0533a1:0000000000000014
#054371:0034003400000000
#0543a1:00342400
#055381:0013
#0553b1:00000023
#055351:0000000000000013
#056321:0033000023000000
#056351:00330000
#057321:0000000000000014
#058351:0034003400000000
#058321:00342400
#059321:00000015
#060321:25
#059390:00000015
#060390:25
#060380:00001424
#0603a0:0000000000540000
#061320:1400000034240000
#061350:00003434543434340000000000000000
#0623a0:1400000034240000
#062370:00343434543400340000000000000000
#064320:00001424
#064340:0000000000540000
#065370:1400000034240000
#0653a0:00003434543434340000000000000000
#066350:14003434
#066320:00003434543434340000340000003400
#067320:34000024
#0673a1:14000024
#0683a1:00140024
#068391:003434
#068381:000000000034003400000000
#068371:0034
#069321:00140024
#069331:003434
#069341:000000000034003400000000
#069351:0034
#0703b1:13
#070391:0033000000000000
#070381:00000033000000000000000000000000
#070371:00230000
#070321:0013
#070331:00000000000000000033000000000000
#070341:0000000000330000
#070351:00000000000000000000003300000000
#070361:00000023
#0713b1:1323
#0713a1:00330000000000330000000000000000
#071391:0033003300000000
#071381:00000033003300000000000000000000
#071371:00330000
#027920:0013000000000000
#027940:000000000000000000000000000000000000000000000000000000000000000000000000000000000000000000000000000000000000000000000000000000000000000000000000000000000000000000000000000000000000000000000000000000000000000000000000000000000000000000000000000000000000000000000000000000000000000000000000000000000000000000000000000000000000000000000000000000000000000000000000000000000000000000000000000000000000000000000000000000000000000000000000000000000000000000000000000000000000000000000000000000000000000000000000000000000000000000000000000000000000000000000000000000000000000000000000000000000000000000000000000000000000000000000000000000000000000000000000000000000000000000000000000000000000000000000000000000000000000000000000000000000000000000000000000000000000000000000000000000000000000000000000000000000000000000000000000000000000000000000000000000000000000000000000000000000000000000000000000000000000000000000000000000000000000000000000000000000000000000005353230000000000000000000000000000000000000000000000000000000000000000000000000000000000000000000000000000000000000000000000000000000000000000000000000000000000000000000000000000000000000000000000000000000000000000000000000000000000000000000000000000000000000000000000000000000000000000000000000000000000000000000000000000000000000000000000000000000000000000000000000000000000000000000000000000000000000000000000000000000000000000000000000000000000000000000000000000000000000000000000000000000000000000000000000000000000000000000000000000000000000000000000000000000000000000000000000000000000000000000000000000000000000000000000000000000000000000000000000000000000000000000000000000000000000000000000000000000000000000000000000000000000000000000000000000000000000000000000000000000000000000000000000000000000000000000000000000000000000000000000000000000000000000000000000000000000000000000000000000000000000000000000000000000000000000000000000000000000000000000000000000000000000000000000000000000000000000000000000000000000000000000000000000000000000000000000000000000000000000000000000000000000000000000000000000000000000000000000000000000000000000000000000000000000000000000000000000000000000000000000000000000000000000000000000000000000000000000000000000000000000000000000000000000000000000000000000000000000000000000000000000000000000000000000000000000000000000000000000000000000000000000000000000000000000000000000000000000000000000000000000000000000000000000000000000000000000000000000000000000000000000000000000000000000000000000000000000000000000000000000000000000000000000000000000000000000000000000000000000000000000000000000000000000000000000000000000000000000000000000000000000000000000000000000000000000000000000000000000000000000000000000000000000000000000000000000000000000000000000000000000000000000000000000000000000000000000000000000000000000000000000000000000000000000000000000000000000000000000000000000000000000000000000000000000000000000000000000000000000000000000000000000000000000000000000000000000000000000000000000000000000000000000000000000000000000000000000000000000000000000000000000000000000000000000000000000000000000000000000000000000000000000000000000000000000000000000000000000000000000000000000000000000000000000000000000000000000000000000000000000000000000000000000000000000000000000000000000000000000000000000000000000000000000000000000000000000000000000000000000000000000000000000000000000000000000000000000000000000000000000000000000000000000000000000000000000000000000000000000000000000000000000000000000000000000000000000000000000000000000000000000000000000000000000000000000000000000000000000000000000000000000000000000000000000000000000000000000000000000000000000000000000000000000000000000000000000000000000000000000000000000000000000000000000000000000000000000000000000000000000000000000000000000000000000000000000000000000000000000000000
#0279b0:0000001300000000
#027990:000000000000000000000000000000000000000000000000000000000000000000000000000000000000000000000000000000000000000000000000000000000000000000000000000000000000000000000000000000000000000000000000000000000000000000000000000000000000000000000000000000000000000000000000000000000000000000000000000000000000000000000000000000000000000000000000000000000000000000000000000000000000000000000000000000000000000000000000000000000000000000000000000000000000000000000000000000000000000000000000000000000000000000000000000000000000000000000000000000000000000000000000000000000000000000000000000000000000000000000000000000000000000000000000000000000000000000000000000000000000000000000000000000000000000000000000000000000000000000000000000000000000000000000000000000000000000000000000000000000000000000000000000000000000000000000000000000000000000000000000000000000000000000000000000000000000000000000000000000000000000000000000000000000000000000000000000000000000000000000000000000000000000000000000000000000000000000000000000000000000000000000000000000000000000000000000000000000000000000000000000000000000000000000000000000000000000000000000000000000000000000000000000000000000000000000000000000000000000000000000000000000000000000000000000000000000000000000000000000000000000000000000000000000000000000000000000000000000000000000000000000000000000000000000000000000000000000000000000000000000000000000000000000000000000000000000000000000000000000000000000000000000000000000000000000000000000000000000000000000000000000000000000000000000000000000000000000000000000000000000000000000000000000000000000000000000000000000000000000000000000000000000000000000000000000000000000000000000000000000000000000000000000000000000000000000000000000000000000000000000000000000000000000000000000000000000000000000000000000000000000000000000000000000000000000000000000000000000000000000000000000000000000000000000000000000000000000000000000000005353230000000000000000000000000000000000000000000000000000000000000000000000000000000000000000000000000000000000000000000000000000000000000000000000000000000000000000000000000000000000000000000000000000000000000000000000000000000000000000000000000000000000000000000000000000000000000000000000000000000000000000000000000000000000000000000000000000000000000000000000000000000000000000000000000000000000000000000000000000000000000000000000000000000000000000000000000000000000000000000000000000000000000000000000000000000000000000000000000000000000000000000000000000000000000000000000000000000000000000000000000000000000000000000000000000000000000000000000000000000000000000000000000000000000000000000000000000000000000000000000000000000000000000000000000000000000000000000000000000000000000000000000000000000000000000000000000000000000000000000000000000000000000000000000000000000000000000000000000000000000000000000000000000000000000000000000000000000000000000000000000000000000000000000000000000000000000000000000000000000000000000000000000000000000000000000000000000000000000000000000000000000000000000000000000000000000000000000000000000000000000000000000000000000000000000000000000000000000000000000000000000000000000000000000000000000000000000000000000000000000000000000000000000000000000000000000000000000000000000000000000000000000000000000000000000000000000000000000000000000000000000000000000000000000000000000000000000000000000000000000000000000000000000000000000000000000000000000000000000000000000000000000000000000000000000000000000000000000000000000000000000000000000000000000000000000000000000000000000000000000000000000000000000000000000000000000000000000000000000000000000000000000000000000000000000000000000000000000000000000000000000000000000000000000000000000000000000000000000000000000000000000000000000000000000000000000000000000000000000000000000000000000000000000000000000000000000000000000000000000000
#072920:000000000000000000000000000000000000000000000000000000000000000000000000000000000000000000000000000000000000000000000000000000000000000000000000000000000000000000000000000000000000000000000000000000000000000000000000000000000000000000000000000000000000000000000000000000000000000000000000000000000000000000000000000000000000000000000000000000000000000000000000000000000000000000000000000000000000000000000000000000000000000000000000000000000000000000000000000000000000000000000000000000000000000000000000000000000000000000000000000000000000000000000000000000000000000000000000000000000000000000000000000000000000000000000000000000000000000000000000000000000000000000000000000000000000000000000000000000000000000000000000000000000000000000000000000000000000000000000000000000000000000000000000000000000000000000000000000000000000000000000000000000000000000000000000000000000000000000000000000000000000000000000000000000000000000000000000000000000000000000000000140000000000000000000000000000000000000000000000000000000000000000000000000000000000000000000000000000000000000000000000000000000000000000000000000000000000000000000000000000000000000000000000000000000000000000000000000000000000000000000000000000000000000000000000000000000000000000000000000000000000000000000000000000000000000000000000000000000000000000000000000000000000000000000000000000000000000000000000000000000000000000000000000000000000000000000000000000000000000000000000000000000000000000000000000000000000000000000000000000000000000000000000000000000000000000000000000000000000000000000000000000000000000000000000000000000000000000000000000000000000000000000000000000000000000000000000000000000000000000000000000000000000000000000000000000000000000000000000000000000000000000000000000000000000000000000000000000000000000000000000000000000000000000000000000000000000000000000000000000000000000000000000000000000000000000000000000000000000000000000000000000000000000000000000000000000000000000000000000000000000000000000000000000000000000000000000000000000000000000000000000000000000000000000000000000000000000000000000000000000000000000000000000000000000000000000000000000000000000000000000000000000000000000000000000000000000000000000000000000000000000000000000000000000000000000000000000000000000000000000000000000000000000000000000000000000000000000000000000000000000000000000000000000000000000000000000000000000000000000000000000000000000000000000000000000000000000000000000000000000000000000000000000000000000000000000000000000000000000000000000000000000000000000000000000000000000000000000000000000000000000000000000000000000000000000000000000000000000000000000000000000000000000000000000000000000000000000000000000000000000000000000000000000000000000000000000000000000000000000000000000000000000000000000000000000000000000000000000000000000000000000000000000000000000000000000000000000000000000000545454240000000000000000000000000000000000000000000000000000000000000000000000000000000000000000000000000000000000000000000000000000000000000000000000000000000000000000000000000000000000000000000000000000000000000000000000000000000000000000000000000000000000000000000000000000000000000000000000000000000000000000000000000000000000000000000000000000000000000000000000000000000000000000000000000000000000000000000000000000000000000000000000000000000000000000000000000000000000000000000000000000000000000000000000000000000000000000000000000000000000000000000000000000000000000000000000000000000000000000000000000000000000000000000000000000000000000000000000000000000000000000000000000000000000000000000000000000000000000000000000000000000000000000000000000000000000000000000000000000000000000000000000000000000000000000000000000000000000000000000000000000000000000000000000000000000000000000000000000000000000000000000000000000000000000000000000000000000000000000000000
#072950:0054
#0739a0:000000000000000000000000000000000000000000000000000000000000000000000000000000000000000000000000000000000000000000000000000000000000000000000000000000000000000000000000000000000000000000000000000000000000000000000000000000000000000000000000000000000000000000000000000000000000000000000000000000000000000000000000000000000000000000000000000000000000000000000000000000000000000000000000000000000000000000000000000000000000000000000000000000000000000000000000000000000000000000000000000000000000000000000000000000000000000000000000000000000000000000000000000000000000000000000000000000000000000000000000000000000000000000000000000000000000000000000000000000000000000000000000000000000000000000000000000000000000000000000000000000000000000000000000000000000000000000000000000000000000000000000000000000000000000000000000000000000000000000000000000000000000000000000000000000000000000000000000000000000000000000000000000000000000000000000000000000000000000000000000140000000000000000000000000000000000000000000000000000000000000000000000000000000000000000000000000000000000000000000000000000000000000000000000000000000000000000000000000000000000000000000000000000000000000000000000000000000000000000000000000000000000000000000000000000000000000000000000000000000000000000000000000000000000000000000000000000000000000000000000000000000000000000000000000000000000000000000000000000000000000000000000000000000000000000000000000000000000000000000000000000000000000000000000000000000000000000000000000000000000000000000000000000000000000000000000000000000000000000000000000000000000000000000000000000000000000000000000000000000000000000000000000000000000000000000000000000000000000000000000000000000000000000000000000000000000000000000000000000000000000000000000000000000000000000000000000000000000000000000000000000000000000000000000000000000000000000000000000000000000000000000000000000000000000000000000000000000000000000000000000000000000000000000000000000000000000000000000000000000000000000000000000000000000000000000000000000000000000000000000000000000000000000000000000000000000000000000000000000000000000000000000000000000000000000000000000000000000000000000000000000000000000000000000000000000000000000000000000000000000000000000000000000000000000000000000000000000000000000000000000000000000000000000000000000000000000000000000000000000000000000000000000000000000000000000000000000000000000000000000000000000000000000000000000000000000000000000000000000000000000000000000000000000000000000000000000000000000000000000000000000000000000000000000000000000000000000000000000000000000000000000000000000000000000000000000000000000000000000000000000000000000000000000000000000000000000000000000000000000000000000000000000000000000000000000000000000000000000000000000000000000000000000000000000000000000000000000000000000000000000000000000000000000000000000000000000000000000000000545454240000000000000000000000000000000000000000000000000000000000000000000000000000000000000000000000000000000000000000000000000000000000000000000000000000000000000000000000000000000000000000000000000000000000000000000000000000000000000000000000000000000000000000000000000000000000000000000000000000000000000000000000000000000000000000000000000000000000000000000000000000000000000000000000000000000000000000000000000000000000000000000000000000000000000000000000000000000000000000000000000000000000000000000000000000000000000000000000000000000000000000000000000000000000000000000000000000000000000000000000000000000000000000000000000000000000000000000000000000000000000000000000000000000000000000000000000000000000000000000000000000000000000000000000000000000000000000000000000000000000000000000000000000000000000000000000000000000000000000000000000000000000000000000000000000000000000000000000000000000000000000000000000000000000000000000000000000000000000000000000
#073970:0054
#074920:13
#074960:000000000000000000000000000000000000000000000000000000000000000000000000000000000000000000000000000000000000000000000000000000000000000000000000000000000000000000000000000000000000000000000000000000000000000000000000000000000000000000000000000000000000000000000000000000000000000000000000000000000000000000000000000000000000000000000000000000000000000000000000000000000000000000000000000000000000000000000000000000000000000000000000000000000000000000000000000000000000000000000000000000000000000000000000000000000000000000000000000000000000000000000000000000000000000000000000000000000000000000000000000000000000000000000000000000000000000000000000000000000000000000000000000000000000000000000000000000000000000000000000000000000000000000000000000000000000000000000000000000000000000000000000000000000000000000000000000000000000000000000000000000000000000000000000000000000000000000000000000000000000000000000000000000000000000000000000000000000000000000530053230000000000000000000000000000000000000000000000000000000000000000000000000000000000000000000000000000000000000000000000000000000000000000000000000000000000000000000000000000000000000000000000000000000000000000000000000000000000000000000000000000000000000000000000000000000000000000000000000000000000000000000000000000000000000000000000000000000000000000000000000000000000000000000000000000000000000000000000000000000000000000000000000000000000000000000000000000000000000000000000000000000000000000000000000000000000000000000000000000000000000000000000000000000000000000000000000000000000000000000000000000000000000000000000000000000000000000000000000000000000000000000000000000000000000000000000000000000000000000000000000000000000000000000000000000000000000000000000000000000000000000000000000000000000000000000000000000000000000000000000000000000000000000000000000000000000000000000000000000000000000000000000000000000000000000000000000000000000000000000000000000000000000000000000000000000000000000000000000000000000000000000000000000000000000000000000000000000000000000000000000000000000000000000000000000000000000000000000000000000000000000000000000000000000000000000000000000000000000000000000000000000000000000000000000000000000000000000000000000000000000000000000000000000000000000000000000000000000000000000000000000000000000000000000000000000000000000000000000000000000000000000000000000000000000000000000000000000000000000000000000000000000000000000000000000000000000000000000000000000000000000000000000000000000000000000000000000000000000000000000000000000000000000000000000000000000000000000000000000000000000000000000000000000000000000000000000000000000000000000000000000000000000000000000000000000000000000000000000000000000000000000000000000000000000000000000000000000000000000000000000000000000000000000000000000000000000000000000000000000000000000000000000000000000000000000000000000000000000000000000000000000000000000000000000000000000000000000000000000000000000000000000000000000000000000000000000000000000000000000000000000000000000000000000000000000000000000000000000000000000000000000000000000000000000000000000000000000000000000000000000000000000000000000000000000000000000000000000000000000000000000000000000000000000000000000000000000000000000000000000000000000000000000000000000000000000000000000000000000000000000000000000000000000000000000000000000000000000000000000000000000000000000000000000000000000000000000000000000000000000000000000000000000000000000000000000000000000000000000000000000000000000000000000000000000000000000000000000000000000000000000000000000000000000000000000000000000000000000000000000000000000000000000000000000000000000000000000000000000000000000000000000000000000000000000000000000000000000000000000000000000000000000000000000000000000000000000000000000000000000000000000000000000000000000000000000000000000000000000000000
#0749b0:0013
#074970:000000000000000000000000000000000000000000000000000000000000000000000000000000000000000000000000000000000000000000000000000000000000000000000000000000000000000000000000000000000000000000000000000000000000000000000000000000000000000000000000000000000000000000000000000000000000000000000000000000000000000000000000000000000000000000000000000000000000000000000000000000000000000000000000000000000000000000000000000000000000000000000000000000000000000000000000000000000000000000000000000000000000000000000000000000000000000000000000000000000000000000000000000000000000000000000000000000000000000000000000000000000000000000000000000000000000000000000000000000000000000000000000000000000000000000000000000000000000000000000000000000000000000000000000000000000000000000000000000000000000000000000000000000000000000000000000000000000000000000000000000000000000000000000000000000000000000000000000000000000000000000000000000000000000000000000000000000000000000000000000000000000000000000000000000000000000000000000000000000000000000000000000000000000000000000000000000000000000000000000000000000000000000000000000000000000000000000000000000000000000000000000000000000000000000000000000000000000000000000000000000000000000000000000000000000000000000000000000000000000000000000000000000000000000000000000000000000000000000000000000000000000000000000000000000000000000000000000000000000000000000000000000000000000000000000000000000000000000000000000000000000000000000000000000000000000000000000000000000000000000000000000000000000000000000000000000000000000000000000000000000000000000000000000000000000000000000000000000000000000000000000000000000000000000000000000000000000000000000000000000000000000000000000000000000000000000000000000000000000000000000000000000000000000000000000000000000000000000000000000000000000000000000000000000000000000000000000000000000000000000000000000000000000000000000000000000000000000000000000000000000000000000000000000000000000000000000000000000000000000000000000000000000000000000000000000000000000000000000000000000000000000000000000000000000000000000000000000000000000000000000000000000000000000000000000000000000000000000000000000000000000000000000000000000000000000000000000000000000000000000000000000000000000000000000000000000000000000000000000000000000000000000000000000000000000000000000000000000000000000000000000000000000000000000000000000000000000000000000000000000000000000000000000000000000000000000000000000000000000000000000000000000000000000000000000000000000000000000000000000000000000000000000000000000000000000000000000000000000000000000000000000000000000000000000000000000000000000000000000000000000000000000000000000000000000000000000000000000000000000000000000000000000000000000000000000000000000000000000000000000000000000000000000000000000000000000000000000000000000000000000000000000000000000000000000000000000000000000000000530053230000000000000000000000000000000000000000000000000000000000000000000000000000000000000000000000000000000000000000000000000000000000000000000000000000000000000000000000000000000000000000000000000000000000000000000000000000000000000000000000000000000000000000000000000000000000000000000000000000000000000000000000000000000000000000000000000000000000000000000000000000000000000000000000000000000000000000000000000000000000000000000000000000000000000000000000000000000000000000000000000000000000000000000000000000000000000000000000000000000000000000000000000000000000000000000000000000000000000000000000000000000000000000000000000000000000000000000000000000000000000000000000000000000000000000000000000000000000000000000000000000000000000000000000000000000000000000000000000000000000000000000000000000000000000000000000000000000000000000000000000000000000000000000000000000000000000000000000000000000000000000000000000000000000000000000000000000000000000000000000
#075920:130000000000000000000000000000000000000000000000000000000000000000000000000000000000000000000000000000000000000000000000000000000000000000000000000000000000000000000000000000000000000000000000000000000000000000000000000000000000000000000000000000000000000000000000000000000000000000000000000000000000000000000000000000000000000000000000000000000000000000000000000000000000000000000000000000000000000000000000000000000000000000000000000000000000000000000000000000000000000000000000000000000000000000000000000000000000000000000000000000000000000000000000000000000000000000000000000000000000000000000000000000000000000000000000000000000000000000000000000000000000000000000000000000000000000000000000000000000000000000000000000000000000000000000000000000000000000000000000000000000000000000000000000000000000000000000000000000000000000000000000000000000000000000000000000000000000000000000000000000000000000000000000000000000000000000000000000000000000000000000000000000000000000000000000000000000000000000000000000000000000000000000000000000000000000000000000000000000000000000000000000000000000000000000000000000000000000000000000000000000000000000000000000000000000000000000000000000000000000000000000000000000000000000000000000000000000000000000000000000000000000000000000000000000000000000000000000000000000000000000000000000000000000000000000000000000000000000000000000000000000000000000000000000000000000000000000000000000000000000000000000000000000000000000000000000000000000000000000000000000000000000000000000000000000000000000000000000000000000000000000000000000000000000000000000000000000000000000000000000000000000000000000000000000000000000000000000000000000000000000000000000000000000000000000000000000000000000000000000000000000000000000000000000000000000000000000000000000000000000000000000000000000000000000000000000000000000000000000000000000000000000000000000000000000000000000000000000000000000053535353230000000000000000000000000000000000000000000000000000000000000000000000000000000000000000000000000000000000000000000000000000000000000000000000000000000000000000000000000000000000000000000000000000000000000000000000000000000000000000000000000000000000000000000000000000000000000000000000000000000000000000000000000000000000000000000000000000000000000000000000000000000000000000000000000000000000000000000000000000000000000000000000000000000000000000000000000000000000000000000000000000000000000000000000000000000000000000000000000000000000000000000000000000000000000000000000000000000000000000000000000000000000000000000000000000000000000000000000000000000000000000000000000000000000000000000000000000000000000000000000000000000000000000000000000000000000000000000000000000000000000000000000000000000000000000000000000000000000000000000000000000000000000000000000000000000000000000000000000000000000000000000000000000000000000000000000000000000000000000000000000000000000000000000000000000000000000000000000000000000000000000000000000000000000000000000000000000000000000000000000000000000000000000000000000000000000000000000000000000000000000000000000000000000000000000000000000000000000000000000000000000000000000000000000000000000000000000000000000000000000000000000000000000000000000000000000000000000000000000000000000000000000000000000000000000000000000000000000000000000000000000000000000000000000000000000000000000000000000000000000000000000000000000000000000000000000000000000000000000000000000000000000000000000000000000000000000000000000000000000000000000000000000000000000000000000000000000000000000000000000000000000000000000000000000000000000000000000000000000000000000000000000000000000000000000000000000000000000000000000000000000000000000000000000000000000000000000000000000000000000000000000000000000000000000000000000000000000000000000000000000000000000000000000000000000000000000000000000000000000000
#075960:00530000
