This file was generated by Ched 2.7.0.0.
#TITLE ""
#ARTIST ""
#DESIGNER ""
#DIFFICULTY 0
#PLAYLEVEL
#SONGID ""
#WAVE ""
#WAVEOFFSET 0
#JACKET ""
#REQUEST "ticks_per_beat 480"
#00002: 4
#BPM01: 150
#00008: 01
#TIL00: ""
#VOLUME: ""
#HISPEED 00
#MEASUREHS 00
#00414:14
#00418:0014
#00514:14
#00518:0014
#00612:14
#00618:00140000
#00614:0014
#0061a:00000014
#00712:14
#00914:0014
#00918:00000014
#01012:14
#01018:0014
#01014:00000014
#0111a:14000014
#01112:0014
#01212:14
#01218:0026
#0151a:0014
#0161a:0014
#01612:24
#01712:14
#01718:00140000
#01714:0014
#0171a:00000014
#01814:14
#01818:00140000
#01812:0014
#02012:0014
#0211a:14
#02114:00140000
#02118:0014
#02112:00000014
#02218:14
#02214:00140000
#0221a:0014
#02412:0014
#0241a:24
#02410:41
#02518:14
#02514:00140000
#0251a:0014
#02614:14
#02618:00140000
#02612:0014
#02812:0014
#0291a:14
#02914:00140000
#02918:0014
#02912:00000014
#0301a:14
#03014:00140000
#03018:0014
#03012:00000014
#0311a:14
#03118:0014
#03312:14
#03314:0014
#0341a:0014
#03212:0014
#03718:0014
#03714:00000014
#03712:24
#0381a:14
#03812:00140000
#0421a:14
#04214:00140000
#04218:0014
#04212:00000014
#04314:00140014
#0431a:2414
#0431f:11
#04418:1414
#04412:00140014
#04618:14140000
#04612:00001414
#0451a:14140000
#04514:00001414
#0481a:14343434
#04718:14
#0471a:00343434
#05018:14
#05118:0016
#05112:26000016
#0511f:00210000
#05218:16160016
#05212:0016
#05210:41
#05312:16001616
#05318:00160000
#05518:16001616
#05512:00160000
#05612:16001616
#05618:00160000
#05718:16001616
#05712:00160000
#06018:0014
#06014:00000014
#06010:41
#0611a:14140000
#06112:00000014
#06114:0024
#06118:0000000000240000
#0621a:14000014
#06212:00140000
#06218:0024
#06214:0000000000240000
#06418:0014
#06414:00000014
#0651a:14140000
#06512:00000014
#06514:0024
#06518:0000000000240000
#0661a:14
#06612:00140000
#06618:00002424
#06614:0000000000240024
#06718:14
#06818:0016
#06812:26
#06810:41
#06912:16
#06918:0016
#07212:0016
#07218:16
#07318:16
#07312:0016
#00818:24
#01312:2636363636363636
#01310:41
#01918:26
#03513:2424
#03519:2424
#03510:41
#0361a:0024
#03616:00000024
#0401a:0024
#04016:00000024
#04112:24
#05912:26
#06312:26
#07612:26
#01412:0036363636360000
#00752:14
#00958:14
#01258:00000016
#01852:0014
#02058:16
#0225a:0014
#0285a:14
#0315a:64
#03158:0024
#03352:54
#03354:0024
#03553:0000000000000014
#03559:0000000000000014
#03958:14
#03954:0000000000000014
#0485a:24
#04758:64
#05057:0016
#05058:24
#05152:00160000
#05558:16
#06052:16
#06758:54
#07258:16
#06852:16
#07652:16
#06452:16
#0003a0:14
#001380:34
#0023a0:34
#003380:24
#008380:14
#009380:24
#012380:00001626
#013320:1636363636363636
#014340:36
#014320:0036363636363600
#015320:26
#019380:1636363636363636
#020380:26
#023320:1424
#0273a0:14343434
#0283a0:24
#0313a0:14
#031380:0054
#0323a0:24
#033320:14
#033340:0054
#034320:24
#035390:00000000000000001400003400002400
#035331:00000000000000001400003400002400
#038381:00001434
#039381:24
#039341:0000000014000024
#041321:14000034000034002400000000000000
#047381:14
#0473a1:00343434
#0483a1:34343434
#049381:34343434
#050381:34
#050371:0026
#051321:16260000
#054381:16260000
#054321:00001626
#058321:16260000
#058381:00001626
#059321:1636363636003600
#060321:26
#063321:16003636360036363600363600363600
#064321:26
#067381:14
#0673a1:00000024
#070321:16
#070331:0036
#071321:36
#071331:0026
#074381:16
#074371:0036
#075381:36
#075371:0026
