This file was generated by Ched 2.7.0.0.
#TITLE ""
#ARTIST ""
#DESIGNER ""
#DIFFICULTY 0
#PLAYLEVEL
#SONGID ""
#WAVE ""
#WAVEOFFSET 0
#JACKET ""
#REQUEST "ticks_per_beat 480"
#00002: 4
#BPM01: 188
#00008: 01
#TIL00: ""
#VOLUME: ""
#HISPEED 00
#MEASUREHS 00
#00318:14
#00412:14
#00518:14
#00614:14
#0071a:14
#00814:14
#01112:14
#01110:41
#01212:14
#01318:14
#01418:14
#01514:14
#01614:14
#0171a:14
#0181a:14
#01912:14
#01918:0014
#01910:41
#02012:14
#0211a:14
#02114:0014
#0221a:14
#02312:14
#02318:0014
#02414:14
#0251a:14
#02514:0014
#02618:14
#02612:0014
#03512:0016
#03518:26
#0351f:21
#03618:16
#03612:0016
#03610:41
#03812:0016
#03818:16
#03718:16
#03712:0016
#04118:1616
#04212:1616
#0431a:14
#04314:0014
#04418:14
#04412:0014
#0451a:14
#04514:0014
#04618:14
#04612:0014
#05019:14
#05013:24
#0551a:14
#05518:0014
#05712:14
#05714:0014
#0511a:14
#05110:41
#05312:14
#0631a:0000003414003400
#06318:24
#06512:0000003414003400
#06514:24
#0671a:14
#06812:14
#06918:14
#07014:14
#07518:16
#07512:00260000
#07510:00410000
#07718:16
#07712:0016
#07818:16
#07812:0016
#08118:1616
#08212:1616
#08518:1414
#08612:1414
#0831a:1414
#08414:1414
#09219:15
#09212:25
#0271f:11
#00018:24
#00212:24
#04012:26
#05918:24
#0591a:0000003400003400
#05910:41
#06114:24
#06112:0000003400003400
#08012:26
#08718:26
#08912:24
#0901a:24
#09114:24
#0555a:64
#05558:0024
#05752:54
#05754:0024
#0515a:64
#05352:54
#05958:64
#06154:54
#06358:64
#0635a:0024
#06552:0024
#06554:54
#000380:1400000000340024
#0093a0:14
#0103a0:24
#0273a0:14
#028380:34
#0293a0:34
#030380:24
#031320:14
#032340:34
#033320:34
#034340:24
#039380:1626
#040320:1626
#0473a0:14
#0483a0:24
#0513a0:14
#052380:24
#053320:14
#054340:24
#0553a0:14
#055380:0054
#0563a0:24
#057320:14
#057340:0054
#058320:24
#059380:14
#0593a0:0000003400003400
#0603a0:24
#061340:14
#061320:0000003400003400
#062320:24
#063380:14
#0633a0:0000003454003400
#064380:24
#065340:14
#065320:0000003454003400
#066340:24
#0713a0:14343434
#0723a0:24
#073320:14343434
#074320:24
#075320:00160000
#076320:26
#079380:1626
#080320:1626
#087380:16
#088380:26
