This file was generated by Ched 2.7.0.0.
#TITLE ""
#ARTIST ""
#DESIGNER ""
#DIFFICULTY 0
#PLAYLEVEL
#SONGID ""
#WAVE ""
#WAVEOFFSET 0
#JACKET ""
#REQUEST "ticks_per_beat 480"
#00002: 4
#BPM01: 188
#00008: 01
#TIL00: ""
#VOLUME: ""
#HISPEED 00
#MEASUREHS 00
#00214:00140014
#0021a:2414
#00412:1414
#00418:00140014
#0061a:14
#00614:00140014
#00618:0014
#00812:14
#00818:00140014
#00814:0014
#01114:00140014
#0111a:24
#01110:41
#01212:00140014
#01218:24
#01314:00140014
#0131a:24
#01412:00140000
#01418:24000014
#01518:00140014
#01512:24
#0161a:00140014
#01614:24
#01718:00140014
#01712:24
#0191a:2414
#01910:41
#02112:1414
#02318:1414
#02418:14
#02514:1414
#03514:00140000
#03518:0014
#03512:00000014
#0351a:24
#0351f:21
#03618:14
#03614:00140000
#0361a:0014
#03610:41
#03712:14
#03718:00140000
#03714:0014
#0371a:00000014
#03814:14
#03818:00140000
#03812:0014
#0411a:14
#04114:00140000
#04118:0014
#04112:00000014
#04318:00140000
#04314:0014
#0431a:00000014
#04312:24
#04414:14
#04418:00140000
#04412:0014
#0451a:14
#04514:00140000
#04518:0014
#04512:00000014
#04618:14
#04614:00140000
#0461a:0014
#04714:14140000
#04718:00001414
#0511a:14
#05118:0000001400000000
#05110:41
#05212:14
#05214:0000001400000000
#0531a:14
#05318:0000001400000000
#05414:1414
#05418:00140014
#05512:14
#05514:0000001400000000
#0561a:14
#05618:0000001400000000
#05712:14
#05714:0000001400000000
#0591a:0000001400000000
#05918:24
#05910:41
#06012:0000001400000000
#06014:14
#06214:14140000
#06218:00001414
#0611a:0000001400000000
#06118:24
#06312:0000001400000000
#06314:24
#0641a:0000001400000000
#06418:14
#06512:14
#0651a:00140000
#06514:0014
#06518:00000014
#06718:16
#06812:16
#06918:16
#07012:16
#07118:14141414
#07214:14141414
#07319:14
#05019:14
#05013:24
#07712:14
#07718:00140000
#07714:0014
#0771a:00000014
#07814:14
#07818:00140000
#07812:0014
#0811a:1414
#08112:00140014
#08218:1414
#08214:00140000
#08318:00140014
#08312:2414
#0841a:00140014
#08414:1414
#08518:00140000
#08514:0014
#0851a:00000014
#08512:24
#08618:00140000
#08614:0014
#0861a:00000014
#08612:24
#08718:00141414
#08714:0000001400140000
#08712:24
#09119:00000014
#09118:16
#09113:00000024
#0881a:14
#08812:24
#09018:16
#09012:00000026
#0271f:11
#02712:0034
#00018:24240000
#00014:0024000000000024
#01814:24
#02614:24
#02618:00240000
#02612:0024
#0261a:00000024
#03312:24
#04012:24
#04017:24
#04812:24
#05818:2424
#05814:00240024
#07513:24
#07510:00410000
#08015:24
#0801a:24
#07613:24242400
#07619:24242400
#08912:26
#02812:34
#0291a:0034
#0301a:34
#00058:0000000000140000
#00054:0000000000000014
#01854:0000001400000000
#0205a:0000001400000000
#02252:0000001400000000
#02458:64
#03456:14
#03352:64
#0365a:0014
#03852:0014
#0425a:0014
#04452:0014
#0465a:0014
#0515a:64
#05158:0000006400000000
#05252:54
#05254:0000006400000000
#0535a:64
#05358:0000006400000000
#05552:54
#05554:0000005400000000
#0565a:64
#05658:0000005400000000
#05752:54
#05754:0000005400000000
#0595a:0000002400000000
#05958:54
#06052:0000002400000000
#06054:64
#0615a:0000002400000000
#06158:54
#06352:0000002400000000
#06354:64
#0645a:0000002400000000
#06458:54
#06652:0000001400000000
#06758:16
#06852:16
#06958:16
#07052:16
#07458:0016
#07359:64
#07553:00140000
#07559:00140000
#05059:14
#05053:14
#07852:0014
#08258:0014
#09252:16
#09258:16
#09153:00000024
#09159:00000024
#08952:16
#09058:16
#000380:0000140000240000
#0033a0:1424
#005320:1424
#0073a0:14
#007380:0024
#009320:14
#009340:0034
#010340:24
#018340:1400002400000000
#0203a0:1400342400000000
#022320:1400342400000000
#024380:14
#0243a0:0024
#027340:14
#027320:0034
#028320:3424
#029380:14
#0293a0:0034
#0303a0:3424
#031320:14
#031330:0000003400000000
#031340:00000024
#0323a0:14
#032390:0000003400000000
#032380:00000024
#033320:14
#034360:24
#0393a0:1424
#039351:1424
#040321:1424
#040370:1424
#0423a0:14342400
#0513a0:14000024
#051380:0000003400000000
#052320:14000024
#052340:0000003400000000
#0533a0:14000024
#053380:0000003400000000
#055320:14000024
#055340:0000003400000000
#0563a0:14000024
#056380:0000003400000000
#057320:14000024
#057340:0000003400000000
#059380:14000024
#0593a0:0000003400000000
#060340:14000024
#060320:0000003400000000
#061380:14000024
#0613a0:0000003400000000
#063340:14000024
#063320:0000003400000000
#064380:14000024
#0643a0:0000003400000000
#066320:14000034000024000000000000000000
#073390:14
#074380:36362600
#075330:14240000
#075391:14240000
#079371:14
#0793a1:0024
#079320:14
#079350:0024
#080350:14
#080320:0024
#0803a1:14
#080371:0024
#091331:00000014
#092321:26
#091390:00000014
#092380:26
